Поиск

(Funk, Soul) [CD] Curtis Mayfield - Never Say You Can't Survive (1977) - 2009 {Japan SHM-CD, VICP-70096}, FLAC (tracks+.cue), lossless

(Funk, Soul) [CD] Curtis Mayfield - Never Say You Can't Survive (1977) - 2009 {Japan SHM-CD, VICP-70096}, FLAC (tracks+.cue), lossless
Треклист:
Curtis Mayfield - Never Say You Can't Survive (1977) Жанр: Funk, Soul
Носитель: CD
Страна-производитель диска: Japan
Год издания: 2009
Издатель (лейбл): Victor Entertainment
Номер по каталогу: VICP-70096
Аудиокодек: FLAC (*.flac)
Тип рипа: tracks+.cue
Битрейт аудио: lossless
Продолжительность: 37:47
Rip by JET 1
Наличие сканов в содержимом раздачи: да
Треклист:
01. Show Me Love (5:16)
02. Just Want To Be With You (3:14)
03. When We're Alone (5:27)
04. Never Say You Can't Survive (3:23)
05. I'm Gonna Win Your Love (4:43)
06. All Night Long (4:15)
07. When You Used To Be Mine (3:41)
08. Sparkle (4:04)
09. Show Me Love [single edit] (3:45)
 
 
Лог создания рипа
Exact Audio Copy V1.0 beta 3 from 29. August 2011
EAC extraction logfile from 30. May 2016, 0:13
Curtis Mayfield / Never Say You Can't Survive
Used drive : GENERIC CDRCB05 Adapter: 4 ID: 0
Read mode : Secure
Utilize accurate stream : Yes
Defeat audio cache : Yes
Make use of C2 pointers : No
Read offset correction : 102
Overread into Lead-In and Lead-Out : No
Fill up missing offset samples with silence : Yes
Delete leading and trailing silent blocks : No
Null samples used in CRC calculations : Yes
Used interface : Native Win32 interface for Win NT & 2000
Gap handling : Appended to previous track
Used output format : User Defined Encoder
Selected bitrate : 1024 kBit/s
Quality : High
Add ID3 tag : No
Command line compressor : C:\Program Files\FLAC\flac.exe
Additional command line options : -8 -V -T "ARTIST=%artist%" -T "TITLE=%title%" -T "ALBUM=%albumtitle%" -T "DATE=%year%" -T "TRACKNUMBER=%tracknr%" -T "GENRE=%genre%" -T "PERFORMER=%albuminterpret%" -T "COMPOSER=%composer%" %haslyrics%--tag-from-file=LYRICS="%lyricsfile%"%haslyrics% -T "ALBUMARTIST=%albumartist%" -T "DISCNUMBER=%cdnumber%" -T "TOTALDISCS=%totalcds%" -T "TOTALTRACKS=%numtracks%" -T "COMMENT=%comment%" %source% -o %dest%
TOC of the extracted CD
Track | Start | Length | Start sector | End sector
---------------------------------------------------------
1 | 0:00.37 | 5:15.70 | 37 | 23731
2 | 5:16.32 | 3:14.00 | 23732 | 38281
3 | 8:30.32 | 5:26.63 | 38282 | 62794
4 | 13:57.20 | 3:22.70 | 62795 | 78014
5 | 17:20.15 | 4:43.22 | 78015 | 99261
6 | 22:03.37 | 4:14.40 | 99262 | 118351
7 | 26:18.02 | 3:40.55 | 118352 | 134906
8 | 29:58.57 | 4:03.63 | 134907 | 153194
9 | 34:02.45 | 3:44.70 | 153195 | 170064
Track 1
Filename F:\.........POSTS\Curtis Mayfield - Never Say You Can't Survive (1977) [2009 Japan Mini-CD]\01 - Show Me Love.wav
Pre-gap length 0:00:02.37
Peak level 99.2 %
Extraction speed 2.4 X
Track quality 100.0 %
Test CRC 55125576
Copy CRC 55125576
Accurately ripped (confidence 2) [B06C6E19] (AR v1)
Copy OK
Track 2
Filename F:\.........POSTS\Curtis Mayfield - Never Say You Can't Survive (1977) [2009 Japan Mini-CD]\02 - Just Want To Be With You.wav
Pre-gap length 0:00:02.34
Peak level 99.2 %
Extraction speed 2.5 X
Track quality 100.0 %
Test CRC B35E6D2C
Copy CRC B35E6D2C
Accurately ripped (confidence 2) [4DAF4922] (AR v1)
Copy OK
Track 3
Filename F:\.........POSTS\Curtis Mayfield - Never Say You Can't Survive (1977) [2009 Japan Mini-CD]\03 - When We're Alone.wav
Pre-gap length 0:00:02.11
Peak level 99.2 %
Extraction speed 3.0 X
Track quality 100.0 %
Test CRC 31330A78
Copy CRC 31330A78
Accurately ripped (confidence 2) [ABD53FB2] (AR v1)
Copy OK
Track 4
Filename F:\.........POSTS\Curtis Mayfield - Never Say You Can't Survive (1977) [2009 Japan Mini-CD]\04 - Never Say You Can't Survive.wav
Pre-gap length 0:00:02.19
Peak level 99.2 %
Extraction speed 2.9 X
Track quality 100.0 %
Test CRC 86B7D260
Copy CRC 86B7D260
Accurately ripped (confidence 2) [CCF9045E] (AR v1)
Copy OK
Track 5
Filename F:\.........POSTS\Curtis Mayfield - Never Say You Can't Survive (1977) [2009 Japan Mini-CD]\05 - I'm Gonna Win Your Love.wav
Pre-gap length 0:00:04.07
Peak level 99.2 %
Extraction speed 3.2 X
Track quality 100.0 %
Test CRC 61202762
Copy CRC 61202762
Accurately ripped (confidence 2) [D9095450] (AR v1)
Copy OK
Track 6
Filename F:\.........POSTS\Curtis Mayfield - Never Say You Can't Survive (1977) [2009 Japan Mini-CD]\06 - All Night Long.wav
Pre-gap length 0:00:02.01
Peak level 86.7 %
Extraction speed 3.4 X
Track quality 100.0 %
Test CRC 2D655A0B
Copy CRC 2D655A0B
Accurately ripped (confidence 2) [0FB65C38] (AR v1)
Copy OK
Track 7
Filename F:\.........POSTS\Curtis Mayfield - Never Say You Can't Survive (1977) [2009 Japan Mini-CD]\07 - When You Used To Be Mine.wav
Pre-gap length 0:00:02.14
Peak level 99.2 %
Extraction speed 2.7 X
Track quality 99.9 %
Test CRC 61E27F94
Copy CRC 61E27F94
Accurately ripped (confidence 2) [23DC0996] (AR v1)
Copy OK
Track 8
Filename F:\.........POSTS\Curtis Mayfield - Never Say You Can't Survive (1977) [2009 Japan Mini-CD]\08 - Sparkle.wav
Pre-gap length 0:00:02.16
Peak level 99.2 %
Extraction speed 3.4 X
Track quality 100.0 %
Test CRC EC531A3C
Copy CRC EC531A3C
Accurately ripped (confidence 2) [BD36988F] (AR v1)
Copy OK
Track 9
Filename F:\.........POSTS\Curtis Mayfield - Never Say You Can't Survive (1977) [2009 Japan Mini-CD]\09 - Show Me Love [single edit].wav
Pre-gap length 0:00:01.67
Peak level 92.5 %
Extraction speed 3.6 X
Track quality 100.0 %
Test CRC 2A1ACA9E
Copy CRC 2A1ACA9E
Accurately ripped (confidence 2) [6ACC3D66] (AR v1)
Copy OK
All tracks accurately ripped
No errors occurred
End of status report
==== Log checksum A22F306971F0D813A957B390E890C4CE49455F6C281EC626EB6AC590E08A0A25 ====
 
Содержание индексной карты (.CUE)
REM GENRE Soul
REM DATE 1977
REM DISCID 5D08DB09
REM COMMENT "ExactAudioCopy v1.0b3"
PERFORMER "Curtis Mayfield"
TITLE "Never Say You Can't Survive"
FILE "01 - Show Me Love.wav" WAVE
TRACK 01 AUDIO
TITLE "Show Me Love"
PERFORMER "Curtis Mayfield"
PREGAP 00:00:37
INDEX 01 00:00:00
TRACK 02 AUDIO
TITLE "Just Want To Be With You"
PERFORMER "Curtis Mayfield"
INDEX 00 05:13:36
FILE "02 - Just Want To Be With You.wav" WAVE
INDEX 01 00:00:00
TRACK 03 AUDIO
TITLE "When We're Alone"
PERFORMER "Curtis Mayfield"
INDEX 00 03:11:64
FILE "03 - When We're Alone.wav" WAVE
INDEX 01 00:00:00
TRACK 04 AUDIO
TITLE "Never Say You Can't Survive"
PERFORMER "Curtis Mayfield"
INDEX 00 05:24:44
FILE "04 - Never Say You Can't Survive.wav" WAVE
INDEX 01 00:00:00
TRACK 05 AUDIO
TITLE "I'm Gonna Win Your Love"
PERFORMER "Curtis Mayfield"
INDEX 00 03:18:63
FILE "05 - I'm Gonna Win Your Love.wav" WAVE
INDEX 01 00:00:00
TRACK 06 AUDIO
TITLE "All Night Long"
PERFORMER "Curtis Mayfield"
INDEX 00 04:41:21
FILE "06 - All Night Long.wav" WAVE
INDEX 01 00:00:00
TRACK 07 AUDIO
TITLE "When You Used To Be Mine"
PERFORMER "Curtis Mayfield"
INDEX 00 04:12:26
FILE "07 - When You Used To Be Mine.wav" WAVE
INDEX 01 00:00:00
TRACK 08 AUDIO
TITLE "Sparkle"
PERFORMER "Curtis Mayfield"
INDEX 00 03:38:39
FILE "08 - Sparkle.wav" WAVE
INDEX 01 00:00:00
TRACK 09 AUDIO
TITLE "Show Me Love [single edit]"
PERFORMER "Curtis Mayfield"
INDEX 00 04:01:71
FILE "09 - Show Me Love [single edit].wav" WAVE
INDEX 01 00:00:00
Приватный:
Нет (DHT включён)
Размер:
325.89 Мб (341,723,953 байт) » файлов: 28
Участники:
0 раздают, 0 качают (0 участников всего)
Внешние участники:
5 раздают, 1 качают (6 участников всего) [ Обновить ]
Есть вопросы - пишите личное сообщение пользователю M0p94ok.
11:00
62
Нет комментариев. Ваш будет первым!