Поиск

(Funk, Soul, Soundtrack) [CD] Curtis Mayfield - Short Eyes (1977) - 2009 {Japan SHM-CD, VICP-70097}, FLAC (tracks+.cue), lossless

(Funk, Soul, Soundtrack) [CD] Curtis Mayfield - Short Eyes (1977) - 2009 {Japan SHM-CD, VICP-70097}, FLAC (tracks+.cue), lossless
Треклист:
Curtis Mayfield - Short Eyes (1977) Жанр: Funk, Soul, Soundtrack
Носитель: CD
Страна-производитель диска: Japan
Год издания: 2009
Издатель (лейбл): Victor Entertainment
Номер по каталогу: VICP-70097
Аудиокодек: FLAC (*.flac)
Тип рипа: tracks+.cue
Битрейт аудио: lossless
Продолжительность: 39:17
Rip by JET 1
Наличие сканов в содержимом раздачи: да
Треклист:
01. Do Do Wap Is Strong In Here (5:31)
02. Back Against The Wall (6:40)
03. Need Someone To Love (3:16)
04. A Heavy Dude (4:10)
05. Short Eyes - Freak, Freak, Free, Free, Free (5:46)
06. Break It Down (4:20)
07. Another Fool In Love (3:23)
08. Father Confessor (2:42)
09. Do Do Wap Is Strong In Here [single edit] (3:29)
 
 
Лог создания рипа
Exact Audio Copy V1.0 beta 3 from 29. August 2011
EAC extraction logfile from 29. May 2016, 23:20
Curtis Mayfield / Short Eyes
Used drive : GENERIC CDRCB05 Adapter: 4 ID: 0
Read mode : Secure
Utilize accurate stream : Yes
Defeat audio cache : Yes
Make use of C2 pointers : No
Read offset correction : 102
Overread into Lead-In and Lead-Out : No
Fill up missing offset samples with silence : Yes
Delete leading and trailing silent blocks : No
Null samples used in CRC calculations : Yes
Used interface : Native Win32 interface for Win NT & 2000
Gap handling : Appended to previous track
Used output format : User Defined Encoder
Selected bitrate : 1024 kBit/s
Quality : High
Add ID3 tag : No
Command line compressor : C:\Program Files\FLAC\flac.exe
Additional command line options : -8 -V -T "ARTIST=%artist%" -T "TITLE=%title%" -T "ALBUM=%albumtitle%" -T "DATE=%year%" -T "TRACKNUMBER=%tracknr%" -T "GENRE=%genre%" -T "PERFORMER=%albuminterpret%" -T "COMPOSER=%composer%" %haslyrics%--tag-from-file=LYRICS="%lyricsfile%"%haslyrics% -T "ALBUMARTIST=%albumartist%" -T "DISCNUMBER=%cdnumber%" -T "TOTALDISCS=%totalcds%" -T "TOTALTRACKS=%numtracks%" -T "COMMENT=%comment%" %source% -o %dest%
TOC of the extracted CD
Track | Start | Length | Start sector | End sector
---------------------------------------------------------
1 | 0:00.00 | 5:30.45 | 0 | 24794
2 | 5:30.45 | 6:39.57 | 24795 | 54776
3 | 12:10.27 | 3:15.50 | 54777 | 69451
4 | 15:26.02 | 4:10.25 | 69452 | 88226
5 | 19:36.27 | 5:46.10 | 88227 | 114186
6 | 25:22.37 | 4:19.65 | 114187 | 133676
7 | 29:42.27 | 3:23.33 | 133677 | 148934
8 | 33:05.60 | 2:41.45 | 148935 | 161054
9 | 35:47.30 | 3:29.15 | 161055 | 176744
Track 1
Filename F:\.........POSTS\Curtis Mayfield - Short Eyes (1977) [2009 Japan Mini-CD]\01 - Do Do Wap Is Strong In Here.wav
Pre-gap length 0:00:02.00
Peak level 99.2 %
Extraction speed 2.5 X
Track quality 100.0 %
Test CRC 44CA7860
Copy CRC 44CA7860
Track not present in AccurateRip database
Copy OK
Track 2
Filename F:\.........POSTS\Curtis Mayfield - Short Eyes (1977) [2009 Japan Mini-CD]\02 - Back Against The Wall.wav
Pre-gap length 0:00:00.44
Peak level 99.2 %
Extraction speed 2.8 X
Track quality 100.0 %
Test CRC 25BD3134
Copy CRC 25BD3134
Track not present in AccurateRip database
Copy OK
Track 3
Filename F:\.........POSTS\Curtis Mayfield - Short Eyes (1977) [2009 Japan Mini-CD]\03 - Need Someone To Love.wav
Pre-gap length 0:00:01.41
Peak level 99.2 %
Extraction speed 2.9 X
Track quality 100.0 %
Test CRC DF5E7590
Copy CRC DF5E7590
Track not present in AccurateRip database
Copy OK
Track 4
Filename F:\.........POSTS\Curtis Mayfield - Short Eyes (1977) [2009 Japan Mini-CD]\04 - A Heavy Dude.wav
Pre-gap length 0:00:01.44
Peak level 99.2 %
Extraction speed 2.8 X
Track quality 99.9 %
Test CRC 794CEC7E
Copy CRC 794CEC7E
Track not present in AccurateRip database
Copy OK
Track 5
Filename F:\.........POSTS\Curtis Mayfield - Short Eyes (1977) [2009 Japan Mini-CD]\05 - Short Eyes - Freak, Freak, Free, Free, Free.wav
Pre-gap length 0:00:02.41
Peak level 99.2 %
Extraction speed 3.5 X
Track quality 100.0 %
Test CRC BEAECBAB
Copy CRC BEAECBAB
Track not present in AccurateRip database
Copy OK
Track 6
Filename F:\.........POSTS\Curtis Mayfield - Short Eyes (1977) [2009 Japan Mini-CD]\06 - Break It Down.wav
Pre-gap length 0:00:01.39
Peak level 99.2 %
Extraction speed 3.6 X
Track quality 100.0 %
Test CRC 059FF239
Copy CRC 059FF239
Track not present in AccurateRip database
Copy OK
Track 7
Filename F:\.........POSTS\Curtis Mayfield - Short Eyes (1977) [2009 Japan Mini-CD]\07 - Another Fool In Love.wav
Pre-gap length 0:00:01.54
Peak level 99.2 %
Extraction speed 3.6 X
Track quality 100.0 %
Test CRC DD014123
Copy CRC DD014123
Track not present in AccurateRip database
Copy OK
Track 8
Filename F:\.........POSTS\Curtis Mayfield - Short Eyes (1977) [2009 Japan Mini-CD]\08 - Father Confessor.wav
Pre-gap length 0:00:01.42
Peak level 99.2 %
Extraction speed 3.4 X
Track quality 100.0 %
Test CRC EB34F7CD
Copy CRC EB34F7CD
Track not present in AccurateRip database
Copy OK
Track 9
Filename F:\.........POSTS\Curtis Mayfield - Short Eyes (1977) [2009 Japan Mini-CD]\09 - Do Do Wap Is Strong In Here (Single Edit).wav
Pre-gap length 0:00:01.74
Peak level 98.8 %
Extraction speed 3.8 X
Track quality 100.0 %
Test CRC 4C79CB4D
Copy CRC 4C79CB4D
Track not present in AccurateRip database
Copy OK
None of the tracks are present in the AccurateRip database
No errors occurred
End of status report
==== Log checksum B7CE193922E3F9F9422BF452940394E30D2FCD9D976AF1707787F716856ED37D ====
 
Содержание индексной карты (.CUE)
REM GENRE Soundtrack
REM DATE 1977
REM DISCID 83093409
REM COMMENT "ExactAudioCopy v1.0b3"
PERFORMER "Curtis Mayfield"
TITLE "Short Eyes"
FILE "01 - Do Do Wap Is Strong In Here.wav" WAVE
TRACK 01 AUDIO
TITLE "Do Do Wap Is Strong In Here"
PERFORMER "Curtis Mayfield"
INDEX 01 00:00:00
TRACK 02 AUDIO
TITLE "Back Against The Wall"
PERFORMER "Curtis Mayfield"
INDEX 00 05:30:01
FILE "02 - Back Against The Wall.wav" WAVE
INDEX 01 00:00:00
TRACK 03 AUDIO
TITLE "Need Someone To Love"
PERFORMER "Curtis Mayfield"
INDEX 00 06:38:16
FILE "03 - Need Someone To Love.wav" WAVE
INDEX 01 00:00:00
TRACK 04 AUDIO
TITLE "A Heavy Dude"
PERFORMER "Curtis Mayfield"
INDEX 00 03:14:06
FILE "04 - A Heavy Dude.wav" WAVE
INDEX 01 00:00:00
TRACK 05 AUDIO
TITLE "Short Eyes - Freak, Freak, Free, Free, Free"
PERFORMER "Curtis Mayfield"
INDEX 00 04:07:59
FILE "05 - Short Eyes - Freak, Freak, Free, Free, Free.wav" WAVE
INDEX 01 00:00:00
TRACK 06 AUDIO
TITLE "Break It Down"
PERFORMER "Curtis Mayfield"
INDEX 00 05:44:46
FILE "06 - Break It Down.wav" WAVE
INDEX 01 00:00:00
TRACK 07 AUDIO
TITLE "Another Fool In Love"
PERFORMER "Curtis Mayfield"
INDEX 00 04:18:11
FILE "07 - Another Fool In Love.wav" WAVE
INDEX 01 00:00:00
TRACK 08 AUDIO
TITLE "Father Confessor"
PERFORMER "Curtis Mayfield"
INDEX 00 03:21:66
FILE "08 - Father Confessor.wav" WAVE
INDEX 01 00:00:00
TRACK 09 AUDIO
TITLE "Do Do Wap Is Strong In Here [single edit]"
PERFORMER "Curtis Mayfield"
INDEX 00 02:39:46
FILE "09 - Do Do Wap Is Strong In Here [single edit].wav" WAVE
INDEX 01 00:00:00
Приватный:
Нет (DHT включён)
Размер:
337.00 Мб (353,365,218 байт) » файлов: 28
Участники:
64 раздают, 0 качают (64 участников всего)
Внешние участники:
3 раздают, 1 качают (4 участников всего) [ Обновить ]
Есть вопросы - пишите личное сообщение пользователю M0p94ok.
11:01
95
Нет комментариев. Ваш будет первым!