Поиск

(Funk, Soul) [CD] Curtis Mayfield - Do It All Night (1978) - 2009 {Japan SHM-CD, VICP-70098}, FLAC (tracks+.cue), lossless

(Funk, Soul) [CD] Curtis Mayfield - Do It All Night (1978) - 2009 {Japan SHM-CD, VICP-70098}, FLAC (tracks+.cue), lossless
Треклист:
Curtis Mayfield - Do It All Night (1978) Жанр: Funk, Soul
Носитель: CD
Страна-производитель диска: Japan
Год издания: 2009
Издатель (лейбл): Victor Entertainment
Номер по каталогу: VICP-70098
Аудиокодек: FLAC (*.flac)
Тип рипа: tracks+.cue
Битрейт аудио: lossless
Продолжительность: 39:12
Rip by JET 1
Наличие сканов в содержимом раздачи: да
Треклист:
01. Do It All Night (8:24)
02. No Goobyes (7:43)
03. Party, Party (7:56)
04. Keeps Me Loving You (3:28)
05. In Love, In Love, In Love (4:23)
06. You Are, You Are (3:39)
07. Do It All Night [single edit] (3:40)
 
 
Лог создания рипа
Exact Audio Copy V1.0 beta 3 from 29. August 2011
EAC extraction logfile from 30. May 2016, 2:26
Curtis Mayfield / Do It All Night
Used drive : GENERIC CDRCB05 Adapter: 4 ID: 0
Read mode : Secure
Utilize accurate stream : Yes
Defeat audio cache : Yes
Make use of C2 pointers : No
Read offset correction : 102
Overread into Lead-In and Lead-Out : No
Fill up missing offset samples with silence : Yes
Delete leading and trailing silent blocks : No
Null samples used in CRC calculations : Yes
Used interface : Native Win32 interface for Win NT & 2000
Gap handling : Appended to previous track
Used output format : User Defined Encoder
Selected bitrate : 1024 kBit/s
Quality : High
Add ID3 tag : No
Command line compressor : C:\Program Files\FLAC\flac.exe
Additional command line options : -8 -V -T "ARTIST=%artist%" -T "TITLE=%title%" -T "ALBUM=%albumtitle%" -T "DATE=%year%" -T "TRACKNUMBER=%tracknr%" -T "GENRE=%genre%" -T "PERFORMER=%albuminterpret%" -T "COMPOSER=%composer%" %haslyrics%--tag-from-file=LYRICS="%lyricsfile%"%haslyrics% -T "ALBUMARTIST=%albumartist%" -T "DISCNUMBER=%cdnumber%" -T "TOTALDISCS=%totalcds%" -T "TOTALTRACKS=%numtracks%" -T "COMMENT=%comment%" %source% -o %dest%
TOC of the extracted CD
Track | Start | Length | Start sector | End sector
---------------------------------------------------------
1 | 0:00.37 | 8:23.43 | 37 | 37804
2 | 8:24.05 | 7:42.70 | 37805 | 72524
3 | 16:07.00 | 7:56.35 | 72525 | 108259
4 | 24:03.35 | 3:27.57 | 108260 | 123841
5 | 27:31.17 | 4:22.68 | 123842 | 143559
6 | 31:54.10 | 3:39.20 | 143560 | 160004
7 | 35:33.30 | 3:39.40 | 160005 | 176469
Track 1
Filename F:\.........POSTS\Curtis Mayfield - Do It All Night (1978) [2009 Japan Mini-CD]\01 - Do It All Night.wav
Pre-gap length 0:00:02.37
Peak level 99.2 %
Extraction speed 2.7 X
Track quality 100.0 %
Test CRC A2A99EB0
Copy CRC A2A99EB0
Track not present in AccurateRip database
Copy OK
Track 2
Filename F:\.........POSTS\Curtis Mayfield - Do It All Night (1978) [2009 Japan Mini-CD]\02 - No Goobyes.wav
Pre-gap length 0:00:02.49
Peak level 99.2 %
Extraction speed 3.2 X
Track quality 100.0 %
Test CRC 8744C911
Copy CRC 8744C911
Track not present in AccurateRip database
Copy OK
Track 3
Filename F:\.........POSTS\Curtis Mayfield - Do It All Night (1978) [2009 Japan Mini-CD]\03 - Party, Party.wav
Pre-gap length 0:00:02.52
Peak level 99.2 %
Extraction speed 3.6 X
Track quality 100.0 %
Test CRC 97C29D11
Copy CRC 97C29D11
Track not present in AccurateRip database
Copy OK
Track 4
Filename F:\.........POSTS\Curtis Mayfield - Do It All Night (1978) [2009 Japan Mini-CD]\04 - Keeps Me Loving You.wav
Pre-gap length 0:00:02.49
Peak level 99.2 %
Extraction speed 3.5 X
Track quality 100.0 %
Test CRC F02529FA
Copy CRC F02529FA
Track not present in AccurateRip database
Copy OK
Track 5
Filename F:\.........POSTS\Curtis Mayfield - Do It All Night (1978) [2009 Japan Mini-CD]\05 - In Love, In Love, In Love,.wav
Pre-gap length 0:00:02.49
Peak level 99.2 %
Extraction speed 3.3 X
Track quality 99.9 %
Test CRC B0FDD21D
Copy CRC B0FDD21D
Track not present in AccurateRip database
Copy OK
Track 6
Filename F:\.........POSTS\Curtis Mayfield - Do It All Night (1978) [2009 Japan Mini-CD]\06 - You Are, You Are.wav
Pre-gap length 0:00:02.49
Peak level 99.2 %
Extraction speed 3.8 X
Track quality 100.0 %
Test CRC 52A458B4
Copy CRC 52A458B4
Track not present in AccurateRip database
Copy OK
Track 7
Filename F:\.........POSTS\Curtis Mayfield - Do It All Night (1978) [2009 Japan Mini-CD]\07 - Do It All Night (Single Edit).wav
Pre-gap length 0:00:02.34
Peak level 100.0 %
Extraction speed 3.9 X
Track quality 100.0 %
Test CRC 05911EFA
Copy CRC 05911EFA
Track not present in AccurateRip database
Copy OK
None of the tracks are present in the AccurateRip database
No errors occurred
End of status report
==== Log checksum 7BC2DE6C09C70862EC264E7B32C362F5F8D2C6489A30F29FC1095409B471A4F5 ====
 
Содержание индексной карты (.CUE)
REM GENRE Soul
REM DATE 1978
REM DISCID 5E093007
REM COMMENT "ExactAudioCopy v1.0b3"
PERFORMER "Curtis Mayfield"
TITLE "Do It All Night"
FILE "01 - Do It All Night.wav" WAVE
TRACK 01 AUDIO
TITLE "Do It All Night"
PERFORMER "Curtis Mayfield"
PREGAP 00:00:37
INDEX 01 00:00:00
TRACK 02 AUDIO
TITLE "No Goobyes"
PERFORMER "Curtis Mayfield"
INDEX 00 08:20:69
FILE "02 - No Goobyes.wav" WAVE
INDEX 01 00:00:00
TRACK 03 AUDIO
TITLE "Party, Party"
PERFORMER "Curtis Mayfield"
INDEX 00 07:40:18
FILE "03 - Party, Party.wav" WAVE
INDEX 01 00:00:00
TRACK 04 AUDIO
TITLE "Keeps Me Loving You"
PERFORMER "Curtis Mayfield"
INDEX 00 07:53:61
FILE "04 - Keeps Me Loving You.wav" WAVE
INDEX 01 00:00:00
TRACK 05 AUDIO
TITLE "In Love, In Love, In Love"
PERFORMER "Curtis Mayfield"
INDEX 00 03:25:08
FILE "05 - In Love, In Love, In Love.wav" WAVE
INDEX 01 00:00:00
TRACK 06 AUDIO
TITLE "You Are, You Are"
PERFORMER "Curtis Mayfield"
INDEX 00 04:20:19
FILE "06 - You Are, You Are.wav" WAVE
INDEX 01 00:00:00
TRACK 07 AUDIO
TITLE "Do It All Night [single edit]"
PERFORMER "Curtis Mayfield"
INDEX 00 03:36:61
FILE "07 - Do It All Night [single edit].wav" WAVE
INDEX 01 00:00:00
Приватный:
Нет (DHT включён)
Размер:
328.78 Мб (344,752,494 байт) » файлов: 23
Участники:
58 раздают, 2 качают (60 участников всего)
Внешние участники:
3 раздают, 1 качают (4 участников всего) [ Обновить ]
Есть вопросы - пишите личное сообщение пользователю M0p94ok.
11:01
62
Нет комментариев. Ваш будет первым!