Поиск

(Funk, Soul) [CD] Curtis Mayfield - Heartbeat (1979) - 2009 {Japan SHM-CD, VICP-70099}, FLAC (tracks+.cue), lossless

(Funk, Soul) [CD] Curtis Mayfield - Heartbeat (1979) - 2009 {Japan SHM-CD, VICP-70099}, FLAC (tracks+.cue), lossless
Треклист:
Curtis Mayfield - Heartbeat (1979) Жанр: Funk, Soul
Носитель: CD
Страна-производитель диска: Japan
Год издания: 2009
Издатель (лейбл): Victor Entertainment
Номер по каталогу: VICP-70099
Аудиокодек: FLAC (*.flac)
Тип рипа: tracks+.cue
Битрейт аудио: lossless
Продолжительность: 53:14
Rip by JET 1
Наличие сканов в содержимом раздачи: да
Треклист:
01. Tell Me, Tell Me (How Ya Like To Be Loved) (6:22)
02. What Is My Woman For? (7:17)
03. Between You Baby And Me (4:42)
04. Victory (3:17)
05. Over The Hump (5:15)
06. You Better Stop! (6:53)
07. You're So Good To Me (6:53)
08. Heartbeat (4:21)
09. Tomorrow Night For Sure (Not Included In Original Album) (4:36)
10. You're So Good To Me [single edit] (3:37)
 
 
Лог создания рипа
Exact Audio Copy V1.0 beta 3 from 29. August 2011
EAC extraction logfile from 30. May 2016, 1:51
Curtis Mayfield / Heartbeat
Used drive : GENERIC CDRCB05 Adapter: 4 ID: 0
Read mode : Secure
Utilize accurate stream : Yes
Defeat audio cache : Yes
Make use of C2 pointers : No
Read offset correction : 102
Overread into Lead-In and Lead-Out : No
Fill up missing offset samples with silence : Yes
Delete leading and trailing silent blocks : No
Null samples used in CRC calculations : Yes
Used interface : Native Win32 interface for Win NT & 2000
Gap handling : Appended to previous track
Used output format : User Defined Encoder
Selected bitrate : 1024 kBit/s
Quality : High
Add ID3 tag : No
Command line compressor : C:\Program Files\FLAC\flac.exe
Additional command line options : -8 -V -T "ARTIST=%artist%" -T "TITLE=%title%" -T "ALBUM=%albumtitle%" -T "DATE=%year%" -T "TRACKNUMBER=%tracknr%" -T "GENRE=%genre%" -T "PERFORMER=%albuminterpret%" -T "COMPOSER=%composer%" %haslyrics%--tag-from-file=LYRICS="%lyricsfile%"%haslyrics% -T "ALBUMARTIST=%albumartist%" -T "DISCNUMBER=%cdnumber%" -T "TOTALDISCS=%totalcds%" -T "TOTALTRACKS=%numtracks%" -T "COMMENT=%comment%" %source% -o %dest%
TOC of the extracted CD
Track | Start | Length | Start sector | End sector
---------------------------------------------------------
1 | 0:00.37 | 6:22.08 | 37 | 28694
2 | 6:22.45 | 7:17.22 | 28695 | 61491
3 | 13:39.67 | 4:41.45 | 61492 | 82611
4 | 18:21.37 | 3:17.13 | 82612 | 97399
5 | 21:38.50 | 5:15.07 | 97400 | 121031
6 | 26:53.57 | 6:53.25 | 121032 | 152031
7 | 33:47.07 | 6:53.28 | 152032 | 183034
8 | 40:40.35 | 4:20.45 | 183035 | 202579
9 | 45:01.05 | 4:36.27 | 202580 | 223306
10 | 49:37.32 | 3:36.53 | 223307 | 239559
Track 1
Filename F:\.........POSTS\Curtis Mayfield - Heartbeat (1979) [2009 Japan Mini-CD]\01 - Tell Me,Tell Me (How Ya Like To Be Loved).wav
Pre-gap length 0:00:02.37
Peak level 100.0 %
Extraction speed 2.3 X
Track quality 99.9 %
Test CRC 550B93E6
Copy CRC 550B93E6
Accurately ripped (confidence 2) [87A675ED] (AR v1)
Copy OK
Track 2
Filename F:\.........POSTS\Curtis Mayfield - Heartbeat (1979) [2009 Japan Mini-CD]\02 - What Is My Woman For.wav
Pre-gap length 0:00:02.37
Peak level 100.0 %
Extraction speed 3.0 X
Track quality 100.0 %
Test CRC 0D514A1B
Copy CRC 0D514A1B
Accurately ripped (confidence 2) [52763446] (AR v1)
Copy OK
Track 3
Filename F:\.........POSTS\Curtis Mayfield - Heartbeat (1979) [2009 Japan Mini-CD]\03 - Between You Baby And Me.wav
Pre-gap length 0:00:02.36
Peak level 100.0 %
Extraction speed 3.2 X
Track quality 100.0 %
Test CRC 966EEE42
Copy CRC 966EEE42
Accurately ripped (confidence 2) [6FFB0BB6] (AR v1)
Copy OK
Track 4
Filename F:\.........POSTS\Curtis Mayfield - Heartbeat (1979) [2009 Japan Mini-CD]\04 - Victory.wav
Pre-gap length 0:00:02.36
Peak level 100.0 %
Extraction speed 2.7 X
Track quality 99.9 %
Test CRC 817E9E4F
Copy CRC 817E9E4F
Accurately ripped (confidence 2) [6DBF2A3F] (AR v1)
Copy OK
Track 5
Filename F:\.........POSTS\Curtis Mayfield - Heartbeat (1979) [2009 Japan Mini-CD]\05 - Over The Hump.wav
Pre-gap length 0:00:02.37
Peak level 100.0 %
Extraction speed 3.6 X
Track quality 100.0 %
Test CRC 3E723EB5
Copy CRC 3E723EB5
Accurately ripped (confidence 2) [09610DA9] (AR v1)
Copy OK
Track 6
Filename F:\.........POSTS\Curtis Mayfield - Heartbeat (1979) [2009 Japan Mini-CD]\06 - You Better Stop!.wav
Pre-gap length 0:00:02.36
Peak level 100.0 %
Extraction speed 3.6 X
Track quality 99.9 %
Test CRC EAAEA47E
Copy CRC EAAEA47E
Accurately ripped (confidence 1) [E763BF25] (AR v1)
Copy OK
Track 7
Filename F:\.........POSTS\Curtis Mayfield - Heartbeat (1979) [2009 Japan Mini-CD]\07 - You're So Good To Me.wav
Pre-gap length 0:00:03.36
Peak level 100.0 %
Extraction speed 4.2 X
Track quality 100.0 %
Test CRC F852EF9B
Copy CRC F852EF9B
Accurately ripped (confidence 2) [EFAB7E88] (AR v1)
Copy OK
Track 8
Filename F:\.........POSTS\Curtis Mayfield - Heartbeat (1979) [2009 Japan Mini-CD]\08 - Heartbeat.wav
Pre-gap length 0:00:02.37
Peak level 100.0 %
Extraction speed 3.6 X
Track quality 99.9 %
Test CRC E94C43A2
Copy CRC E94C43A2
Accurately ripped (confidence 2) [9B0E17A7] (AR v1)
Copy OK
Track 9
Filename F:\.........POSTS\Curtis Mayfield - Heartbeat (1979) [2009 Japan Mini-CD]\09 - Tomorrow Night For Sure(Not Included In Original Album).wav
Pre-gap length 0:00:02.37
Peak level 100.0 %
Extraction speed 4.3 X
Track quality 100.0 %
Test CRC 445FE5D3
Copy CRC 445FE5D3
Accurately ripped (confidence 1) [D8767CDB] (AR v1)
Copy OK
Track 10
Filename F:\.........POSTS\Curtis Mayfield - Heartbeat (1979) [2009 Japan Mini-CD]\10 - You're So Good To Me (Single Edit).wav
Pre-gap length 0:00:02.36
Peak level 100.0 %
Extraction speed 4.3 X
Track quality 100.0 %
Test CRC 927DE7C7
Copy CRC 927DE7C7
Accurately ripped (confidence 1) [8B3E330B] (AR v1)
Copy OK
All tracks accurately ripped
No errors occurred
End of status report
==== Log checksum 4CDE94F0F9183F7F3158315B3101A3D42EA1C3DC38866C84A4CB5CD371EABAAA ====
 
Содержание индексной карты (.CUE)
REM GENRE Soul
REM DATE 1979
REM DISCID 720C7A0A
REM COMMENT "ExactAudioCopy v1.0b3"
PERFORMER "Curtis Mayfield"
TITLE "Heartbeat"
FILE "01 - Tell Me, Tell Me (How Ya Like To Be Loved).wav" WAVE
TRACK 01 AUDIO
TITLE "Tell Me, Tell Me (How Ya Like To Be Loved)"
PERFORMER "Curtis Mayfield"
PREGAP 00:00:37
INDEX 01 00:00:00
TRACK 02 AUDIO
TITLE "What Is My Woman For?"
PERFORMER "Curtis Mayfield"
INDEX 00 06:19:46
FILE "02 - What Is My Woman For.wav" WAVE
INDEX 01 00:00:00
TRACK 03 AUDIO
TITLE "Between You Baby And Me"
PERFORMER "Curtis Mayfield"
INDEX 00 07:14:61
FILE "03 - Between You Baby And Me.wav" WAVE
INDEX 01 00:00:00
TRACK 04 AUDIO
TITLE "Victory"
PERFORMER "Curtis Mayfield"
INDEX 00 04:39:09
FILE "04 - Victory.wav" WAVE
INDEX 01 00:00:00
TRACK 05 AUDIO
TITLE "Over The Hump"
PERFORMER "Curtis Mayfield"
INDEX 00 03:14:51
FILE "05 - Over The Hump.wav" WAVE
INDEX 01 00:00:00
TRACK 06 AUDIO
TITLE "You Better Stop!"
PERFORMER "Curtis Mayfield"
INDEX 00 05:12:46
FILE "06 - You Better Stop!.wav" WAVE
INDEX 01 00:00:00
TRACK 07 AUDIO
TITLE "You're So Good To Me"
PERFORMER "Curtis Mayfield"
INDEX 00 06:49:64
FILE "07 - You're So Good To Me.wav" WAVE
INDEX 01 00:00:00
TRACK 08 AUDIO
TITLE "Heartbeat"
PERFORMER "Curtis Mayfield"
INDEX 00 06:50:66
FILE "08 - Heartbeat.wav" WAVE
INDEX 01 00:00:00
TRACK 09 AUDIO
TITLE "Tomorrow Night For Sure (Not Included In Original Album)"
PERFORMER "Curtis Mayfield"
INDEX 00 04:18:08
FILE "09 - Tomorrow Night For Sure (Not Included In Original Album).wav" WAVE
INDEX 01 00:00:00
TRACK 10 AUDIO
TITLE "You're So Good To Me [single edit]"
PERFORMER "Curtis Mayfield"
INDEX 00 04:33:66
FILE "10 - You're So Good To Me [single edit].wav" WAVE
INDEX 01 00:00:00
Приватный:
Нет (DHT включён)
Размер:
424.61 Мб (445,240,072 байт) » файлов: 26
Участники:
0 раздают, 0 качают (0 участников всего)
Внешние участники:
3 раздают, 1 качают (4 участников всего) [ Обновить ]
No seeders - write a personal message to user M0p94ok. Нет сидеров - пишите личное сообщение пользователю M0p94ok.
11:02
63
Нет комментариев. Ваш будет первым!