Поиск

(Soul, R&B) [CD] Leon Ware - Sigh - 2014, FLAC (tracks+.cue), lossless

(Soul, R&B) [CD] Leon Ware - Sigh - 2014, FLAC (tracks+.cue), lossless
Треклист:
Leon Ware - Sigh Жанр: Soul, R&B
Носитель: CD
Год издания: 2014
Издатель (лейбл): P-Vine, Inc.
Номер по каталогу: PCD-24375
Аудиокодек: FLAC (*.flac)
Тип рипа: tracks+.cue
Битрейт аудио: lossless
Продолжительность: 48:55
Rip by JET 1
Наличие сканов в содержимом раздачи: да
Треклист:
01. Let Love In (6:20)
02. Kool Sunday (6:11)
03. Lady Floow (5:06)
04. Darkest Night (7:31)
05. Sigh (4:08)
06. Street Party (5:01)
07. Surrender Now (6:12)
08. Summer Is Her Name (4:23)
09. Wishful Thinking (4:02)
 
 
Лог создания рипа
Exact Audio Copy V1.0 beta 3 from 29. August 2011
EAC extraction logfile from 19. June 2016, 14:08
Leon Ware / Sigh
Used drive : GENERIC CDRCB05 Adapter: 4 ID: 0
Read mode : Secure
Utilize accurate stream : Yes
Defeat audio cache : Yes
Make use of C2 pointers : No
Read offset correction : 102
Overread into Lead-In and Lead-Out : No
Fill up missing offset samples with silence : Yes
Delete leading and trailing silent blocks : No
Null samples used in CRC calculations : Yes
Used interface : Native Win32 interface for Win NT & 2000
Gap handling : Appended to previous track
Used output format : User Defined Encoder
Selected bitrate : 1024 kBit/s
Quality : High
Add ID3 tag : No
Command line compressor : C:\Program Files\FLAC\flac.exe
Additional command line options : -8 -V -T "ARTIST=%artist%" -T "TITLE=%title%" -T "ALBUM=%albumtitle%" -T "DATE=%year%" -T "TRACKNUMBER=%tracknr%" -T "GENRE=%genre%" -T "PERFORMER=%albuminterpret%" -T "COMPOSER=%composer%" %haslyrics%--tag-from-file=LYRICS="%lyricsfile%"%haslyrics% -T "ALBUMARTIST=%albumartist%" -T "DISCNUMBER=%cdnumber%" -T "TOTALDISCS=%totalcds%" -T "TOTALTRACKS=%numtracks%" -T "COMMENT=%comment%" %source% -o %dest%
TOC of the extracted CD
Track | Start | Length | Start sector | End sector
---------------------------------------------------------
1 | 0:00.00 | 6:20.12 | 0 | 28511
2 | 6:20.12 | 6:10.68 | 28512 | 56329
3 | 12:31.05 | 5:06.20 | 56330 | 79299
4 | 17:37.25 | 7:31.02 | 79300 | 113126
5 | 25:08.27 | 4:07.70 | 113127 | 131721
6 | 29:16.22 | 5:01.03 | 131722 | 154299
7 | 34:17.25 | 6:11.55 | 154300 | 182179
8 | 40:29.05 | 4:23.37 | 182180 | 201941
9 | 44:52.42 | 4:02.29 | 201942 | 220120
Track 1
Filename F:\.........POSTS\Leon Ware - Sigh (2014) [Japan]\01 - Let Love In.wav
Pre-gap length 0:00:02.00
Peak level 99.4 %
Extraction speed 2.6 X
Track quality 100.0 %
Test CRC 28E12B8F
Copy CRC 28E12B8F
Track not present in AccurateRip database
Copy OK
Track 2
Filename F:\.........POSTS\Leon Ware - Sigh (2014) [Japan]\02 - Kool Sunday.wav
Pre-gap length 0:00:01.23
Peak level 99.4 %
Extraction speed 3.0 X
Track quality 100.0 %
Test CRC B0C7265E
Copy CRC B0C7265E
Track not present in AccurateRip database
Copy OK
Track 3
Filename F:\.........POSTS\Leon Ware - Sigh (2014) [Japan]\03 - Lady Floow.wav
Pre-gap length 0:00:01.54
Peak level 84.1 %
Extraction speed 3.2 X
Track quality 100.0 %
Test CRC 4331E05A
Copy CRC 4331E05A
Track not present in AccurateRip database
Copy OK
Track 4
Filename F:\.........POSTS\Leon Ware - Sigh (2014) [Japan]\04 - Darkest Night.wav
Pre-gap length 0:00:01.57
Peak level 99.4 %
Extraction speed 3.7 X
Track quality 100.0 %
Test CRC 79427DF5
Copy CRC 79427DF5
Track not present in AccurateRip database
Copy OK
Track 5
Filename F:\.........POSTS\Leon Ware - Sigh (2014) [Japan]\05 - Sigh.wav
Pre-gap length 0:00:01.41
Peak level 99.4 %
Extraction speed 3.7 X
Track quality 100.0 %
Test CRC D281E09A
Copy CRC D281E09A
Track not present in AccurateRip database
Copy OK
Track 6
Filename F:\.........POSTS\Leon Ware - Sigh (2014) [Japan]\06 - Street Party.wav
Pre-gap length 0:00:01.34
Peak level 99.4 %
Extraction speed 3.9 X
Track quality 100.0 %
Test CRC 97C1B051
Copy CRC 97C1B051
Track not present in AccurateRip database
Copy OK
Track 7
Filename F:\.........POSTS\Leon Ware - Sigh (2014) [Japan]\07 - Surrender Now.wav
Pre-gap length 0:00:01.65
Peak level 99.4 %
Extraction speed 4.2 X
Track quality 100.0 %
Test CRC E7B9EC65
Copy CRC E7B9EC65
Track not present in AccurateRip database
Copy OK
Track 8
Filename F:\.........POSTS\Leon Ware - Sigh (2014) [Japan]\08 - Summer Is Her Name.wav
Pre-gap length 0:00:01.62
Peak level 99.4 %
Extraction speed 4.3 X
Track quality 100.0 %
Test CRC 63026E7D
Copy CRC 63026E7D
Track not present in AccurateRip database
Copy OK
Track 9
Filename F:\.........POSTS\Leon Ware - Sigh (2014) [Japan]\09 - Wishful Thinking.wav
Pre-gap length 0:00:01.37
Peak level 99.4 %
Extraction speed 3.8 X
Track quality 99.9 %
Test CRC E3DD6D15
Copy CRC E3DD6D15
Track not present in AccurateRip database
Copy OK
None of the tracks are present in the AccurateRip database
No errors occurred
End of status report
==== Log checksum 925AC53AABD18B07E7D9004491A578FAB76D06A32488D66BBE7BC70940EBD2F1 ====
 
Содержание индексной карты (.CUE)
REM GENRE "Slow Jam"
REM DATE 2014
REM DISCID 780B7609
REM COMMENT "ExactAudioCopy v1.0b3"
PERFORMER "Leon Ware"
TITLE "Sigh"
FILE "01 - Let Love In.wav" WAVE
TRACK 01 AUDIO
TITLE "Let Love In"
PERFORMER "Leon Ware"
INDEX 01 00:00:00
TRACK 02 AUDIO
TITLE "Kool Sunday"
PERFORMER "Leon Ware"
INDEX 00 06:18:64
FILE "02 - Kool Sunday.wav" WAVE
INDEX 01 00:00:00
TRACK 03 AUDIO
TITLE "Lady Floow"
PERFORMER "Leon Ware"
INDEX 00 06:09:14
FILE "03 - Lady Floow.wav" WAVE
INDEX 01 00:00:00
TRACK 04 AUDIO
TITLE "Darkest Night"
PERFORMER "Leon Ware"
INDEX 00 05:04:38
FILE "04 - Darkest Night.wav" WAVE
INDEX 01 00:00:00
TRACK 05 AUDIO
TITLE "Sigh"
PERFORMER "Leon Ware"
INDEX 00 07:29:36
FILE "05 - Sigh.wav" WAVE
INDEX 01 00:00:00
TRACK 06 AUDIO
TITLE "Street Party"
PERFORMER "Leon Ware"
INDEX 00 04:06:36
FILE "06 - Street Party.wav" WAVE
INDEX 01 00:00:00
TRACK 07 AUDIO
TITLE "Surrender Now"
PERFORMER "Leon Ware"
INDEX 00 04:59:13
FILE "07 - Surrender Now.wav" WAVE
INDEX 01 00:00:00
TRACK 08 AUDIO
TITLE "Summer Is Her Name"
PERFORMER "Leon Ware"
INDEX 00 06:09:68
FILE "08 - Summer Is Her Name.wav" WAVE
INDEX 01 00:00:00
TRACK 09 AUDIO
TITLE "Wishful Thinking"
PERFORMER "Leon Ware"
INDEX 00 04:22:00
FILE "09 - Wishful Thinking.wav" WAVE
INDEX 01 00:00:00
Приватный:
Нет (DHT включён)
Размер:
404.10 Мб (423,726,933 байт) » файлов: 31
Участники:
0 раздают, 0 качают (0 участников всего)
Внешние участники:
1 раздают, 0 качают (1 участников всего) [ Обновить ]
Есть вопросы - пишите личное сообщение пользователю M0p94ok.
11:03
74
Нет комментариев. Ваш будет первым!