Поиск

(Funk, Soul) [CD] Curtis Mayfield - Love Is The Place (1981) - 2009 {Japan SHM-CD, VICP-70101}, FLAC (tracks+.cue), lossless

(Funk, Soul) [CD] Curtis Mayfield - Love Is The Place (1981) - 2009 {Japan SHM-CD, VICP-70101}, FLAC (tracks+.cue), lossless
Треклист:
Curtis Mayfield - Love Is The Place (1981) Жанр: Funk, Soul
Носитель: CD
Страна-производитель диска: Japan
Год издания: 2009
Издатель (лейбл): Victor Entertainment
Номер по каталогу: VICP-70101
Аудиокодек: FLAC (*.flac)
Тип рипа: tracks+.cue
Битрейт аудио: lossless
Продолжительность: 40:12
Rip by JET 1
Наличие сканов в содержимом раздачи: да
Треклист:
01. She Don't Let Nobody (But Me) (4:16)
02. Toot An'toot An'toot (4:09)
03. Babydoll (5:33)
04. Love Is The Place (5:04)
05. Just Ease My Mind (4:28)
06. You Mean Everything To Me (4:51)
07. You Get All My Love (3:39)
08. Come Free Your People (4:17)
09. She Don't Let Nobody (But Me) [single edit] (3:55)
 
 
Лог создания рипа
Exact Audio Copy V1.0 beta 3 from 29. August 2011
EAC extraction logfile from 29. May 2016, 22:48
Curtis Mayfield / Love Is The Place
Used drive : GENERIC CDRCB05 Adapter: 4 ID: 0
Read mode : Secure
Utilize accurate stream : Yes
Defeat audio cache : Yes
Make use of C2 pointers : No
Read offset correction : 102
Overread into Lead-In and Lead-Out : No
Fill up missing offset samples with silence : Yes
Delete leading and trailing silent blocks : No
Null samples used in CRC calculations : Yes
Used interface : Native Win32 interface for Win NT & 2000
Gap handling : Appended to previous track
Used output format : User Defined Encoder
Selected bitrate : 1024 kBit/s
Quality : High
Add ID3 tag : No
Command line compressor : C:\Program Files\FLAC\flac.exe
Additional command line options : -8 -V -T "ARTIST=%artist%" -T "TITLE=%title%" -T "ALBUM=%albumtitle%" -T "DATE=%year%" -T "TRACKNUMBER=%tracknr%" -T "GENRE=%genre%" -T "PERFORMER=%albuminterpret%" -T "COMPOSER=%composer%" %haslyrics%--tag-from-file=LYRICS="%lyricsfile%"%haslyrics% -T "ALBUMARTIST=%albumartist%" -T "DISCNUMBER=%cdnumber%" -T "TOTALDISCS=%totalcds%" -T "TOTALTRACKS=%numtracks%" -T "COMMENT=%comment%" %source% -o %dest%
TOC of the extracted CD
Track | Start | Length | Start sector | End sector
---------------------------------------------------------
1 | 0:00.00 | 4:16.02 | 0 | 19201
2 | 4:16.02 | 4:09.08 | 19202 | 37884
3 | 8:25.10 | 5:32.67 | 37885 | 62851
4 | 13:58.02 | 5:04.15 | 62852 | 85666
5 | 19:02.17 | 4:28.25 | 85667 | 105791
6 | 23:30.42 | 4:50.50 | 105792 | 127591
7 | 28:21.17 | 3:38.48 | 127592 | 143989
8 | 31:59.65 | 4:16.62 | 143990 | 163251
9 | 36:16.52 | 3:54.68 | 163252 | 180869
Track 1
Filename F:\.........POSTS\Curtis Mayfield - Love Is The Place (1981) [2009 Japan Mini-CD]\01 - She Don't Let Nobody(But Me).wav
Pre-gap length 0:00:02.00
Peak level 99.2 %
Extraction speed 2.3 X
Track quality 100.0 %
Test CRC 87B251AB
Copy CRC 87B251AB
Track not present in AccurateRip database
Copy OK
Track 2
Filename F:\.........POSTS\Curtis Mayfield - Love Is The Place (1981) [2009 Japan Mini-CD]\02 - Toot An'toot An'toot.wav
Pre-gap length 0:00:01.46
Peak level 99.2 %
Extraction speed 2.6 X
Track quality 100.0 %
Test CRC 9206A364
Copy CRC 9206A364
Track not present in AccurateRip database
Copy OK
Track 3
Filename F:\.........POSTS\Curtis Mayfield - Love Is The Place (1981) [2009 Japan Mini-CD]\03 - Babydoll.wav
Pre-gap length 0:00:01.52
Peak level 99.2 %
Extraction speed 3.0 X
Track quality 100.0 %
Test CRC FA59BF24
Copy CRC FA59BF24
Track not present in AccurateRip database
Copy OK
Track 4
Filename F:\.........POSTS\Curtis Mayfield - Love Is The Place (1981) [2009 Japan Mini-CD]\04 - Love Is The Place.wav
Pre-gap length 0:00:01.49
Peak level 99.2 %
Extraction speed 3.2 X
Track quality 100.0 %
Test CRC A34F1E67
Copy CRC A34F1E67
Track not present in AccurateRip database
Copy OK
Track 5
Filename F:\.........POSTS\Curtis Mayfield - Love Is The Place (1981) [2009 Japan Mini-CD]\05 - Just Ease My Mind.wav
Pre-gap length 0:00:02.54
Peak level 99.2 %
Extraction speed 3.4 X
Track quality 100.0 %
Test CRC F5AD1544
Copy CRC F5AD1544
Track not present in AccurateRip database
Copy OK
Track 6
Filename F:\.........POSTS\Curtis Mayfield - Love Is The Place (1981) [2009 Japan Mini-CD]\06 - You Mean Everything To Me.wav
Pre-gap length 0:00:01.46
Peak level 99.2 %
Extraction speed 3.6 X
Track quality 100.0 %
Test CRC 31724D66
Copy CRC 31724D66
Track not present in AccurateRip database
Copy OK
Track 7
Filename F:\.........POSTS\Curtis Mayfield - Love Is The Place (1981) [2009 Japan Mini-CD]\07 - You Get All My Love.wav
Pre-gap length 0:00:01.46
Peak level 99.2 %
Extraction speed 3.5 X
Track quality 100.0 %
Test CRC 74084687
Copy CRC 74084687
Track not present in AccurateRip database
Copy OK
Track 8
Filename F:\.........POSTS\Curtis Mayfield - Love Is The Place (1981) [2009 Japan Mini-CD]\08 - Come Free Your People.wav
Pre-gap length 0:00:01.44
Peak level 99.2 %
Extraction speed 3.8 X
Track quality 100.0 %
Test CRC 6E0E55EC
Copy CRC 6E0E55EC
Track not present in AccurateRip database
Copy OK
Track 9
Filename F:\.........POSTS\Curtis Mayfield - Love Is The Place (1981) [2009 Japan Mini-CD]\09 - She Don't Let Nobody(But Me) [single edit] -- cummon.wav
Pre-gap length 0:00:02.36
Peak level 99.2 %
Extraction speed 3.8 X
Track quality 100.0 %
Test CRC EEA20DF3
Copy CRC EEA20DF3
Track not present in AccurateRip database
Copy OK
None of the tracks are present in the AccurateRip database
No errors occurred
End of status report
==== Log checksum AE9B1658428EC3F7512B1C0710B7C841BC777CCA8461CE19BCEEDE2FAE7CEB7D ====
 
Содержание индексной карты (.CUE)
REM GENRE Soul
REM DATE 1981
REM DISCID 65096B09
REM COMMENT "ExactAudioCopy v1.0b3"
PERFORMER "Curtis Mayfield"
TITLE "Love Is The Place"
FILE "01 - She Don't Let Nobody (But Me).wav" WAVE
TRACK 01 AUDIO
TITLE "She Don't Let Nobody (But Me)"
PERFORMER "Curtis Mayfield"
INDEX 01 00:00:00
TRACK 02 AUDIO
TITLE "Toot An'toot An'toot"
PERFORMER "Curtis Mayfield"
INDEX 00 04:14:31
FILE "02 - Toot An'toot An'toot.wav" WAVE
INDEX 01 00:00:00
TRACK 03 AUDIO
TITLE "Babydoll"
PERFORMER "Curtis Mayfield"
INDEX 00 04:07:31
FILE "03 - Babydoll.wav" WAVE
INDEX 01 00:00:00
TRACK 04 AUDIO
TITLE "Love Is The Place"
PERFORMER "Curtis Mayfield"
INDEX 00 05:31:18
FILE "04 - Love Is The Place.wav" WAVE
INDEX 01 00:00:00
TRACK 05 AUDIO
TITLE "Just Ease My Mind"
PERFORMER "Curtis Mayfield"
INDEX 00 05:01:36
FILE "05 - Just Ease My Mind.wav" WAVE
INDEX 01 00:00:00
TRACK 06 AUDIO
TITLE "You Mean Everything To Me"
PERFORMER "Curtis Mayfield"
INDEX 00 04:26:54
FILE "06 - You Mean Everything To Me.wav" WAVE
INDEX 01 00:00:00
TRACK 07 AUDIO
TITLE "You Get All My Love"
PERFORMER "Curtis Mayfield"
INDEX 00 04:49:04
FILE "07 - You Get All My Love.wav" WAVE
INDEX 01 00:00:00
TRACK 08 AUDIO
TITLE "Come Free Your People"
PERFORMER "Curtis Mayfield"
INDEX 00 03:37:04
FILE "08 - Come Free Your People.wav" WAVE
INDEX 01 00:00:00
TRACK 09 AUDIO
TITLE "She Don't Let Nobody (But Me) [single edit]"
PERFORMER "Curtis Mayfield"
INDEX 00 04:14:26
FILE "09 - She Don't Let Nobody (But Me) [single edit].wav" WAVE
INDEX 01 00:00:00
Приватный:
Нет (DHT включён)
Размер:
336.29 Мб (352,620,978 байт) » файлов: 28
Участники:
0 раздают, 0 качают (0 участников всего)
Внешние участники:
7 раздают, 2 качают (9 участников всего) [ Обновить ]
No seeders - write a personal message to user M0p94ok. Нет сидеров - пишите личное сообщение пользователю M0p94ok.
11:04
82
Нет комментариев. Ваш будет первым!