Поиск

(Soul-Jazz, Free Jazz) [CD] The Ensemble Al-Salaam - The Sojourner - 1974 (2009 Japan Edition), FLAC (tracks+.cue), lossless

(Soul-Jazz, Free Jazz) [CD] The Ensemble Al-Salaam - The Sojourner - 1974 (2009 Japan Edition), FLAC (tracks+.cue), lossless
Треклист:
The Ensemble Al-Salaam - The Sojourner
Жанр: Soul-Jazz, Free Jazz
Носитель: CD
Страна-производитель диска (релиза): Япония
Год издания: 2009
Издатель (лейбл): P-Vine Records (Deep Jazz Reality)
Номер по каталогу: PCD-93204
Страна исполнителя (группы): США
Аудиокодек: FLAC (*.flac)
Тип рипа: tracks+.cue
Битрейт аудио: lossless
Продолжительность: 45:55
Источник (релизер): Soniko (what)
Наличие сканов в содержимом раздачи: сетевые
Треклист:
01. Music Is Nothing But a Prayer (Turnbull) - 8:00
02. Ecstasy (Parker-Al-Rouf) - 3:12
03. The Sojourner (Salamu-Crawley) - 5:09
04. Circles (Turnbull) - 2:20
05. Traces of Trane (Al-Rouf) - 3:29
06. Vibration Love Call (Al-Rouf-Turnbull) - 5:01
07. Malika (Al-Rouf) - 6:58
08. Optimystical (Turnbull) - 3:32
09. Peace (Salaam) (Seals-Crawley) - 8:14
 
Лог создания рипа
X Lossless Decoder version 20151214 (149.1)
XLD extraction logfile from 2016-03-08 17:54:15 -0800
The Ensemble Al-Salaam / The Sojourner
Used drive : HL-DT-ST DVDRW GX50N (revision RR06)
Media type : Pressed CD
Ripper mode : XLD Secure Ripper
Disable audio cache : OK for the drive with a cache less than 1375KiB
Make use of C2 pointers : NO
Read offset correction : 6
Max retry count : 20
Gap status : Analyzed, Appended (except HTOA)
TOC of the extracted CD
Track | Start | Length | Start sector | End sector
---------------------------------------------------------
1 | 00:00:00 | 07:59:68 | 0 | 35992
2 | 07:59:68 | 03:11:46 | 35993 | 50363
3 | 11:11:39 | 05:08:44 | 50364 | 73507
4 | 16:20:08 | 02:20:32 | 73508 | 84039
5 | 18:40:40 | 03:28:66 | 84040 | 99705
6 | 22:09:31 | 05:00:62 | 99706 | 122267
7 | 27:10:18 | 06:58:18 | 122268 | 153635
8 | 34:08:36 | 03:31:39 | 153636 | 169499
9 | 37:40:00 | 08:14:25 | 169500 | 206574
AccurateRip Summary (DiscID: 000f3106-006e0af1-5f0ac209)
Track 01 : OK (v1+v2, confidence 2/2)
Track 02 : OK (v1, confidence 1/1)
Track 03 : OK (v1+v2, confidence 2/2)
Track 04 : OK (v1+v2, confidence 2/2)
Track 05 : OK (v1, confidence 1/1)
Track 06 : OK (v1, confidence 1/1)
Track 07 : OK (v1+v2, confidence 2/2)
Track 08 : OK (v1, confidence 1/1)
Track 09 : NG (total 1 submission)
->8 tracks accurately ripped, 1 track not
All Tracks
Album gain : -7.21 dB
Peak : 0.963409
Statistics
Read error : 0
Jitter error (maybe fixed) : 0
Retry sector count : 0
Damaged sector count : 0
Track 01
Filename : /Users/Nik/Desktop/The Ensemble Al-Salaam - The Sojourner (1974) [FLAC]/01 A01-Music Is Nothing But A Prayer.flac
Pre-gap length : 00:02:00
Track gain : -8.29 dB
Peak : 0.963409
CRC32 hash (test run) : 07893D3E
CRC32 hash : 07893D3E
CRC32 hash (skip zero) : 257DC162
AccurateRip v1 signature : 63AD26B6
AccurateRip v2 signature : 3ACE272B
->Accurately ripped (v1+v2, confidence 1+1/2)
Statistics
Read error : 0
Jitter error (maybe fixed) : 0
Retry sector count : 0
Damaged sector count : 0
Track 02
Filename : /Users/Nik/Desktop/The Ensemble Al-Salaam - The Sojourner (1974) [FLAC]/02 A02-Ecstasy.flac
Track gain : -2.81 dB
Peak : 0.779175
CRC32 hash (test run) : 5BA196EE
CRC32 hash : 5BA196EE
CRC32 hash (skip zero) : 05F57685
AccurateRip v1 signature : 3B416C60
AccurateRip v2 signature : AB762AD6
->Accurately ripped (v1, confidence 1/1)
Statistics
Read error : 0
Jitter error (maybe fixed) : 0
Retry sector count : 0
Damaged sector count : 0
Track 03
Filename : /Users/Nik/Desktop/The Ensemble Al-Salaam - The Sojourner (1974) [FLAC]/03 A03-The Sojourner.flac
Track gain : -7.03 dB
Peak : 0.962738
CRC32 hash (test run) : 79DA1AB9
CRC32 hash : 79DA1AB9
CRC32 hash (skip zero) : CFCED1DD
AccurateRip v1 signature : 7130E6FF
AccurateRip v2 signature : D01B5297
->Accurately ripped (v1+v2, confidence 1+1/2)
Statistics
Read error : 0
Jitter error (maybe fixed) : 0
Retry sector count : 0
Damaged sector count : 0
Track 04
Filename : /Users/Nik/Desktop/The Ensemble Al-Salaam - The Sojourner (1974) [FLAC]/04 A04-Circles.flac
Track gain : -8.10 dB
Peak : 0.960785
CRC32 hash (test run) : ADC68283
CRC32 hash : ADC68283
CRC32 hash (skip zero) : 36EE6C0E
AccurateRip v1 signature : 9802E238
AccurateRip v2 signature : 5799DB11
->Accurately ripped (v1+v2, confidence 1+1/2)
Statistics
Read error : 0
Jitter error (maybe fixed) : 0
Retry sector count : 0
Damaged sector count : 0
Track 05
Filename : /Users/Nik/Desktop/The Ensemble Al-Salaam - The Sojourner (1974) [FLAC]/05 A05-Traces Of Trane.flac
Track gain : -7.42 dB
Peak : 0.959503
CRC32 hash (test run) : 184B6E91
CRC32 hash : 184B6E91
CRC32 hash (skip zero) : A6DC027A
AccurateRip v1 signature : 7F098361
AccurateRip v2 signature : DE1AF321
->Accurately ripped (v1, confidence 1/1)
Statistics
Read error : 0
Jitter error (maybe fixed) : 0
Retry sector count : 0
Damaged sector count : 0
Track 06
Filename : /Users/Nik/Desktop/The Ensemble Al-Salaam - The Sojourner (1974) [FLAC]/06 B01-Vibration Love Call.flac
Track gain : -7.60 dB
Peak : 0.962433
CRC32 hash (test run) : B99F1268
CRC32 hash : B99F1268
CRC32 hash (skip zero) : 937F6B6C
AccurateRip v1 signature : 1C9A4BF6
AccurateRip v2 signature : A60B0D41
->Accurately ripped (v1, confidence 1/1)
Statistics
Read error : 0
Jitter error (maybe fixed) : 0
Retry sector count : 0
Damaged sector count : 0
Track 07
Filename : /Users/Nik/Desktop/The Ensemble Al-Salaam - The Sojourner (1974) [FLAC]/07 B02-Malika.flac
Track gain : -6.40 dB
Peak : 0.962433
CRC32 hash (test run) : DE9144CB
CRC32 hash : DE9144CB
CRC32 hash (skip zero) : BF5AD0C9
AccurateRip v1 signature : 54E7B4D3
AccurateRip v2 signature : B44C2044
->Accurately ripped (v1+v2, confidence 1+1/2)
Statistics
Read error : 0
Jitter error (maybe fixed) : 0
Retry sector count : 0
Damaged sector count : 0
Track 08
Filename : /Users/Nik/Desktop/The Ensemble Al-Salaam - The Sojourner (1974) [FLAC]/08 B03-Optimystical.flac
Track gain : -4.65 dB
Peak : 0.961121
CRC32 hash (test run) : 582F6D62
CRC32 hash : 582F6D62
CRC32 hash (skip zero) : 80424FCD
AccurateRip v1 signature : 8D395344
AccurateRip v2 signature : 05273BAE
->Accurately ripped (v1, confidence 1/1)
Statistics
Read error : 0
Jitter error (maybe fixed) : 0
Retry sector count : 0
Damaged sector count : 0
Track 09
Filename : /Users/Nik/Desktop/The Ensemble Al-Salaam - The Sojourner (1974) [FLAC]/09 B04-Peace.flac
Track gain : -5.95 dB
Peak : 0.962646
CRC32 hash (test run) : FD258929
CRC32 hash : FD258929
CRC32 hash (skip zero) : 6667DD78
AccurateRip v1 signature : 64CC5BDB
AccurateRip v2 signature : FE7BCB28
->Rip may not be accurate (total 1 submission).
Statistics
Read error : 0
Jitter error (maybe fixed) : 0
Retry sector count : 0
Damaged sector count : 0
No errors occurred
End of status report
-----BEGIN XLD SIGNATURE-----
W85xHh7jEyelYoHTb8h3VS2aG.Uf4e1mRKTv4lGf2Um1uVyVz2MLuogrXbnPx25EIiUGLUrix2tgt.LNLGNCwFhjDxmGOq9obP8cCKi
-----END XLD SIGNATURE-----
 
Содержание индексной карты (.CUE)
TITLE "The Sojourner"
PERFORMER "The Ensemble Al-Salaam"
REM GENRE "Jazz"
REM DATE "1974"
REM DISCID 5F0AC209
REM REPLAYGAIN_ALBUM_GAIN -7.21 dB
REM REPLAYGAIN_ALBUM_PEAK 0.963409
FILE "01 - Music Is Nothing But a Prayer.flac" WAVE
TRACK 01 AUDIO
TITLE "Music Is Nothing But a Prayer"
REM REPLAYGAIN_TRACK_GAIN -8.29 dB
REM REPLAYGAIN_TRACK_PEAK 0.963409
INDEX 01 00:00:00
FILE "02 - Ecstasy.flac" WAVE
TRACK 02 AUDIO
TITLE "Ecstasy"
REM REPLAYGAIN_TRACK_GAIN -2.81 dB
REM REPLAYGAIN_TRACK_PEAK 0.779175
INDEX 01 00:00:00
FILE "03 - The Sojourner.flac" WAVE
TRACK 03 AUDIO
TITLE "The Sojourner"
REM REPLAYGAIN_TRACK_GAIN -7.03 dB
REM REPLAYGAIN_TRACK_PEAK 0.962738
INDEX 01 00:00:00
FILE "04 - Circles.flac" WAVE
TRACK 04 AUDIO
TITLE "Circles"
REM REPLAYGAIN_TRACK_GAIN -8.10 dB
REM REPLAYGAIN_TRACK_PEAK 0.960785
INDEX 01 00:00:00
FILE "05 - Traces of Trane.flac" WAVE
TRACK 05 AUDIO
TITLE "Traces of Trane"
REM REPLAYGAIN_TRACK_GAIN -7.42 dB
REM REPLAYGAIN_TRACK_PEAK 0.959503
INDEX 01 00:00:00
FILE "06 - Vibration Love Call.flac" WAVE
TRACK 06 AUDIO
TITLE "Vibration Love Call"
REM REPLAYGAIN_TRACK_GAIN -7.60 dB
REM REPLAYGAIN_TRACK_PEAK 0.962433
INDEX 01 00:00:00
FILE "07 - Malika.flac" WAVE
TRACK 07 AUDIO
TITLE "Malika"
REM REPLAYGAIN_TRACK_GAIN -6.40 dB
REM REPLAYGAIN_TRACK_PEAK 0.962433
INDEX 01 00:00:00
FILE "08 - Optimystical.flac" WAVE
TRACK 08 AUDIO
TITLE "Optimystical"
REM REPLAYGAIN_TRACK_GAIN -4.65 dB
REM REPLAYGAIN_TRACK_PEAK 0.961121
INDEX 01 00:00:00
FILE "09 - Peace (Salaam).flac" WAVE
TRACK 09 AUDIO
TITLE "Peace (Salaam)"
REM REPLAYGAIN_TRACK_GAIN -5.95 dB
REM REPLAYGAIN_TRACK_PEAK 0.962646
INDEX 01 00:00:00
 
Об альбоме (сборнике)
Sublime spiritual jazz from Strata East – one of the label's rarest recordings, and one of its hippest too! The set has an incredibly righteous feel – a blend of keyboards, saxes, guitar, percussion, and vocals that steps off with a very deep feel – one that's heavy on the best post-Coltrane modes of expression in jazz, and which really takes advantage of the freedoms of the Strata setting to open up the sound in really beautiful ways! Beatrice Parker handles the vocals, with a very warm and spiritual style that's not unlike some of the early, righteous recordings by Dee Dee Bridgewater – and other group members include Khaliq Abdul Al Rouf on saxes, Bevin Turnbull on keyboards, Mashujaa Aliye Salamu on guitar, Leroy Seals on bass, and Fred Kwaku Crawley on a host of hip percussion instruments. There's a slight undercurrent of funk on a few tunes, but most tracks are focused more in a soaring, spiritual groove.
 
Состав
Khaliq Abdul Al Rouf (E. Drew) - tenor saxophone, alto saxophone, soprano saxophone, piccolo flute, C flute, alto flute
Bevin Turnbull - electric piano, acoustic piano, vocals
Beatrice Parker - vocals
Mashujaa Aliye Salamu - electric guitar
Leroy Seals - Fender bass, vocals
Fred Kwaku Crawley - bells, ago-go, tambourine, maracas, claves, be yoing, wind chimes, vocals
Andrei Strobert - drums
Recorded at Minot Studios, White Plains, NY on May 25, 1974.
Приватный:
Нет (DHT включён)
Размер:
259.98 Мб (272,610,395 байт) » файлов: 16
Участники:
0 раздают, 0 качают (0 участников всего)
Внешние участники:
3 раздают, 1 качают (4 участников всего) [ Обновить ]
Есть вопросы - пишите личное сообщение пользователю M0p94ok.
11:04
46
Нет комментариев. Ваш будет первым!