Поиск

(Funk, Soul) [CD] Curtis Mayfield - Honesty (1982) - 2001, FLAC (tracks+.cue), lossless

(Funk, Soul) [CD] Curtis Mayfield - Honesty (1982) - 2001, FLAC (tracks+.cue), lossless
Треклист:
Curtis Mayfield - Honesty (1982) Жанр: Funk, Soul
Носитель: CD
Год издания: 2001
Издатель (лейбл): Soul Discretion
Номер по каталогу: SLDMCD 1002
Аудиокодек: FLAC (*.flac)
Тип рипа: tracks+.cue
Битрейт аудио: lossless
Продолжительность: 34:02
Rip by JET 1
Наличие сканов в содержимом раздачи: да
Треклист:
01. Hey Baby (Give It All To Me) (4:46)
02. Still Within Your Heart (4:27)
03. Dirty Laundry (4:08)
04. Nobody But You (4:44)
05. If You Need Me (5:10)
06. What You Gawn Do (5:29)
07. Summer Hot (5:17)
 
 
Лог создания рипа
Exact Audio Copy V1.0 beta 3 from 29. August 2011
EAC extraction logfile from 23. June 2016, 20:32
Curtis Mayfield / Honesty
Used drive : GENERIC CDRCB05 Adapter: 4 ID: 0
Read mode : Secure
Utilize accurate stream : Yes
Defeat audio cache : Yes
Make use of C2 pointers : No
Read offset correction : 102
Overread into Lead-In and Lead-Out : No
Fill up missing offset samples with silence : Yes
Delete leading and trailing silent blocks : No
Null samples used in CRC calculations : Yes
Used interface : Native Win32 interface for Win NT & 2000
Gap handling : Appended to previous track
Used output format : User Defined Encoder
Selected bitrate : 1024 kBit/s
Quality : High
Add ID3 tag : No
Command line compressor : C:\Program Files\FLAC\flac.exe
Additional command line options : -8 -V -T "ARTIST=%artist%" -T "TITLE=%title%" -T "ALBUM=%albumtitle%" -T "DATE=%year%" -T "TRACKNUMBER=%tracknr%" -T "GENRE=%genre%" -T "PERFORMER=%albuminterpret%" -T "COMPOSER=%composer%" %haslyrics%--tag-from-file=LYRICS="%lyricsfile%"%haslyrics% -T "ALBUMARTIST=%albumartist%" -T "DISCNUMBER=%cdnumber%" -T "TOTALDISCS=%totalcds%" -T "TOTALTRACKS=%numtracks%" -T "COMMENT=%comment%" %source% -o %dest%
TOC of the extracted CD
Track | Start | Length | Start sector | End sector
---------------------------------------------------------
1 | 0:00.00 | 4:46.25 | 0 | 21474
2 | 4:46.25 | 4:27.03 | 21475 | 41502
3 | 9:13.28 | 4:07.60 | 41503 | 60087
4 | 13:21.13 | 4:44.32 | 60088 | 81419
5 | 18:05.45 | 5:10.13 | 81420 | 104682
6 | 23:15.58 | 5:29.14 | 104683 | 129371
7 | 28:44.72 | 5:17.33 | 129372 | 153179
Track 1
Filename F:\.........POSTS\Curtis Mayfield - Honesty (1982)\01 - Hey Baby (Give It All To Me).wav
Pre-gap length 0:00:02.00
Peak level 89.7 %
Extraction speed 2.4 X
Track quality 100.0 %
Test CRC 839C0648
Copy CRC 839C0648
Track not present in AccurateRip database
Copy OK
Track 2
Filename F:\.........POSTS\Curtis Mayfield - Honesty (1982)\02 - Still Within Your Heart.wav
Pre-gap length 0:00:01.57
Peak level 87.1 %
Extraction speed 2.7 X
Track quality 100.0 %
Test CRC 4CACA0F0
Copy CRC 4CACA0F0
Track not present in AccurateRip database
Copy OK
Track 3
Filename F:\.........POSTS\Curtis Mayfield - Honesty (1982)\03 - Dirty Laundry.wav
Pre-gap length 0:00:01.57
Peak level 89.0 %
Extraction speed 2.9 X
Track quality 100.0 %
Test CRC 2A1E72AB
Copy CRC 2A1E72AB
Track not present in AccurateRip database
Copy OK
Track 4
Filename F:\.........POSTS\Curtis Mayfield - Honesty (1982)\04 - Nobody But You.wav
Pre-gap length 0:00:01.56
Peak level 89.9 %
Extraction speed 3.2 X
Track quality 100.0 %
Test CRC C4C0C8F9
Copy CRC C4C0C8F9
Track not present in AccurateRip database
Copy OK
Track 5
Filename F:\.........POSTS\Curtis Mayfield - Honesty (1982)\05 - If You Need Me.wav
Pre-gap length 0:00:01.57
Peak level 90.3 %
Extraction speed 3.4 X
Track quality 100.0 %
Test CRC F6B53BC8
Copy CRC F6B53BC8
Track not present in AccurateRip database
Copy OK
Track 6
Filename F:\.........POSTS\Curtis Mayfield - Honesty (1982)\06 - What You Gawn Do.wav
Pre-gap length 0:00:01.57
Peak level 92.2 %
Extraction speed 3.7 X
Track quality 100.0 %
Test CRC DBD72CF5
Copy CRC DBD72CF5
Track not present in AccurateRip database
Copy OK
Track 7
Filename F:\.........POSTS\Curtis Mayfield - Honesty (1982)\07 - Summer Hot.wav
Pre-gap length 0:00:01.57
Peak level 93.8 %
Extraction speed 3.8 X
Track quality 100.0 %
Test CRC 3BB5787C
Copy CRC 3BB5787C
Track not present in AccurateRip database
Copy OK
None of the tracks are present in the AccurateRip database
No errors occurred
End of status report
==== Log checksum 62DA33A30DFED59B9B574E3B9604CED709C0D502AB43AB726139821A60BCC150 ====
 
Содержание индексной карты (.CUE)
REM GENRE Soul
REM DATE 1982
REM DISCID 6207FA07
REM COMMENT "ExactAudioCopy v1.0b3"
PERFORMER "Curtis Mayfield"
TITLE "Honesty"
FILE "01 - Hey Baby (Give It All To Me).wav" WAVE
TRACK 01 AUDIO
TITLE "Hey Baby (Give It All To Me)"
PERFORMER "Curtis Mayfield"
INDEX 01 00:00:00
TRACK 02 AUDIO
TITLE "Still Within Your Heart"
PERFORMER "Curtis Mayfield"
INDEX 00 04:44:43
FILE "02 - Still Within Your Heart.wav" WAVE
INDEX 01 00:00:00
TRACK 03 AUDIO
TITLE "Dirty Laundry"
PERFORMER "Curtis Mayfield"
INDEX 00 04:25:21
FILE "03 - Dirty Laundry.wav" WAVE
INDEX 01 00:00:00
TRACK 04 AUDIO
TITLE "Nobody But You"
PERFORMER "Curtis Mayfield"
INDEX 00 04:06:04
FILE "04 - Nobody But You.wav" WAVE
INDEX 01 00:00:00
TRACK 05 AUDIO
TITLE "If You Need Me"
PERFORMER "Curtis Mayfield"
INDEX 00 04:42:50
FILE "05 - If You Need Me.wav" WAVE
INDEX 01 00:00:00
TRACK 06 AUDIO
TITLE "What You Gawn Do"
PERFORMER "Curtis Mayfield"
INDEX 00 05:08:31
FILE "06 - What You Gawn Do.wav" WAVE
INDEX 01 00:00:00
TRACK 07 AUDIO
TITLE "Summer Hot"
PERFORMER "Curtis Mayfield"
INDEX 00 05:27:32
FILE "07 - Summer Hot.wav" WAVE
INDEX 01 00:00:00
Приватный:
Нет (DHT включён)
Размер:
310.51 Мб (325,591,598 байт) » файлов: 21
Участники:
0 раздают, 0 качают (0 участников всего)
Внешние участники:
3 раздают, 1 качают (4 участников всего) [ Обновить ]
Есть вопросы - пишите личное сообщение пользователю M0p94ok.
11:05
59
Нет комментариев. Ваш будет первым!