Поиск

(Soul) [CD] Edna Wright - Oops! Here I Go Again (1977) - 1995, FLAC (tracks+.cue), lossless

(Soul) [CD] Edna Wright - Oops! Here I Go Again (1977) - 1995, FLAC (tracks+.cue), lossless
Треклист:
Edna Wright - Oops! Here I Go Again (1977) Жанр: Soul
Носитель: CD
Страна-производитель диска (релиза): Japan
Год издания: 1995
Издатель (лейбл): BMG Japan
Номер по каталогу: BVCP-7407
Аудиокодек: FLAC (*.flac)
Тип рипа: tracks+.cue
Битрейт аудио: lossless
Продолжительность: 34:42
Rip by JET 1
Наличие сканов в содержимом раздачи: да
Треклист:
01. Oops! Here I Go Again (4:00)
02. Spend The Nights With Me (4:09)
03. Tomorrow May Never Come (3:41)
04. Nothing Comes To A Sleeper (But A Dream) (4:11)
05. You Can't See The Forest (For The Trees) (6:19)
06. Come On Down (Get Your Head Out Of The Clouds) (5:52)
07. If The Price Is Right (6:31)
 
 
Лог создания рипа
Exact Audio Copy V1.0 beta 3 from 29. August 2011
EAC extraction logfile from 24. June 2016, 7:44
Edna Wright / Oops! Here I Go Again
Used drive : GENERIC CDRCB05 Adapter: 4 ID: 0
Read mode : Secure
Utilize accurate stream : Yes
Defeat audio cache : Yes
Make use of C2 pointers : No
Read offset correction : 102
Overread into Lead-In and Lead-Out : No
Fill up missing offset samples with silence : Yes
Delete leading and trailing silent blocks : No
Null samples used in CRC calculations : Yes
Used interface : Native Win32 interface for Win NT & 2000
Gap handling : Appended to previous track
Used output format : User Defined Encoder
Selected bitrate : 1024 kBit/s
Quality : High
Add ID3 tag : No
Command line compressor : C:\Program Files\FLAC\flac.exe
Additional command line options : -8 -V -T "ARTIST=%artist%" -T "TITLE=%title%" -T "ALBUM=%albumtitle%" -T "DATE=%year%" -T "TRACKNUMBER=%tracknr%" -T "GENRE=%genre%" -T "PERFORMER=%albuminterpret%" -T "COMPOSER=%composer%" %haslyrics%--tag-from-file=LYRICS="%lyricsfile%"%haslyrics% -T "ALBUMARTIST=%albumartist%" -T "DISCNUMBER=%cdnumber%" -T "TOTALDISCS=%totalcds%" -T "TOTALTRACKS=%numtracks%" -T "COMMENT=%comment%" %source% -o %dest%
TOC of the extracted CD
Track | Start | Length | Start sector | End sector
---------------------------------------------------------
1 | 0:00.37 | 3:59.48 | 37 | 18009
2 | 4:00.10 | 4:08.42 | 18010 | 36651
3 | 8:08.52 | 3:40.38 | 36652 | 53189
4 | 11:49.15 | 4:10.72 | 53190 | 72011
5 | 16:00.12 | 6:19.20 | 72012 | 100456
6 | 22:19.32 | 5:51.45 | 100457 | 126826
7 | 28:11.02 | 6:31.35 | 126827 | 156186
Track 1
Filename F:\.........POSTS\Edna Wright - Oops! Here I Go Again (1977) [1995 Japan]\01 - Oops! Here I Go Again.wav
Pre-gap length 0:00:02.37
Peak level 54.1 %
Extraction speed 2.3 X
Track quality 100.0 %
Test CRC 0A99286C
Copy CRC 0A99286C
Accurately ripped (confidence 2) [884E970A] (AR v2)
Copy OK
Track 2
Filename F:\.........POSTS\Edna Wright - Oops! Here I Go Again (1977) [1995 Japan]\02 - Spend The Nights With Me.wav
Pre-gap length 0:00:03.09
Peak level 59.8 %
Extraction speed 2.6 X
Track quality 100.0 %
Test CRC 341BEC06
Copy CRC 341BEC06
Accurately ripped (confidence 2) [90ACC539] (AR v2)
Copy OK
Track 3
Filename F:\.........POSTS\Edna Wright - Oops! Here I Go Again (1977) [1995 Japan]\03 - Tomorrow May Never Come.wav
Pre-gap length 0:00:03.14
Peak level 64.8 %
Extraction speed 2.7 X
Track quality 100.0 %
Test CRC 61792BBB
Copy CRC 61792BBB
Accurately ripped (confidence 2) [D242509F] (AR v2)
Copy OK
Track 4
Filename F:\.........POSTS\Edna Wright - Oops! Here I Go Again (1977) [1995 Japan]\04 - Nothing Comes To A Sleeper (But A Dream).wav
Pre-gap length 0:00:02.52
Peak level 63.5 %
Extraction speed 2.7 X
Track quality 99.9 %
Test CRC 4BCFF849
Copy CRC 4BCFF849
Accurately ripped (confidence 2) [73221A66] (AR v2)
Copy OK
Track 5
Filename F:\.........POSTS\Edna Wright - Oops! Here I Go Again (1977) [1995 Japan]\05 - You Can't See The Forest (For The Trees).wav
Pre-gap length 0:00:01.49
Peak level 69.4 %
Extraction speed 3.4 X
Track quality 100.0 %
Test CRC EB873BCA
Copy CRC EB873BCA
Accurately ripped (confidence 2) [4AE668B5] (AR v2)
Copy OK
Track 6
Filename F:\.........POSTS\Edna Wright - Oops! Here I Go Again (1977) [1995 Japan]\06 - Come On Down (Get Your Head Out Of The Clouds).wav
Pre-gap length 0:00:03.19
Peak level 53.8 %
Extraction speed 3.4 X
Track quality 99.9 %
Test CRC B2AD9888
Copy CRC B2AD9888
Accurately ripped (confidence 2) [AE75B470] (AR v2)
Copy OK
Track 7
Filename F:\.........POSTS\Edna Wright - Oops! Here I Go Again (1977) [1995 Japan]\07 - If The Price Is Right.wav
Pre-gap length 0:00:03.39
Peak level 61.2 %
Extraction speed 3.7 X
Track quality 99.9 %
Test CRC 2B438791
Copy CRC 2B438791
Accurately ripped (confidence 2) [E5BAC4C1] (AR v2)
Copy OK
All tracks accurately ripped
No errors occurred
End of status report
==== Log checksum 3B071FC8F6D49AEAADF7551EDC85D753ABB4B09BDAEE113864732966F7F5DE16 ====
 
Содержание индексной карты (.CUE)
REM GENRE Soul
REM DATE 1976
REM DISCID 4D082207
REM COMMENT "ExactAudioCopy v1.0b3"
PERFORMER "Edna Wright"
TITLE "Oops! Here I Go Again"
FILE "01 - Oops! Here I Go Again.wav" WAVE
TRACK 01 AUDIO
TITLE "Oops! Here I Go Again"
PERFORMER "Edna Wright"
PREGAP 00:00:37
INDEX 01 00:00:00
TRACK 02 AUDIO
TITLE "Spend The Nights With Me"
PERFORMER "Edna Wright"
INDEX 00 03:56:39
FILE "02 - Spend The Nights With Me.wav" WAVE
INDEX 01 00:00:00
TRACK 03 AUDIO
TITLE "Tomorrow May Never Come"
PERFORMER "Edna Wright"
INDEX 00 04:05:28
FILE "03 - Tomorrow May Never Come.wav" WAVE
INDEX 01 00:00:00
TRACK 04 AUDIO
TITLE "Nothing Comes To A Sleeper (But A Dream)"
PERFORMER "Edna Wright"
INDEX 00 03:37:61
FILE "04 - Nothing Comes To A Sleeper (But A Dream).wav" WAVE
INDEX 01 00:00:00
TRACK 05 AUDIO
TITLE "You Can't See The Forest (For The Trees)"
PERFORMER "Edna Wright"
INDEX 00 04:09:23
FILE "05 - You Can't See The Forest (For The Trees).wav" WAVE
INDEX 01 00:00:00
TRACK 06 AUDIO
TITLE "Come On Down (Get Your Head Out Of The Clouds)"
PERFORMER "Edna Wright"
INDEX 00 06:16:01
FILE "06 - Come On Down (Get Your Head Out Of The Clouds).wav" WAVE
INDEX 01 00:00:00
TRACK 07 AUDIO
TITLE "If The Price Is Right"
PERFORMER "Edna Wright"
INDEX 00 05:48:06
FILE "07 - If The Price Is Right.wav" WAVE
INDEX 01 00:00:00
Приватный:
Нет (DHT включён)
Размер:
297.97 Мб (312,443,078 байт) » файлов: 22
Участники:
0 раздают, 0 качают (0 участников всего)
Внешние участники:
2 раздают, 1 качают (3 участников всего) [ Обновить ]
Есть вопросы - пишите личное сообщение пользователю M0p94ok.
11:06
93
Нет комментариев. Ваш будет первым!