Поиск

(Funk, Soul) [CD] Curtis Mayfield - Curtis (1970) - 2014 {1000 R&B Best Collection, WPCR-27702}, FLAC (tracks+.cue), lossless

(Funk, Soul) [CD] Curtis Mayfield - Curtis (1970) - 2014 {1000 R&B Best Collection, WPCR-27702}, FLAC (tracks+.cue), lossless
Треклист:
Curtis Mayfield - Curtis (1970) Жанр: Funk, Soul
Носитель: CD
Страна-производитель диска: EU
Год издания: 2014
Издатель (лейбл): Curtom/Rhino
Номер по каталогу: WPCR-27702
Аудиокодек: FLAC (*.flac)
Тип рипа: tracks+.cue
Битрейт аудио: lossless
Продолжительность: 40:43
Rip by JET 1
Наличие сканов в содержимом раздачи: да
Треклист:
01. (Don't Worry) If There's Hell Below We're All Gonna Go (7:52)
02. The Other Side of Town (4:03)
03. The Making of You (3:45)
04. We The People Who Are Darker Than Blue (6:05)
05. Move on Up (8:55)
06. Miss Black America (3:00)
07. Wild and Free (3:19)
08. Give It Up (3:44)
 
 
Лог создания рипа
Exact Audio Copy V1.0 beta 3 from 29. August 2011
EAC extraction logfile from 23. June 2016, 21:08
Curtis Mayfield / Curtis
Used drive : GENERIC CDRCB05 Adapter: 4 ID: 0
Read mode : Secure
Utilize accurate stream : Yes
Defeat audio cache : Yes
Make use of C2 pointers : No
Read offset correction : 102
Overread into Lead-In and Lead-Out : No
Fill up missing offset samples with silence : Yes
Delete leading and trailing silent blocks : No
Null samples used in CRC calculations : Yes
Used interface : Native Win32 interface for Win NT & 2000
Gap handling : Appended to previous track
Used output format : User Defined Encoder
Selected bitrate : 1024 kBit/s
Quality : High
Add ID3 tag : No
Command line compressor : C:\Program Files\FLAC\flac.exe
Additional command line options : -8 -V -T "ARTIST=%artist%" -T "TITLE=%title%" -T "ALBUM=%albumtitle%" -T "DATE=%year%" -T "TRACKNUMBER=%tracknr%" -T "GENRE=%genre%" -T "PERFORMER=%albuminterpret%" -T "COMPOSER=%composer%" %haslyrics%--tag-from-file=LYRICS="%lyricsfile%"%haslyrics% -T "ALBUMARTIST=%albumartist%" -T "DISCNUMBER=%cdnumber%" -T "TOTALDISCS=%totalcds%" -T "TOTALTRACKS=%numtracks%" -T "COMMENT=%comment%" %source% -o %dest%
TOC of the extracted CD
Track | Start | Length | Start sector | End sector
---------------------------------------------------------
1 | 0:00.00 | 7:52.23 | 0 | 35422
2 | 7:52.23 | 4:03.05 | 35423 | 53652
3 | 11:55.28 | 3:44.60 | 53653 | 70512
4 | 15:40.13 | 6:05.22 | 70513 | 97909
5 | 21:45.35 | 8:55.03 | 97910 | 138037
6 | 30:40.38 | 3:00.32 | 138038 | 151569
7 | 33:40.70 | 3:18.51 | 151570 | 166470
8 | 36:59.46 | 3:43.47 | 166471 | 183242
Track 1
Filename F:\.........POSTS\Curtis Mayfield - Curtis (1970) [2014]\01 - (Don't Worry) If There's Hell Below We're All Gonna Go.wav
Pre-gap length 0:00:02.00
Peak level 100.0 %
Extraction speed 2.6 X
Track quality 100.0 %
Test CRC 077086C9
Copy CRC 077086C9
Accurately ripped (confidence 6) [0D3495AB] (AR v2)
Copy OK
Track 2
Filename F:\.........POSTS\Curtis Mayfield - Curtis (1970) [2014]\02 - The Other Side of Town.wav
Pre-gap length 0:00:05.15
Peak level 100.0 %
Extraction speed 2.8 X
Track quality 100.0 %
Test CRC 5CE8BCAF
Copy CRC 5CE8BCAF
Accurately ripped (confidence 6) [75A74417] (AR v2)
Copy OK
Track 3
Filename F:\.........POSTS\Curtis Mayfield - Curtis (1970) [2014]\03 - The Making of You.wav
Pre-gap length 0:00:02.23
Peak level 100.0 %
Extraction speed 2.9 X
Track quality 100.0 %
Test CRC 1A8D4AF5
Copy CRC 1A8D4AF5
Accurately ripped (confidence 6) [EFC159F6] (AR v2)
Copy OK
Track 4
Filename F:\.........POSTS\Curtis Mayfield - Curtis (1970) [2014]\04 - We The People Who Are Darker Than Blue.wav
Pre-gap length 0:00:04.62
Peak level 100.0 %
Extraction speed 3.4 X
Track quality 100.0 %
Test CRC 69396889
Copy CRC 69396889
Accurately ripped (confidence 6) [D958F8E5] (AR v2)
Copy OK
Track 5
Filename F:\.........POSTS\Curtis Mayfield - Curtis (1970) [2014]\05 - Move on Up.wav
Pre-gap length 0:00:00.61
Peak level 100.0 %
Extraction speed 3.6 X
Track quality 100.0 %
Test CRC B4E57BFF
Copy CRC B4E57BFF
Accurately ripped (confidence 6) [5BF6B8EA] (AR v2)
Copy OK
Track 6
Filename F:\.........POSTS\Curtis Mayfield - Curtis (1970) [2014]\06 - Miss Black America.wav
Pre-gap length 0:00:02.70
Peak level 100.0 %
Extraction speed 3.5 X
Track quality 100.0 %
Test CRC ECAD188D
Copy CRC ECAD188D
Accurately ripped (confidence 6) [FE02AB88] (AR v2)
Copy OK
Track 7
Filename F:\.........POSTS\Curtis Mayfield - Curtis (1970) [2014]\07 - Wild and Free.wav
Pre-gap length 0:00:03.15
Peak level 100.0 %
Extraction speed 3.7 X
Track quality 100.0 %
Test CRC F7C41846
Copy CRC F7C41846
Accurately ripped (confidence 6) [BB567462] (AR v2)
Copy OK
Track 8
Filename F:\.........POSTS\Curtis Mayfield - Curtis (1970) [2014]\08 - Give It Up.wav
Pre-gap length 0:00:02.53
Peak level 100.0 %
Extraction speed 3.9 X
Track quality 100.0 %
Test CRC B16C1289
Copy CRC B16C1289
Accurately ripped (confidence 6) [EB80CFAC] (AR v2)
Copy OK
All tracks accurately ripped
No errors occurred
End of status report
==== Log checksum B7A7CE20FE34BF95E114A588C42119856B8CE90167E7AD35AF3B8322D4AEA1C6 ====
 
Содержание индексной карты (.CUE)
REM GENRE Soul
REM DATE 1970
REM DISCID 56098B08
REM COMMENT "ExactAudioCopy v1.0b3"
PERFORMER "Curtis Mayfield"
TITLE "Curtis"
FILE "01 - (Don't Worry) If There's Hell Below We're All Gonna Go.wav" WAVE
TRACK 01 AUDIO
TITLE "(Don't Worry) If There's Hell Below We're All Gonna Go"
PERFORMER "Curtis Mayfield"
INDEX 01 00:00:00
TRACK 02 AUDIO
TITLE "The Other Side of Town"
PERFORMER "Curtis Mayfield"
INDEX 00 07:47:08
FILE "02 - The Other Side of Town.wav" WAVE
INDEX 01 00:00:00
TRACK 03 AUDIO
TITLE "The Making of You"
PERFORMER "Curtis Mayfield"
INDEX 00 04:00:57
FILE "03 - The Making of You.wav" WAVE
INDEX 01 00:00:00
TRACK 04 AUDIO
TITLE "We The People Who Are Darker Than Blue"
PERFORMER "Curtis Mayfield"
INDEX 00 03:39:73
FILE "04 - We The People Who Are Darker Than Blue.wav" WAVE
INDEX 01 00:00:00
TRACK 05 AUDIO
TITLE "Move on Up"
PERFORMER "Curtis Mayfield"
INDEX 00 06:04:36
FILE "05 - Move on Up.wav" WAVE
INDEX 01 00:00:00
TRACK 06 AUDIO
TITLE "Miss Black America"
PERFORMER "Curtis Mayfield"
INDEX 00 08:52:08
FILE "06 - Miss Black America.wav" WAVE
INDEX 01 00:00:00
TRACK 07 AUDIO
TITLE "Wild and Free"
PERFORMER "Curtis Mayfield"
INDEX 00 02:57:17
FILE "07 - Wild and Free.wav" WAVE
INDEX 01 00:00:00
TRACK 08 AUDIO
TITLE "Give It Up"
PERFORMER "Curtis Mayfield"
INDEX 00 03:15:73
FILE "08 - Give It Up.wav" WAVE
INDEX 01 00:00:00
 
CUETools log
[CUETools log; Date: 04.07.2016 0:20:11; Version: 2.0.9]
[CTDB TOCID: KOQ6OrIPmqgnESEcXJ21CbW2etQ-] found.
[ CTDBID ] Status
[cd769f6d] (25/26) Accurately ripped
[b6975cb0] (01/26) NotFound
[AccurateRip ID: 000daf35-00599fad-56098b08] found.
Track [ CRC ] Status
01 [ea1263e5] (6/6) No match but offset
02 [4a4476ff] (6/6) No match but offset
03 [15a21719] (6/6) No match but offset
04 [d3733f76] (6/6) No match but offset
05 [d8faa097] (6/6) No match but offset
06 [ff81196a] (6/6) No match but offset
07 [c023e0e7] (6/6) No match but offset
08 [439f8622] (6/6) No match but offset
Track Peak [ CRC32 ] [W/O NULL] [ LOG ]
-- 100,0 [2F9DBE09] [3A51F7A8]
01 100,0 [077086C9] [5FF5571C] CRC32
02 100,0 [5CE8BCAF] [74CFE2C4] CRC32
03 100,0 [1A8D4AF5] [69A46EDA] CRC32
04 100,0 [69396889] [7E8ADC1A] CRC32
05 100,0 [B4E57BFF] [2F064B0C] CRC32
06 100,0 [ECAD188D] [C2D3D100] CRC32
07 100,0 [F7C41846] [3EFFC83A] CRC32
08 100,0 [B16C1289] [FE1B8C62] CRC32
 
Приватный:
Нет (DHT включён)
Размер:
295.51 Мб (309,867,940 байт) » файлов: 24
Участники:
0 раздают, 0 качают (0 участников всего)
Внешние участники:
12 раздают, 4 качают (16 участников всего) [ Обновить ]
Есть вопросы - пишите личное сообщение пользователю M0p94ok.
11:06
86
Нет комментариев. Ваш будет первым!