Поиск

(Soul, R&B) [CD] Tyrone Davis - Can I Change My Mind (1969) - 2000, FLAC (tracks+.cue), lossless

(Soul, R&B) [CD] Tyrone Davis - Can I Change My Mind (1969) - 2000, FLAC (tracks+.cue), lossless
Треклист:
Tyrone Davis - Can I Change My Mind (1969) Жанр: Soul, R&B
Носитель: CD
Год издания: 2000
Издатель (лейбл): Brunswick
Номер по каталогу: 5006
Аудиокодек: FLAC (*.flac)
Тип рипа: tracks+.cue
Битрейт аудио: lossless
Продолжительность: 29:31
Источник (релизер): What.cd (MrDap)
Наличие сканов в содержимом раздачи: нет
Треклист:
01. She's Looking Good (2:41)
02. Knock On Wood (2:55)
03. Have You Ever Wondered Why (2:29)
04. Slip Away (2:28)
05. Good Times (2:56)
06. Can I Change My Mind (2:59)
07. Open The Door To Your Heart (2:33)
08. Call On Me (2:51)
09. Just The One I've Been Looking For (2:26)
10. You Can't Keep A Good Man Down (2:26)
11. A Woman Needs To Be Loved (2:48)
 
 
Лог создания рипа
Exact Audio Copy V0.99 prebeta 5 from 4. May 2009
EAC extraction logfile from 25. March 2010, 13:13
Tyrone Davis / Can I Change My Mind
Used drive : HP DVD Writer 1270d Adapter: 5 ID: 0
Read mode : Secure
Utilize accurate stream : Yes
Defeat audio cache : Yes
Make use of C2 pointers : No
Read offset correction : 6
Overread into Lead-In and Lead-Out : No
Fill up missing offset samples with silence : Yes
Delete leading and trailing silent blocks : No
Null samples used in CRC calculations : Yes
Used interface : Installed external ASPI interface
Gap handling : Appended to previous track
Used output format : User Defined Encoder
Selected bitrate : 128 kBit/s
Quality : High
Add ID3 tag : No
Command line compressor : C:\Program Files\Exact Audio Copy\Flac\flac.exe
Additional command line options : -8 -A tukey(0.25) -A gauss(0.1875) -b 4096 -V -T "artist=%a" -T "title=%t" -T "album=%g" -T "date=%y" -T "tracknumber=%n" -T "genre=%m" %s
TOC of the extracted CD
Track | Start | Length | Start sector | End sector
---------------------------------------------------------
1 | 0:00.00 | 2:40.68 | 0 | 12067
2 | 2:40.68 | 2:54.55 | 12068 | 25172
3 | 5:35.48 | 2:29.20 | 25173 | 36367
4 | 8:04.68 | 2:28.15 | 36368 | 47482
5 | 10:33.08 | 2:55.62 | 47483 | 60669
6 | 13:28.70 | 2:59.27 | 60670 | 74121
7 | 16:28.22 | 2:32.60 | 74122 | 85581
8 | 19:01.07 | 2:50.40 | 85582 | 98371
9 | 21:51.47 | 2:25.55 | 98372 | 109301
10 | 24:17.27 | 2:26.03 | 109302 | 120254
11 | 26:43.30 | 2:47.50 | 120255 | 132829
Track 1
Filename F:\Music Place\FLAC & WAV\Tyrone Davis - Can I Change My Mind (1969)\01. Tyrone Davis - She's Looking Good.wav
Pre-gap length 0:00:02.00
Peak level 96.5 %
Track quality 100.0 %
Test CRC 9EA189AC
Copy CRC 9EA189AC
Accurately ripped (confidence 2) [11418D40]
Copy OK
Track 2
Filename F:\Music Place\FLAC & WAV\Tyrone Davis - Can I Change My Mind (1969)\02. Tyrone Davis - Knock On Wood.wav
Pre-gap length 0:00:02.00
Peak level 96.5 %
Track quality 100.0 %
Test CRC 1C153E13
Copy CRC 1C153E13
Accurately ripped (confidence 2) [14FCE1D0]
Copy OK
Track 3
Filename F:\Music Place\FLAC & WAV\Tyrone Davis - Can I Change My Mind (1969)\03. Tyrone Davis - Have You Ever Wondered Why.wav
Pre-gap length 0:00:02.00
Peak level 96.5 %
Track quality 100.0 %
Test CRC 0692B20F
Copy CRC 0692B20F
Accurately ripped (confidence 2) [7B69063A]
Copy OK
Track 4
Filename F:\Music Place\FLAC & WAV\Tyrone Davis - Can I Change My Mind (1969)\04. Tyrone Davis - Slip Away.wav
Pre-gap length 0:00:02.00
Peak level 96.5 %
Track quality 100.0 %
Test CRC 9CC9DD39
Copy CRC 9CC9DD39
Accurately ripped (confidence 2) [7545D270]
Copy OK
Track 5
Filename F:\Music Place\FLAC & WAV\Tyrone Davis - Can I Change My Mind (1969)\05. Tyrone Davis - Good Times.wav
Pre-gap length 0:00:02.00
Peak level 96.5 %
Track quality 100.0 %
Test CRC 79F04602
Copy CRC 79F04602
Accurately ripped (confidence 2) [121A4408]
Copy OK
Track 6
Filename F:\Music Place\FLAC & WAV\Tyrone Davis - Can I Change My Mind (1969)\06. Tyrone Davis - Can I Change My Mind.wav
Pre-gap length 0:00:02.00
Peak level 96.5 %
Track quality 100.0 %
Test CRC E06C1F15
Copy CRC E06C1F15
Accurately ripped (confidence 2) [D8AA7805]
Copy OK
Track 7
Filename F:\Music Place\FLAC & WAV\Tyrone Davis - Can I Change My Mind (1969)\07. Tyrone Davis - Open The Door To Your Heart.wav
Pre-gap length 0:00:02.00
Peak level 96.5 %
Track quality 100.0 %
Test CRC 793A895D
Copy CRC 793A895D
Accurately ripped (confidence 2) [7B3C46C2]
Copy OK
Track 8
Filename F:\Music Place\FLAC & WAV\Tyrone Davis - Can I Change My Mind (1969)\08. Tyrone Davis - Call On Me.wav
Pre-gap length 0:00:02.00
Peak level 96.5 %
Track quality 100.0 %
Test CRC 3E272070
Copy CRC 3E272070
Accurately ripped (confidence 2) [BC99915C]
Copy OK
Track 9
Filename F:\Music Place\FLAC & WAV\Tyrone Davis - Can I Change My Mind (1969)\09. Tyrone Davis - Just The One I've Been Looking For.wav
Pre-gap length 0:00:02.00
Peak level 96.5 %
Track quality 100.0 %
Test CRC 38063F28
Copy CRC 38063F28
Accurately ripped (confidence 2) [515405D8]
Copy OK
Track 10
Filename F:\Music Place\FLAC & WAV\Tyrone Davis - Can I Change My Mind (1969)\10. Tyrone Davis - You Can't Keep A Good Man Down.wav
Pre-gap length 0:00:02.00
Peak level 96.5 %
Track quality 100.0 %
Test CRC C25CC7E4
Copy CRC C25CC7E4
Accurately ripped (confidence 2) [E25E0276]
Copy OK
Track 11
Filename F:\Music Place\FLAC & WAV\Tyrone Davis - Can I Change My Mind (1969)\11. Tyrone Davis - A Woman Needs To Be Loved.wav
Pre-gap length 0:00:02.00
Peak level 96.5 %
Track quality 100.0 %
Test CRC 66390BAE
Copy CRC 66390BAE
Accurately ripped (confidence 2) [9FA6A7F0]
Copy OK
All tracks accurately ripped
No errors occurred
End of status report
 
Содержание индексной карты (.CUE)
REM GENRE R&B
REM DATE 1969
REM DISCID 8306EB0B
REM COMMENT "ExactAudioCopy v0.99pb5"
PERFORMER "Tyrone Davis"
TITLE "Can I Change My Mind"
FILE "01. She's Looking Good.flac" WAVE
TRACK 01 AUDIO
TITLE "She's Looking Good"
PERFORMER "Tyrone Davis"
INDEX 01 00:00:00
TRACK 02 AUDIO
TITLE "Knock On Wood"
PERFORMER "Tyrone Davis"
INDEX 00 02:38:68
FILE "02. Knock On Wood.flac" WAVE
INDEX 01 00:00:00
TRACK 03 AUDIO
TITLE "Have You Ever Wondered Why"
PERFORMER "Tyrone Davis"
INDEX 00 02:52:55
FILE "03. Have You Ever Wondered Why.flac" WAVE
INDEX 01 00:00:00
TRACK 04 AUDIO
TITLE "Slip Away"
PERFORMER "Tyrone Davis"
INDEX 00 02:27:20
FILE "04. Slip Away.flac" WAVE
INDEX 01 00:00:00
TRACK 05 AUDIO
TITLE "Good Times"
PERFORMER "Tyrone Davis"
INDEX 00 02:26:15
FILE "05. Good Times.flac" WAVE
INDEX 01 00:00:00
TRACK 06 AUDIO
TITLE "Can I Change My Mind"
PERFORMER "Tyrone Davis"
INDEX 00 02:53:62
FILE "06. Can I Change My Mind.flac" WAVE
INDEX 01 00:00:00
TRACK 07 AUDIO
TITLE "Open The Door To Your Heart"
PERFORMER "Tyrone Davis"
INDEX 00 02:57:27
FILE "07. Open The Door To Your Heart.flac" WAVE
INDEX 01 00:00:00
TRACK 08 AUDIO
TITLE "Call On Me"
PERFORMER "Tyrone Davis"
INDEX 00 02:30:60
FILE "08. Call On Me.flac" WAVE
INDEX 01 00:00:00
TRACK 09 AUDIO
TITLE "Just The One I've Been Looking For"
PERFORMER "Tyrone Davis"
INDEX 00 02:48:40
FILE "09. Just The One I've Been Looking For.flac" WAVE
INDEX 01 00:00:00
TRACK 10 AUDIO
TITLE "You Can't Keep A Good Man Down"
PERFORMER "Tyrone Davis"
INDEX 00 02:23:55
FILE "10. You Can't Keep A Good Man Down.flac" WAVE
INDEX 01 00:00:00
TRACK 11 AUDIO
TITLE "A Woman Needs To Be Loved"
PERFORMER "Tyrone Davis"
INDEX 00 02:24:03
FILE "11. A Woman Needs To Be Loved.flac" WAVE
INDEX 01 00:00:00
Приватный:
Нет (DHT включён)
Размер:
197.42 Мб (207,013,214 байт) » файлов: 19
Участники:
0 раздают, 0 качают (0 участников всего)
Внешние участники:
2 раздают, 1 качают (3 участников всего) [ Обновить ]
No seeders - write a personal message to user M0p94ok. Нет сидеров - пишите личное сообщение пользователю M0p94ok.
10:52
74
Нет комментариев. Ваш будет первым!