Поиск

(Pop, Gospel, Vocal) [CD] Acappella - Set Me Free - 1993, FLAC (tracks+.cue), lossless

(Pop, Gospel, Vocal) [CD] Acappella - Set Me Free - 1993, FLAC (tracks+.cue), lossless
Треклист:
.Acappella
Set Me Free
(CD, Album, An all-male Contemporary Christian vocal group founded in 1982
by Keith Lancasterwho has been the singer, songwriter,
and producer throughout the group's history.).
Жанр: Pop, Gospel, Vocal
Носитель: CD
Страна-производитель диска (релиза): US
Год издания: 1993
Издатель (лейбл): Word
Номер по каталогу: 7019393608
Страна исполнителя (группы): U.S.
Аудиокодек: FLAC (*.flac)
Тип рипа: tracks+.cue
Битрейт аудио: lossless
Продолжительность: 00:43:41
Источник (релизер): stas64
Наличие сканов в содержимом раздачи: да - 600 dpi,
(не всё, только основное)
.Треклист:
01. Only Truth.
02. Set Me Free.
03. More Precious Than Gold.
04. Not My Will but Thine.
05. My Lord and My God.
06. Lead Me to Rest.
07. Nobody But Jesus.
08. Special Kind of Love.
09. Long Way to Go.
10. Hush.
11. Stand on the Rock.
12. Everything We Need.
 
Booklet


 
Лог создания рипа
Exact Audio Copy V1.0 beta 3 from 29. August 2011
Отчёт EAC об извлечении, выполненном 28. октября 2015, 20:49
Acappella / Set Me Free
Дисковод: DVDRW DRW-6S160P Adapter: 7 ID: 0
Режим чтения : Достоверность
Использование точного потока : Да
Отключение кэша аудио : Да
Использование указателей C2 : Нет
Коррекция смещения при чтении : 6
Способность читать области Lead-in и Lead-out : Нет
Заполнение пропущенных сэмплов тишиной : Да
Удаление блоков с тишиной в начале и конце : Нет
При вычислениях CRC использовались нулевые сэмплы : Да
Интерфейс : Установленный внешний ASPI-интерфейс
Обработка зазоров : Добавлено к предыдущему треку
Выходной формат : Пользовательский кодировщик
Выбранный битрейт : 128 kBit/s
Качество : Высокий
Добавление ID3-тега : Нет
Утилита сжатия : C:\Program Files\Exact Audio Copy\FLAC\FLAC.EXE
Дополнительные параметры : -V -8 -T "Genre=%genre%" -T "Artist=%artist%" -T "Title=%title%" -T "Album=%albumtitle%" -T "Date=%year%" -T "Tracknumber=%tracknr%" -T "Comment=%comment%" %source%
TOC извлечённого CD
Трек | Старт | Длительность | Начальный сектор | Конечный сектор
---------------------------------------------------------------------
1 | 0:00.37 | 3:10.03 | 37 | 14289
2 | 3:10.40 | 4:16.72 | 14290 | 33561
3 | 7:27.37 | 2:49.73 | 33562 | 46309
4 | 10:17.35 | 3:16.27 | 46310 | 61036
5 | 13:33.62 | 2:57.15 | 61037 | 74326
6 | 16:31.02 | 4:57.68 | 74327 | 96669
7 | 21:28.70 | 3:09.25 | 96670 | 110869
8 | 24:38.20 | 3:42.25 | 110870 | 127544
9 | 28:20.45 | 4:30.00 | 127545 | 147794
10 | 32:50.45 | 4:32.52 | 147795 | 168246
11 | 37:23.22 | 3:13.43 | 168247 | 182764
12 | 40:36.65 | 3:04.52 | 182765 | 196616
Трек 1
Имя файла I:\MOI_RAZDACI\Acappella 1993\Acappella_Set.Me.Free_1993\01. Only Truth.wav
Длина предзазора 0:00:02.37
Пиковый уровень 92.2 %
Скорость извлечения 2.5 X
Качество трека 100.0 %
CRC теста 8B4C2249
CRC копии 8B4C2249
Точность не определена (достоверность 4) [FCD2687D], AccurateRip вернул [20E4E080] (AR v2)
Копирование... OK
Трек 2
Имя файла I:\MOI_RAZDACI\Acappella 1993\Acappella_Set.Me.Free_1993\02. Set Me Free.wav
Длина предзазора 0:00:00.17
Пиковый уровень 100.0 %
Скорость извлечения 2.6 X
Качество трека 99.9 %
CRC теста E8331BB6
CRC копии E8331BB6
Точность не определена (достоверность 4) [9B8CFD26], AccurateRip вернул [93501C8F] (AR v2)
Копирование... OK
Трек 3
Имя файла I:\MOI_RAZDACI\Acappella 1993\Acappella_Set.Me.Free_1993\03. More Precious Than Gold.wav
Длина предзазора 0:00:00.73
Пиковый уровень 74.0 %
Скорость извлечения 2.5 X
Качество трека 99.9 %
CRC теста 12EDE8BF
CRC копии 12EDE8BF
Точность не определена (достоверность 4) [18D1F5E3], AccurateRip вернул [B5A2AAA9] (AR v2)
Копирование... OK
Трек 4
Имя файла I:\MOI_RAZDACI\Acappella 1993\Acappella_Set.Me.Free_1993\04. Not My Will but Thine.wav
Длина предзазора 0:00:03.21
Пиковый уровень 96.3 %
Скорость извлечения 3.2 X
Качество трека 100.0 %
CRC теста AE1E207D
CRC копии AE1E207D
Точность не определена (достоверность 4) [77234F74], AccurateRip вернул [499FD599] (AR v2)
Копирование... OK
Трек 5
Имя файла I:\MOI_RAZDACI\Acappella 1993\Acappella_Set.Me.Free_1993\05. My Lord and My God.wav
Длина предзазора 0:00:02.36
Пиковый уровень 100.0 %
Скорость извлечения 3.3 X
Качество трека 100.0 %
CRC теста 559A91C3
CRC копии 559A91C3
Точность не определена (достоверность 4) [F98ADA6A], AccurateRip вернул [2CD7C6D8] (AR v2)
Копирование... OK
Трек 6
Имя файла I:\MOI_RAZDACI\Acappella 1993\Acappella_Set.Me.Free_1993\06. Lead Me to Rest.wav
Длина предзазора 0:00:00.15
Пиковый уровень 88.2 %
Скорость извлечения 3.8 X
Качество трека 100.0 %
CRC теста 27C6100E
CRC копии 27C6100E
Точность не определена (достоверность 4) [D04662E3], AccurateRip вернул [857CBEB7] (AR v2)
Копирование... OK
Трек 7
Имя файла I:\MOI_RAZDACI\Acappella 1993\Acappella_Set.Me.Free_1993\07. Nobody But Jesus.wav
Пиковый уровень 95.5 %
Скорость извлечения 3.8 X
Качество трека 100.0 %
CRC теста 94656877
CRC копии 94656877
Точность не определена (достоверность 4) [1736C700], AccurateRip вернул [0CFEF7BD] (AR v2)
Копирование... OK
Трек 8
Имя файла I:\MOI_RAZDACI\Acappella 1993\Acappella_Set.Me.Free_1993\08. Special Kind of Love.wav
Длина предзазора 0:00:00.33
Пиковый уровень 96.0 %
Скорость извлечения 4.0 X
Качество трека 100.0 %
CRC теста DE2AC198
CRC копии DE2AC198
Точность не определена (достоверность 4) [2B5941E1], AccurateRip вернул [813F5410] (AR v2)
Копирование... OK
Трек 9
Имя файла I:\MOI_RAZDACI\Acappella 1993\Acappella_Set.Me.Free_1993\09. Long Way to Go.wav
Длина предзазора 0:00:01.63
Пиковый уровень 94.4 %
Скорость извлечения 4.4 X
Качество трека 100.0 %
CRC теста 5F660BC6
CRC копии 5F660BC6
Точность не определена (достоверность 4) [0A0415FD], AccurateRip вернул [7A0A30D1] (AR v2)
Копирование... OK
Трек 10
Имя файла I:\MOI_RAZDACI\Acappella 1993\Acappella_Set.Me.Free_1993\10. Hush.wav
Длина предзазора 0:00:00.59
Пиковый уровень 96.3 %
Скорость извлечения 4.6 X
Качество трека 100.0 %
CRC теста 0D4A0C50
CRC копии 0D4A0C50
Точность не определена (достоверность 4) [EF58E356], AccurateRip вернул [6AA7A164] (AR v2)
Копирование... OK
Трек 11
Имя файла I:\MOI_RAZDACI\Acappella 1993\Acappella_Set.Me.Free_1993\11. Stand on the Rock.wav
Длина предзазора 0:00:00.53
Пиковый уровень 100.0 %
Скорость извлечения 4.4 X
Качество трека 100.0 %
CRC теста 66FFC070
CRC копии 66FFC070
Точность не определена (достоверность 4) [96D7FA86], AccurateRip вернул [C6CF2577] (AR v2)
Копирование... OK
Трек 12
Имя файла I:\MOI_RAZDACI\Acappella 1993\Acappella_Set.Me.Free_1993\12. Everything We Need.wav
Длина предзазора 0:00:01.47
Пиковый уровень 94.0 %
Скорость извлечения 4.6 X
Качество трека 100.0 %
CRC теста 0EA44CF2
CRC копии 0EA44CF2
Точность не определена (достоверность 4) [8D3D04D0], AccurateRip вернул [CB31F571] (AR v2)
Копирование... OK
Ни один трек не прошёл проверки на точность
В вашей базе может быть иной вариант штамповки диска
Ошибок не произошло
Конец отчёта
==== Контрольная сумма отчёта 3F7BDDAEBD7BFA7E7ED8BF13387D66E1956C1A71013AC034FA916B0E6BF33B6B ====
 
Содержание индексной карты (.CUE)
REM GENRE Pop
REM DATE 1993
REM DISCID A60A3D0C
REM COMMENT "ExactAudioCopy v1.0b3"
PERFORMER "Acappella"
TITLE "Set Me Free"
FILE "01. Only Truth.wav" WAVE
TRACK 01 AUDIO
TITLE "Only Truth"
PERFORMER "Acappella"
PREGAP 00:00:37
INDEX 01 00:00:00
TRACK 02 AUDIO
TITLE "Set Me Free"
PERFORMER "Acappella"
INDEX 00 03:09:61
FILE "02. Set Me Free.wav" WAVE
INDEX 01 00:00:00
TRACK 03 AUDIO
TITLE "More Precious Than Gold"
PERFORMER "Acappella"
INDEX 00 04:15:74
FILE "03. More Precious Than Gold.wav" WAVE
INDEX 01 00:00:00
TRACK 04 AUDIO
TITLE "Not My Will but Thine"
PERFORMER "Acappella"
INDEX 00 02:46:52
FILE "04. Not My Will but Thine.wav" WAVE
INDEX 01 00:00:00
TRACK 05 AUDIO
TITLE "My Lord and My God"
PERFORMER "Acappella"
INDEX 00 03:13:66
FILE "05. My Lord and My God.wav" WAVE
INDEX 01 00:00:00
TRACK 06 AUDIO
TITLE "Lead Me to Rest"
PERFORMER "Acappella"
INDEX 00 02:57:00
FILE "06. Lead Me to Rest.wav" WAVE
INDEX 01 00:00:00
FILE "07. Nobody But Jesus.wav" WAVE
TRACK 07 AUDIO
TITLE "Nobody But Jesus"
PERFORMER "Acappella"
INDEX 01 00:00:00
TRACK 08 AUDIO
TITLE "Special Kind of Love"
PERFORMER "Acappella"
INDEX 00 03:08:67
FILE "08. Special Kind of Love.wav" WAVE
INDEX 01 00:00:00
TRACK 09 AUDIO
TITLE "Long Way to Go"
PERFORMER "Acappella"
INDEX 00 03:40:37
FILE "09. Long Way to Go.wav" WAVE
INDEX 01 00:00:00
TRACK 10 AUDIO
TITLE "Hush"
PERFORMER "Acappella"
INDEX 00 04:29:16
FILE "10. Hush.wav" WAVE
INDEX 01 00:00:00
TRACK 11 AUDIO
TITLE "Stand on the Rock"
PERFORMER "Acappella"
INDEX 00 04:31:74
FILE "11. Stand on the Rock.wav" WAVE
INDEX 01 00:00:00
TRACK 12 AUDIO
TITLE "Everything We Need"
PERFORMER "Acappella"
INDEX 00 03:11:71
FILE "12. Everything We Need.wav" WAVE
INDEX 01 00:00:00
 
Лог проверки качества
-----------------------
DON'T MODIFY THIS FILE
-----------------------
PERFORMER: auCDtect Task Manager, ver. 1.5.1RC6 build 1.5.1.7
Copyright (c) 2008-2010 y-soft. All rights reserved
http://y-soft.org
ANALYZER: auCDtect: CD records authenticity detector, version 0.8.2
Copyright (c) 2004 Oleg Berngardt. All rights reserved.
Copyright (c) 2004 Alexander Djourik. All rights reserved.
FILE: 12. Everything We Need.flac
Size: 20346981 Hash: 02DCBB8034EE174BB13D6029B45E3181 Accuracy: -m0
Conclusion: CDDA 100%
Signature: B3AE390C62EEABDFA32BDD34ECF48E95442102BC
FILE: 11. Stand on the Rock.flac
Size: 22057308 Hash: 3CDECCC42EB739CD3B0F8D749D2EC899 Accuracy: -m0
Conclusion: CDDA 100%
Signature: B031B22E8334C3741A38C753C2983C6B8804E761
FILE: 10. Hush.flac
Size: 29751054 Hash: 83AF69F446B341AB898CD6738E581754 Accuracy: -m0
Conclusion: CDDA 100%
Signature: 398A15EB04E835FB5C036DB8E17EF2D24CEF4068
FILE: 09. Long Way to Go.flac
Size: 29182592 Hash: 89AA647FFFB7FEC4A8E1DA395BE2A197 Accuracy: -m0
Conclusion: CDDA 100%
Signature: BFDD2B70EE656FC09E4C74927536654FFF1FFF0C
FILE: 08. Special Kind of Love.flac
Size: 23568707 Hash: C9D22EC535BD8EEEAFC87023C9E75A3A Accuracy: -m0
Conclusion: CDDA 100%
Signature: 84ABD59EEF5D91366673B92761029246C53150C7
FILE: 07. Nobody But Jesus.flac
Size: 19217706 Hash: 8374E1E53F5AA31E27995CFD9476B3B2 Accuracy: -m0
Conclusion: CDDA 100%
Signature: C4B55CD46EE6F50A35F00367BE3768B2E73F75EF
FILE: 06. Lead Me to Rest.flac
Size: 33297750 Hash: D64093459D3FB643C2DF2F4B2922B4F7 Accuracy: -m0
Conclusion: CDDA 100%
Signature: A039AF6F79633F5484850A065359E4CFBEEC7A3A
FILE: 05. My Lord and My God.flac
Size: 19810461 Hash: 1D3874DA653BDE5EEBD5ECA9B1E4C651 Accuracy: -m0
Conclusion: CDDA 100%
Signature: 9BD26565A47F4AF25B0F2A44848084A1F5DD092A
FILE: 04. Not My Will but Thine.flac
Size: 20713451 Hash: E64763F45C52BB568D03CEBE06B5A087 Accuracy: -m0
Conclusion: CDDA 100%
Signature: 4EDF6E6EAD22715E7DAC948B591147FC71055505
FILE: 03. More Precious Than Gold.flac
Size: 16885946 Hash: 5C2874A088C502AD83C488577069C7B7 Accuracy: -m0
Conclusion: CDDA 100%
Signature: A3D4CA29A7A7FBFCAB9423CBEA260C0054C5FE2A
FILE: 02. Set Me Free.flac
Size: 29571996 Hash: 9F7FCE376EA74FEF122179E4B60ADAD5 Accuracy: -m0
Conclusion: CDDA 100%
Signature: DF3EF38AD4DC7A0FB5D3934D843082182B761441
FILE: 01. Only Truth.flac
Size: 21022439 Hash: 367594E0730FCFF979DC01A76E3EA7FE Accuracy: -m0
Conclusion: CDDA 100%
Signature: BFF7557A2AB16A79B1C6D653B3FB4E112205CA3F
Приватный:
Нет (DHT включён)
Размер:
287.86 Мб (301,839,040 байт) » файлов: 20
Участники:
0 раздают, 0 качают (0 участников всего)
Внешние участники:
5 раздают, 1 качают (6 участников всего) [ Обновить ]
Есть вопросы - пишите личное сообщение пользователю M0p94ok.
10:53
54
Нет комментариев. Ваш будет первым!