Поиск

(Funk,Soul,Indie,Alternative Rock) [CD] Keziah Jones - Live E.P. - 1993, FLAC (image+.cue), lossless

(Funk,Soul,Indie,Alternative Rock) [CD] Keziah Jones - Live E.P. - 1993, FLAC (image+.cue), lossless
Треклист:
Keziah Jones / Live E.P.
Жанр: Funk,Soul,Indie,Alternative Rock
Носитель: CD
Страна-производитель диска (релиза): Holland
Год издания: 1993
Издатель (лейбл): Delabel/Virgin France
Номер по каталогу: DE 918922,CDDLB8,724389189
Страна исполнителя (группы): Nigeria
Аудиокодек: FLAC (*.flac)
Тип рипа: image+.cue
Битрейт аудио: lossless
Продолжительность: 00:23:35
Источник (релизер): собственный рип
Наличие сканов в содержимом раздачи: нет
Треклист:
1 Scream
2 Hidetheology
3 Rainy London Streets
4 Blufunk Is Alive!
5 Secret Thoughts
6 Rhythm Is Love
 
Лог создания рипа
Exact Audio Copy V1.1 from 23. June 2015
EAC extraction logfile from 7. June 2016, 5:23
Keziah Jones / Live EP
Used drive : TSSTcorpCDDVDW TS-L633C Adapter: 1 ID: 0
Read mode : Secure
Utilize accurate stream : Yes
Defeat audio cache : Yes
Make use of C2 pointers : No
Read offset correction : 6
Overread into Lead-In and Lead-Out : No
Fill up missing offset samples with silence : Yes
Delete leading and trailing silent blocks : No
Null samples used in CRC calculations : Yes
Used interface : Native Win32 interface for Win NT & 2000
Used output format : User Defined Encoder
Selected bitrate : 768 kBit/s
Quality : High
Add ID3 tag : No
Command line compressor : C:\Program Files (x86)\Exact Audio Copy\Flac\flac.exe
Additional command line options : -V -8 -T "Date=%year%" -T "Genre=%genre%" %source%
TOC of the extracted CD
Track | Start | Length | Start sector | End sector
---------------------------------------------------------
1 | 0:00.32 | 3:40.48 | 32 | 16579
2 | 3:41.05 | 5:10.10 | 16580 | 39839
3 | 8:51.15 | 3:03.57 | 39840 | 53621
4 | 11:54.72 | 1:37.53 | 53622 | 60949
5 | 13:32.50 | 5:09.00 | 60950 | 84124
6 | 18:41.50 | 4:53.50 | 84125 | 106149
Range status and errors
Selected range
Filename C:\Users\Public\RIPS\Keziah Jones - Live EP.wav
Peak level 99.2 %
Extraction speed 3.4 X
Range quality 99.9 %
Test CRC 87A057F5
Copy CRC 87A057F5
Copy OK
No errors occurred
AccurateRip summary
Track 1 accurately ripped (confidence 10) [AEDABF42] (AR v2)
Track 2 accurately ripped (confidence 10) [A9F1A998] (AR v2)
Track 3 accurately ripped (confidence 9) [72CA1786] (AR v2)
Track 4 accurately ripped (confidence 9) [32007CA7] (AR v2)
Track 5 accurately ripped (confidence 10) [07877D1D] (AR v2)
Track 6 accurately ripped (confidence 10) [4EAE965A] (AR v2)
All tracks accurately ripped
End of status report
---- CUETools DB Plugin V2.1.6
[CTDB TOCID: krV9OkeqlxDSIujU_TJvEodvQ_0-] found
Submit result: krV9OkeqlxDSIujU_TJvEodvQ_0- has been confirmed
Track | CTDB Status
1 | (7/7) Accurately ripped
2 | (7/7) Accurately ripped
3 | (7/7) Accurately ripped
4 | (7/7) Accurately ripped
5 | (7/7) Accurately ripped
6 | (7/7) Accurately ripped
==== Log checksum DFBFF76A90C5312F4AFA1B59B6F56D05FAD60F3DE29A7DB5E7E52DE387E5ED5A ====
Приватный:
Нет (DHT включён)
Размер:
149.84 Мб (157,120,735 байт) » файлов: 5
Участники:
0 раздают, 0 качают (0 участников всего)
Внешние участники:
2 раздают, 1 качают (3 участников всего) [ Обновить ]
No seeders - write a personal message to user M0p94ok. Нет сидеров - пишите личное сообщение пользователю M0p94ok.
10:51
70
Нет комментариев. Ваш будет первым!