Поиск

(Soul, R&B) [CD] The Joneses - Keepin' Up With The Joneses (1974) - 2014, FLAC (tracks+.cue), lossless

(Soul, R&B) [CD] The Joneses - Keepin' Up With The Joneses (1974) - 2014, FLAC (tracks+.cue), lossless
Треклист:
The Joneses - Keepin' Up With The Joneses (1974) Жанр: Soul, R&B
Носитель: CD
Страна-производитель диска: Japan
Год издания: 2014
Издатель (лейбл): Universal Music Japan
Номер по каталогу: UICY-76201
Аудиокодек: FLAC (*.flac)
Тип рипа: tracks+.cue
Битрейт аудио: lossless
Продолжительность: 38:41
Rip by JET 1
Наличие сканов в содержимом раздачи: да
Треклист:
01. I Can't See What You See In Me (3:09)
02. Fire (2:53)
03. Our Love Song (7:28)
04. Hey Babe (Is The Gettin' Still Good?) Part 1 (3:34)
05. Hey Babe (Is The Gettin' Still Good?) Part 2 (2:08)
06. Sugar Pie Guy (Part 1) (3:40)
07. Sugar Pie Guy (Part 2) (3:49)
08. I Promise You (4:47)
09. Baby Don't Do It (2:59)
10. Please Let Me Stay (4:14)
 
 
Лог создания рипа
Exact Audio Copy V1.0 beta 3 from 29. August 2011
EAC extraction logfile from 28. January 2016, 18:51
The Joneses / Keepin' Up With The Joneses
Used drive : GENERIC CDRCB05 Adapter: 4 ID: 0
Read mode : Secure
Utilize accurate stream : Yes
Defeat audio cache : Yes
Make use of C2 pointers : No
Read offset correction : 102
Overread into Lead-In and Lead-Out : No
Fill up missing offset samples with silence : Yes
Delete leading and trailing silent blocks : No
Null samples used in CRC calculations : Yes
Used interface : Native Win32 interface for Win NT & 2000
Gap handling : Appended to previous track
Used output format : User Defined Encoder
Selected bitrate : 1024 kBit/s
Quality : High
Add ID3 tag : No
Command line compressor : C:\Program Files\FLAC\flac.exe
Additional command line options : -8 -V -T "ARTIST=%artist%" -T "TITLE=%title%" -T "ALBUM=%albumtitle%" -T "DATE=%year%" -T "TRACKNUMBER=%tracknr%" -T "GENRE=%genre%" -T "PERFORMER=%albuminterpret%" -T "COMPOSER=%composer%" %haslyrics%--tag-from-file=LYRICS="%lyricsfile%"%haslyrics% -T "ALBUMARTIST=%albumartist%" -T "DISCNUMBER=%cdnumber%" -T "TOTALDISCS=%totalcds%" -T "TOTALTRACKS=%numtracks%" -T "COMMENT=%comment%" %source% -o %dest%
TOC of the extracted CD
Track | Start | Length | Start sector | End sector
---------------------------------------------------------
1 | 0:00.00 | 3:08.62 | 0 | 14161
2 | 3:08.62 | 2:52.53 | 14162 | 27114
3 | 6:01.40 | 7:27.70 | 27115 | 60709
4 | 13:29.35 | 3:33.60 | 60710 | 76744
5 | 17:03.20 | 2:07.47 | 76745 | 86316
6 | 19:10.67 | 3:40.35 | 86317 | 102851
7 | 22:51.27 | 3:49.18 | 102852 | 120044
8 | 26:40.45 | 4:47.17 | 120045 | 141586
9 | 31:27.62 | 2:59.23 | 141587 | 155034
10 | 34:27.10 | 4:13.51 | 155035 | 174060
Track 1
Filename G:\POSTS\The Joneses - Keepin' Up With The Joneses (1974) [2014 Japan]\01 - I Can't See What You See In Me.wav
Pre-gap length 0:00:02.00
Peak level 95.3 %
Extraction speed 1.3 X
Track quality 100.0 %
Test CRC 098A91AE
Copy CRC 098A91AE
Accurately ripped (confidence 4) [B2BD2268] (AR v2)
Copy OK
Track 2
Filename G:\POSTS\The Joneses - Keepin' Up With The Joneses (1974) [2014 Japan]\02 - Fire.wav
Pre-gap length 0:00:02.50
Peak level 93.7 %
Extraction speed 1.5 X
Track quality 100.0 %
Test CRC 5ECE5D74
Copy CRC 5ECE5D74
Accurately ripped (confidence 4) [7C30967E] (AR v2)
Copy OK
Track 3
Filename G:\POSTS\The Joneses - Keepin' Up With The Joneses (1974) [2014 Japan]\03 - Our Love Song.wav
Pre-gap length 0:00:02.09
Peak level 95.3 %
Extraction speed 1.8 X
Track quality 100.0 %
Test CRC 6E3AC145
Copy CRC 6E3AC145
Accurately ripped (confidence 4) [A7ED1F47] (AR v2)
Copy OK
Track 4
Filename G:\POSTS\The Joneses - Keepin' Up With The Joneses (1974) [2014 Japan]\04 - Hey Babe (Is The Gettin' Still Good) Part 1.wav
Pre-gap length 0:00:02.32
Peak level 85.5 %
Extraction speed 1.6 X
Track quality 99.9 %
Test CRC 09039CCC
Copy CRC 09039CCC
Accurately ripped (confidence 4) [584C5F5C] (AR v2)
Copy OK
Track 5
Filename G:\POSTS\The Joneses - Keepin' Up With The Joneses (1974) [2014 Japan]\05 - Hey Babe (Is The Gettin' Still Good) Part 2.wav
Peak level 89.6 %
Extraction speed 1.8 X
Track quality 100.0 %
Test CRC FC9690CA
Copy CRC FC9690CA
Accurately ripped (confidence 3) [4091758F] (AR v2)
Copy OK
Track 6
Filename G:\POSTS\The Joneses - Keepin' Up With The Joneses (1974) [2014 Japan]\06 - Sugar Pie Guy (Part 1).wav
Pre-gap length 0:00:01.19
Peak level 95.3 %
Extraction speed 2.0 X
Track quality 100.0 %
Test CRC 35C71E9E
Copy CRC 35C71E9E
Accurately ripped (confidence 3) [AD468CC7] (AR v2)
Copy OK
Track 7
Filename G:\POSTS\The Joneses - Keepin' Up With The Joneses (1974) [2014 Japan]\07 - Sugar Pie Guy (Part 2).wav
Peak level 95.3 %
Extraction speed 2.2 X
Track quality 100.0 %
Test CRC 4DDEF456
Copy CRC 4DDEF456
Accurately ripped (confidence 3) [38BA74E6] (AR v2)
Copy OK
Track 8
Filename G:\POSTS\The Joneses - Keepin' Up With The Joneses (1974) [2014 Japan]\08 - I Promise You.wav
Pre-gap length 0:00:01.73
Peak level 87.2 %
Extraction speed 2.4 X
Track quality 100.0 %
Test CRC F3C00CA9
Copy CRC F3C00CA9
Accurately ripped (confidence 3) [F90579AF] (AR v2)
Copy OK
Track 9
Filename G:\POSTS\The Joneses - Keepin' Up With The Joneses (1974) [2014 Japan]\09 - Baby Don't Do It.wav
Pre-gap length 0:00:01.51
Peak level 84.3 %
Extraction speed 2.3 X
Track quality 100.0 %
Test CRC 4F1176AC
Copy CRC 4F1176AC
Accurately ripped (confidence 3) [67907A70] (AR v2)
Copy OK
Track 10
Filename G:\POSTS\The Joneses - Keepin' Up With The Joneses (1974) [2014 Japan]\10 - Please Let Me Stay.wav
Pre-gap length 0:00:01.50
Peak level 95.3 %
Extraction speed 2.5 X
Track quality 100.0 %
Test CRC 2068ECAD
Copy CRC 2068ECAD
Accurately ripped (confidence 3) [6506218E] (AR v2)
Copy OK
All tracks accurately ripped
No errors occurred
End of status report
==== Log checksum 2182FF6C7387B69162D054126AF618AD59A6409170A5902BCCCF26BEAF4C7FD9 ====
 
Содержание индексной карты (.CUE)
REM GENRE Soul
REM DATE 1974
REM DISCID 7509100A
REM COMMENT "ExactAudioCopy v1.0b3"
PERFORMER " The Joneses"
TITLE "Keepin' Up With The Joneses"
FILE "01 - I Can't See What You See In Me.wav" WAVE
TRACK 01 AUDIO
TITLE "I Can't See What You See In Me"
PERFORMER " The Joneses"
INDEX 01 00:00:00
TRACK 02 AUDIO
TITLE "Fire"
PERFORMER " The Joneses"
INDEX 00 03:06:12
FILE "02 - Fire.wav" WAVE
INDEX 01 00:00:00
TRACK 03 AUDIO
TITLE "Our Love Song"
PERFORMER " The Joneses"
INDEX 00 02:50:44
FILE "03 - Our Love Song.wav" WAVE
INDEX 01 00:00:00
TRACK 04 AUDIO
TITLE "Hey Babe (Is The Gettin' Still Good?) Part 1"
PERFORMER " The Joneses"
INDEX 00 07:25:38
FILE "04 - Hey Babe (Is The Gettin' Still Good) Part 1.wav" WAVE
INDEX 01 00:00:00
FILE "05 - Hey Babe (Is The Gettin' Still Good) Part 2.wav" WAVE
TRACK 05 AUDIO
TITLE "Hey Babe (Is The Gettin' Still Good?) Part 2"
PERFORMER " The Joneses"
INDEX 01 00:00:00
TRACK 06 AUDIO
TITLE "Sugar Pie Guy (Part 1)"
PERFORMER " The Joneses"
INDEX 00 02:06:28
FILE "06 - Sugar Pie Guy (Part 1).wav" WAVE
INDEX 01 00:00:00
FILE "07 - Sugar Pie Guy (Part 2).wav" WAVE
TRACK 07 AUDIO
TITLE "Sugar Pie Guy (Part 2)"
PERFORMER " The Joneses"
INDEX 01 00:00:00
TRACK 08 AUDIO
TITLE "I Promise You"
PERFORMER " The Joneses"
INDEX 00 03:47:20
FILE "08 - I Promise You.wav" WAVE
INDEX 01 00:00:00
TRACK 09 AUDIO
TITLE "Baby Don't Do It"
PERFORMER " The Joneses"
INDEX 00 04:45:41
FILE "09 - Baby Don't Do It.wav" WAVE
INDEX 01 00:00:00
TRACK 10 AUDIO
TITLE "Please Let Me Stay"
PERFORMER " The Joneses"
INDEX 00 02:57:48
FILE "10 - Please Let Me Stay.wav" WAVE
INDEX 01 00:00:00
 
Об исполнителе (группе)
An R&B vocal group from Pittsburgh, Pennsylvania, USA, the Joneses were typical of the vocal group renaissance of the early 70s, recording in the soft-soul mode that featured a falsetto lead, pretty harmonies and fully orchestrated arrangements. The original group started in Pittsburgh in 1969, but the recording group arrived at its final line-up after moving to New York to record for V.M.P. Records in the early 70s. The members of the V.M.P. group featured falsetto lead Cy Brooks, Glenn Dorsey, Sam White and brothers Reginald and Wendell Noble, and on that label they had a New York hit with ‘Pretty Pretty’. Moving to the Pride label in 1973, they had another local hit, ‘Pull My String’. Mercury Records then took notice and signed them. Brooks left at this point and his lead spot was taken by baritone Harold Taylor (who had earlier been with the group in Pittsburgh). At Mercury the Joneses first hit locally in Baltimore with ‘Baby Don’t Do It’, but in 1974 they began a string of national hits with ‘Hey Babe’ (number 18 R&B). They then followed with their only crossover hit, ‘Sugar Pie Guy’ (number 10 R&B, number 47 pop), also in 1974. They also had considerable success with ‘I Can’t See What You See In Me’ (number 28 R&B) in 1975. The Joneses broke up in 1975, but in the following years there were four resurrections of the group, the first in 1977 and the last in 1992, and each time the only constant in the new line-ups was Glenn Dorsey. These new Joneses groups recorded with Epic, Spring, Collectables and Atlantic Records with varying success.
 
Состав
Arranged By [Backing Vocals] – Glenn Dorsey, Lee Valentine, Wendell Noble
Arranged By [Strings] – Richard Tee (tracks: 4, 5, 8)
Bass – Wilbur Bascome
Bass Vocals [& Monologues] – Glenn Dorsey
Congas – Ralph MacDonald, Richard Pratt
Drums – Alan Schwartzberg, Billy Lavorgna, Crawford Perry, Dobbie London, Rich Marotta, Steve Gadd
Engineer – Chuck Irwin, Elvin Campbell, Frank Campbell
Guitar – Carl Lynch, Cornell Dupree, Lee Valentine
Horns – Danny Moore, Ernie Royal, Garnett Brown, George Coleman, Jon Faddis, Sal Schlinger, Seldon Powell
Keyboards – Paul Griffin, Richard Tee
Lead Vocals, Baritone Vocals – Harold Taylor
Lead Vocals, Baritone Vocals [Baritone Tenor] – Sam White
Lead Vocals, Tenor Vocals [1St Tenor] – Reggie Noble
Lead Vocals, Tenor Vocals [2Nd Tenor] – Wendell Noble
Mastered By – Gilbert Kong
Mixed By – Chuck Irwin, Elvin Campbell, Glenn Dorsey, Lee Valentine
Percussion – Warren Smith
Photography By – Cosimo Scianna
Photography By [Back Cover Photo Of Glenn Dorsey] – David Gahr
Producer, Arranged By, Conductor – Lee Valentine
Strings – Radio Registry Strings
Vocals [Female] – Adrienne Albert, Helene Miles, Joyce Nesbitt, Maeretha Albert
Voice [Female Monologues] – Divi Niles
Written-By – Glenn Dorsey (tracks: 1 to 7, 9, 10), Wendell Noble (tracks: 8)
NITROFLARE
Приватный:
Нет (DHT включён)
Размер:
303.98 Мб (318,747,404 байт) » файлов: 29
Участники:
0 раздают, 0 качают (0 участников всего)
Внешние участники:
5 раздают, 1 качают (6 участников всего) [ Обновить ]
Есть вопросы - пишите личное сообщение пользователю M0p94ok.
09:54
78
Нет комментариев. Ваш будет первым!