Поиск

(Jazz-Funk) [CD] Richard Tee - Strokin' - 1978 (2015 Japan Edition), FLAC (image+.cue), lossless

(Jazz-Funk) [CD] Richard Tee - Strokin' - 1978 (2015 Japan Edition), FLAC (image+.cue), lossless
Треклист:
Richard Tee - Strokin'
Жанр: Jazz-Funk
Носитель: CD
Страна-производитель диска (релиза): Япония
Год издания: 1978 (2015)
Издатель (лейбл): Tappan Zee/Victor Entertainment
Номер по каталогу: VICJ-61731
Страна исполнителя (группы): США
Аудиокодек: FLAC (*.flac)
Тип рипа: image+.cue
Битрейт аудио: lossless
Продолжительность: 35:55
Источник (релизер): kvapar (Спасибо Егору из PTZ)
Наличие сканов в содержимом раздачи: да
Треклист:
01. First Love (Rainey) - 4:57
02. Every Day (Tee-Withers) - 5:28
03. Strokin' (Tee) - 5:23
04. I Wanted It Too (MacDonald-Salter) - 5:04
05. Virginia Sunday (Tee) - 5:33
06. Jesus Children of America (Wonder) - 4:47
07. Take the "A" Train (Strayhorn) - 4:43
 
Лог создания рипа
Exact Audio Copy V1.0 beta 3 from 29. August 2011
Отчёт EAC об извлечении, выполненном 1. февраля 2016, 19:53
Richard Tee / Strokin'
Дисковод: Optiarc DVD RW AD-7203S Adapter: 1 ID: 0
Режим чтения : Достоверность
Использование точного потока : Да
Отключение кэша аудио : Да
Использование указателей C2 : Нет
Коррекция смещения при чтении : 48
Способность читать области Lead-in и Lead-out : Нет
Заполнение пропущенных сэмплов тишиной : Да
Удаление блоков с тишиной в начале и конце : Нет
При вычислениях CRC использовались нулевые сэмплы : Да
Интерфейс : Встроенный Win32-интерфейс для Win NT/2000
Выходной формат : Пользовательский кодировщик
Выбранный битрейт : 128 kBit/s
Качество : Высокий
Добавление ID3-тега : Нет
Утилита сжатия : C:\Program Files (x86)\Exact Audio Copy\Flac\flac.exe
Дополнительные параметры : -V -8 -T "Date=%year%" -T "Genre=%genre%" %source%
TOC извлечённого CD
Трек | Старт | Длительность | Начальный сектор | Конечный сектор
---------------------------------------------------------------------
1 | 0:00.00 | 4:57.35 | 0 | 22309
2 | 4:57.35 | 5:27.58 | 22310 | 46892
3 | 10:25.18 | 5:23.37 | 46893 | 71154
4 | 15:48.55 | 5:04.13 | 71155 | 93967
5 | 20:52.68 | 5:32.40 | 93968 | 118907
6 | 26:25.33 | 4:46.55 | 118908 | 140412
7 | 31:12.13 | 4:43.35 | 140413 | 161672
Характеристики диапазона извлечения и сообщения об ошибках
Выбранный диапазон
Имя файла D:\Music\_Egor from PTZ\Richard Tee - Strokin' (1979)\Richard Tee - Strokin' (1979).wav
Пиковый уровень 97.9 %
Скорость извлечения 3.5 X
Качество диапазона 100.0 %
CRC теста 8146DC31
CRC копии 8146DC31
Копирование... OK
Ошибок не произошло
AccurateRip: сводка
Трек 1 точность не определена (достоверность 3) [CFE9E5ED], AccurateRip вернул [9BDA99AC] (AR v2)
Трек 2 точность не определена (достоверность 3) [4D2D1D6D], AccurateRip вернул [4734E80F] (AR v2)
Трек 3 точность не определена (достоверность 3) [A7EA774E], AccurateRip вернул [E2E4C008] (AR v2)
Трек 4 точность не определена (достоверность 3) [03C9513C], AccurateRip вернул [90EF1DAE] (AR v2)
Трек 5 точность не определена (достоверность 3) [4A85CF1E], AccurateRip вернул [E6CC0D03] (AR v2)
Трек 6 точность не определена (достоверность 3) [29F76B56], AccurateRip вернул [5A4A0E21] (AR v2)
Трек 7 точность не определена (достоверность 3) [AD5B845F], AccurateRip вернул [3F6E597D] (AR v2)
Ни один трек не прошёл проверки на точность
В вашей базе может быть иной вариант штамповки диска
Конец отчёта
==== Контрольная сумма отчёта 4F2364F6A000275F19C7263623DC5E69404D11DB811026FF7D528284DD7AD20B ====
 
Содержание индексной карты (.CUE)
REM GENRE Jazz
REM DATE 1979
REM DISCID 68086B07
REM COMMENT "ExactAudioCopy v1.0b3"
PERFORMER "Richard Tee"
TITLE "Strokin'"
FILE "Richard Tee - Strokin'.wav" WAVE
TRACK 01 AUDIO
TITLE "First Love"
PERFORMER "Richard Tee"
INDEX 01 00:00:00
TRACK 02 AUDIO
TITLE "Every Day"
PERFORMER "Richard Tee"
INDEX 00 04:56:00
INDEX 01 04:57:35
TRACK 03 AUDIO
TITLE "Strokin'"
PERFORMER "Richard Tee"
INDEX 00 10:23:57
INDEX 01 10:25:18
TRACK 04 AUDIO
TITLE "I Wanted It Too"
PERFORMER "Richard Tee"
INDEX 00 15:47:20
INDEX 01 15:48:55
TRACK 05 AUDIO
TITLE "Virginia Sunday"
PERFORMER "Richard Tee"
INDEX 00 20:51:32
INDEX 01 20:52:68
TRACK 06 AUDIO
TITLE "Jesus Children of America"
PERFORMER "Richard Tee"
INDEX 00 26:23:57
INDEX 01 26:25:33
TRACK 07 AUDIO
TITLE "Take the 'A' Train"
PERFORMER "Richard Tee"
INDEX 00 31:10:52
INDEX 01 31:12:13
 
Отчет CUETools
[CUETools log; Date: 06.02.2016 19:32:45; Version: 2.1.5]
[CTDB TOCID: l5hRrR8mbFazKaG48rJg.z6SK4A-] found.
Track | CTDB Status
1 | (7/9) Accurately ripped
2 | (7/9) Accurately ripped
3 | (7/9) Accurately ripped
4 | (7/9) Accurately ripped
5 | (7/9) Accurately ripped
6 | (7/9) Accurately ripped
7 | (7/9) Accurately ripped
[AccurateRip ID: 0009ffd8-003bf58b-68086b07] found.
Track [ CRC | V2 ] Status
01 [36c6eac8|cfe9e5ed] (0+0/5) No match
02 [725ee601|4d2d1d6d] (0+0/5) No match
03 [d4058792|a7ea774e] (0+0/5) No match
04 [5ec5107a|03c9513c] (0+0/5) No match
05 [14de03a7|4a85cf1e] (0+0/5) No match
06 [189f4a11|29f76b56] (0+0/5) No match
07 [0a2ed4af|ad5b845f] (0+0/5) No match
Offsetted by 662:
01 [9bda99ac] (3/5) Accurately ripped
02 [4734e80f] (3/5) Accurately ripped
03 [e2e4c008] (3/5) Accurately ripped
04 [90ef1dae] (3/5) Accurately ripped
05 [e6cc0d03] (3/5) Accurately ripped
06 [5a4a0e21] (3/5) Accurately ripped
07 [3f6e597d] (3/5) Accurately ripped
Track Peak [ CRC32 ] [W/O NULL] [ LOG ]
-- 97,9 [8146DC31] [E2E9A9E9] CRC32
01 97,9 [211984D0] [B3F26526]
02 97,9 [95ED5167] [5C66B91F]
03 97,9 [F83C4C72] [0D039591]
04 97,9 [D2A003DC] [9A10F25F]
05 97,9 [829B0F73] [5F2D03FA]
06 97,9 [0BF8B940] [04574F55]
07 97,9 [78582A91] [CDCF5AD6]
 
Об альбоме (сборнике)
The gang's all here: the in-demand New York session pros that fueled more hit records and seminal fusion cuts that anybody could accurately track down. And who knows how many tracks for TV commercials.
Richard Tee came up from North Carolina and added a thick spread of Gospel to the collective sometimes billed as 'Stuff' (and sometimes not billed at all.) Every cut here climbs into a groove and rides. You NEVER, not for a second, feel like anybody in the room is thinking about what they're gonna have for dinner. They're RIGHT IN IT.
Except for the "Take the A Train" cover, which just didn't really work.
What I've always sort of KNOWN but never realized until I got this CD is that Richard Tee has a completely recognizable and unique sound for every different keyboard he plays. His piano sound almost screams "RICHARD TEE HERE!" The large fisted octave additions and wonderful stairstepping chords could only be the work of one person. But his electric piano sound is unique, clustered harmonies, but clustered lower in the keyboard than, say, Bob James's funky dissonances. Tee's use of a wah-wahed Fender Rhodes makes me wonder why nobody else much bothered to wah the electric piano. Tee's organ enters, usually in prominent background, and once again you think, "that could only be Richard Tee." Which is only fitting since it's HIS project.
-- Steve Spencer
 
Состав
Richard Tee - keyboards, lead vocals (#2)
Eric Gale - guitar
Steve Gadd - drums
Chuck Rainey - bass
Ralph MacDonald - percussion
Hugh McCracken - harmonica (solo on #4)
Michael Brecker - tenor saxophone (solo on #3)
Tom Scott - lyricon (solos on #4,5), tenor saxophone (solo on #1)
Bill Eaton, Frank Floyd, Ken Williams, Zachary Sanders - background vocals
Randy Brecker, Michael Brecker, Jon Faddis, Seldon Powell, Barry Rogers - horns
Jonathan Abramowitz, Al Brown, Max Cahn, Selwalt Clarke, Harry Cykman, Paul Gershman, Kathy Kienke, Beverly Lauridsen, Jesse Levy, Guy Lumia, Kermit Moore, Max Pollikoff, Stan Pollock, Gudun Schaumann, Richard Sortomme - strings
David Nadien - concertmaster
Recorded on September 1978.
Rhythm recorded at A&R Recording Studios, New York.
Strings and horns recorded at Power Station Recording Studios, New York.
(Jazz-Funk) [CD] Richard Tee - Strokin' - 1978 (2007 Japan Edition), FLAC (tracks+.cue), lossless
Приватный:
Нет (DHT включён)
Размер:
267.13 Мб (280,108,651 байт) » файлов: 15
Участники:
0 раздают, 0 качают (0 участников всего)
Внешние участники:
3 раздают, 1 качают (4 участников всего) [ Обновить ]
Есть вопросы - пишите личное сообщение пользователю M0p94ok.
09:55
49
Нет комментариев. Ваш будет первым!