Поиск

(Funk, Soul) [CD] Graham Central Station - Коллекция - 1974-1978 (5 альбомов) {Japanese remasters 2008}, FLAC (image+.cue), lossless

(Funk, Soul) [CD] Graham Central Station - Коллекция - 1974-1978 (5 альбомов) {Japanese remasters 2008}, FLAC (image+.cue), lossless
Треклист:
Graham Central Station
Коллекция - 1974-1978 (5 альбомов) Жанр: Funk, Soul
Носитель: CD
Страна-производитель диска: Япония
Год издания диска: 2008
Издатель (лейбл): Warner Music Japan
Страна: США
Аудиокодек: FLAC
Тип рипа: image+.cue
Битрейт аудио: lossless
Продолжительность: 3:14:02
Источник (релизер): kvapar (Спасибо Егору из PTZ)
Наличие сканов в содержимом раздачи: да
Коллекция японских ремастерингов 2008 г.
 
1974 - Graham Central Station (WPCR-12914) {38:36}
Graham Central Station - Graham Central Station
Треклист:
01. We've Been Waiting (Graham) - 0:59
02. It Ain't No Fun to Me (Green) - 5:13
03. Hair (Graham) - 4:56
04. We Be's Gettin' Down (Graham) - 4:43
05. Tell Me What It Is (Graham) - 4:58
06. Can You Handle It? (Graham) - 5:14
07. People (Graham-Stone) - 4:31
08. Why? (Graham) - 3:38
09. Ghetto (Graham) - 4:24
Состав:
Larry Graham - bass, guitar, piano, keyboards, drums, lead and backing vocals
Freddie Stone - guitar
Hershall "Happiness" Kennedy - clavinet, trumpet
Willie "Wild" Sparks - drums
David "Dynamite" Vega - guitar
Robert "Butch" Sam - piano, organ
P. Caboose - tenor saxophone
Patryce "Choc'Let" Banks - vocals, drum programming [Funk Box]
Milt Holland - percussion
Lenny Williams - vocals
Clarence McDonald - string arrangements
 
Лог создания рипа
Exact Audio Copy V1.0 beta 3 from 29. August 2011
Отчёт EAC об извлечении, выполненном 5. февраля 2016, 20:55
Graham Central Station / Graham Central Station
Дисковод: Optiarc DVD RW AD-7203S Adapter: 1 ID: 0
Режим чтения : Достоверность
Использование точного потока : Да
Отключение кэша аудио : Да
Использование указателей C2 : Нет
Коррекция смещения при чтении : 48
Способность читать области Lead-in и Lead-out : Нет
Заполнение пропущенных сэмплов тишиной : Да
Удаление блоков с тишиной в начале и конце : Нет
При вычислениях CRC использовались нулевые сэмплы : Да
Интерфейс : Встроенный Win32-интерфейс для Win NT/2000
Выходной формат : Пользовательский кодировщик
Выбранный битрейт : 128 kBit/s
Качество : Высокий
Добавление ID3-тега : Нет
Утилита сжатия : C:\Program Files (x86)\Exact Audio Copy\Flac\flac.exe
Дополнительные параметры : -V -8 -T "Date=%year%" -T "Genre=%genre%" %source%
TOC извлечённого CD
Трек | Старт | Длительность | Начальный сектор | Конечный сектор
---------------------------------------------------------------------
1 | 0:00.00 | 0:58.27 | 0 | 4376
2 | 0:58.27 | 5:11.55 | 4377 | 27756
3 | 6:10.07 | 4:55.11 | 27757 | 49892
4 | 11:05.18 | 4:42.37 | 49893 | 71079
5 | 15:47.55 | 4:57.13 | 71080 | 93367
6 | 20:44.68 | 5:12.69 | 93368 | 116836
7 | 25:57.62 | 4:30.22 | 116837 | 137108
8 | 30:28.09 | 3:37.41 | 137109 | 153424
9 | 34:05.50 | 4:23.56 | 153425 | 173205
Характеристики диапазона извлечения и сообщения об ошибках
Выбранный диапазон
Имя файла D:\Music\_Egor from PTZ_02\Graham Central Station\Graham Central Station - Graham Central Station (1973)\Graham Central Station - Graham Central Station (1973).wav
Пиковый уровень 100.0 %
Скорость извлечения 3.5 X
Качество диапазона 99.9 %
CRC теста 04DF5330
CRC копии 04DF5330
Копирование... OK
Ошибок не произошло
AccurateRip: сводка
Трек 1 : извлечено точно (доверие 2) [060DDAC2] (AR v1)
Трек 2 : извлечено точно (доверие 2) [56D8DBE6] (AR v1)
Трек 3 : извлечено точно (доверие 2) [4A0EAE21] (AR v1)
Трек 4 : извлечено точно (доверие 2) [E717A34F] (AR v1)
Трек 5 : извлечено точно (доверие 2) [B7CEE80F] (AR v1)
Трек 6 : извлечено точно (доверие 2) [18D0000B] (AR v1)
Трек 7 : извлечено точно (доверие 2) [9D61B5A8] (AR v1)
Трек 8 : извлечено точно (доверие 2) [DC6910C9] (AR v1)
Трек 9 : извлечено точно (доверие 1) [9E753F44] (AR v1)
Все треки извлечены точно
Конец отчёта
==== Контрольная сумма отчёта E4AF652B6D0F38B43A1E6D74A459E9FFCAFB10880B84AB6A18D0F6563977CB29 ====
 
Содержание индексной карты (.CUE)
REM GENRE Funk
REM DATE 1974
REM DISCID 77090509
REM COMMENT "ExactAudioCopy v1.0b3"
PERFORMER "Graham Central Station"
TITLE "Graham Central Station"
FILE "Graham Central Station - Graham Central Station.wav" WAVE
TRACK 01 AUDIO
TITLE "We've Been Waiting"
PERFORMER "Graham Central Station"
INDEX 01 00:00:00
TRACK 02 AUDIO
TITLE "It Ain't No Fun to Me"
PERFORMER "Graham Central Station"
INDEX 01 00:58:27
TRACK 03 AUDIO
TITLE "Hair"
PERFORMER "Graham Central Station"
INDEX 01 06:10:07
TRACK 04 AUDIO
TITLE "We Be's Gettin' Down"
PERFORMER "Graham Central Station"
INDEX 01 11:05:18
TRACK 05 AUDIO
TITLE "Tell Me What It Is"
PERFORMER "Graham Central Station"
INDEX 01 15:47:55
TRACK 06 AUDIO
TITLE "Can You Handle It?"
PERFORMER "Graham Central Station"
INDEX 00 20:44:15
INDEX 01 20:44:68
TRACK 07 AUDIO
TITLE "People"
PERFORMER "Graham Central Station"
INDEX 00 25:56:51
INDEX 01 25:57:62
TRACK 08 AUDIO
TITLE "Why?"
PERFORMER "Graham Central Station"
INDEX 01 30:28:09
TRACK 09 AUDIO
TITLE "Ghetto"
PERFORMER "Graham Central Station"
INDEX 00 34:05:48
INDEX 01 34:05:50
 
Отчет CUETools
[CUETools log; Date: 06.02.2016 20:45:55; Version: 2.1.5]
[CTDB TOCID: 9t1Jv8p0g0SgkaiZl4NK.cv.ZBM-] found.
Track | CTDB Status
1 | (1/1) Accurately ripped
2 | (1/1) Accurately ripped
3 | (1/1) Accurately ripped
4 | (1/1) Accurately ripped
5 | (1/1) Accurately ripped
6 | (1/1) Accurately ripped
7 | (1/1) Accurately ripped
8 | (1/1) Accurately ripped
9 | (1/1) Accurately ripped
[AccurateRip ID: 000c9eac-005f22c6-77090509] found.
Track [ CRC | V2 ] Status
01 [060ddac2|40ff95ad] (2+0/2) Accurately ripped
02 [56d8dbe6|88ce0de3] (2+0/2) Accurately ripped
03 [4a0eae21|e36a5fbd] (2+0/2) Accurately ripped
04 [e717a34f|5e7e3361] (2+0/2) Accurately ripped
05 [b7cee80f|2d236517] (2+0/2) Accurately ripped
06 [18d0000b|7eb6b003] (2+0/2) Accurately ripped
07 [9d61b5a8|c8f31131] (2+0/2) Accurately ripped
08 [dc6910c9|e2f06f2d] (2+0/2) Accurately ripped
09 [9e753f44|65ba5e55] (1+0/2) Accurately ripped
Offsetted by 6:
01 [398e7c7f] (0/2) No match
02 [6cd05dd0] (0/2) No match
03 [ebb68dbd] (0/2) No match
04 [42dd3511] (0/2) No match
05 [6d207bd4] (0/2) No match
06 [dc829bf3] (0/2) No match
07 [d851cdf0] (0/2) No match
08 [6fe3faad] (0/2) No match
09 [de54183e] (1/2) Accurately ripped
Track Peak [ CRC32 ] [W/O NULL] [ LOG ]
-- 100,0 [04DF5330] [B60E0752] CRC32
01 92,4 [B6D5B18E] [C3E7B60B]
02 99,7 [F1840C30] [544EC5EB]
03 100,0 [0A914BC4] [94B360D0]
04 100,0 [E89FFA38] [FE7ECDD7]
05 100,0 [59540E42] [C77AC1A9]
06 100,0 [3E907953] [6F7151E4]
07 100,0 [536D180E] [C4AC2A68]
08 100,0 [8B6DABCC] [9B0428D3]
09 100,0 [841ECCAD] [438A932E]
 
AllMusic Review by Donald A. Guarisco
This promising 1973 album represents bass wizard Larry Graham's first post-Sly and the Family Stone work. Much like his previous band, Graham Central Station was a multiracial unit that blended soul grooves and pop hooks to create an exuberant hybrid. However, Graham Central Station gives Graham's bass work a more upfront role in the sound and adds further layers of rhythms with drum machines and rhythmic-sounding keyboards like the clavinet. The result is a disc that is equal parts pop-soul ("Ain't No Fun to Me") and funk ("We Be Gettin' Down"). The blend isn't as seamless as one might hope, which means some songs are stronger on groove then they are on melody: "Tell Me What It Is" has a great groove built on a seamless mix of thumping bass and throbbing drum machine, but lacks the melodic hooks necessary to make it a truly memorable song. Another problem is that the lyrics are underdeveloped in places: "People" rails against injustice but fails to point the finger at a specific cause, and "Why?" treads on too-familiar love lament territory. Despite these problems, Graham Central Station remains an engaging listen thanks to fine musicianship; even when the songs are lacking in hooks, there is an abundance of cool riffs and stellar vocal harmonies that will make funk fans smile. When this musicianship is applied to the right songs, the results are pure magic: "Hair" wraps a clever lyric about tolerance around a huge groove driven by one of Graham's serpentine basslines, and "Can You Handle It?" effectively fuses a pop melody built on a sing-along chorus to a propulsive bass/keyboard groove (it also became the group's first chart hit). In short, casual listeners may want to pick up this album's highlights on a compilation, but funk lovers will find plenty to enjoy on Graham Central Station.
 
1974 - Release Yourself (WPCR-12915) {37:38}
Graham Central Station - Release Yourself
Треклист:
01. G.C.S. (Graham) - 3:34
02. Release Yourself (Graham) - 4:47
03. Got to Go Through It to Get to It (Graham) - 3:47
04. I Believe in You (Graham) - 5:02
05. 'Tis Your Kind of Music (Graham) - 5:43
06. Hey Mr. Writer (Graham) - 4:04
07. Feel the Need (Tilmon) - 3:57
08. Today (Graham) - 6:44
Состав:
Larry Graham - bass, guitar, Arp synthesizer, tambourine, lead and backing vocals
Hershall "Happiness" Kennedy - horns, clavinet, electric piano, tambourine, vocals
Willie "Wild" Sparks - drums
David "Dynamite" Vega - guitar
Robert "Butch" Sam - organ, piano, tambourine, vocals
Patryce "Choc'Let" Banks - drum programming [Funk Box], tambourine, vocals
Emilio Castillo, Greg Adams, Lenny Pickett, Mic Gillette, Stephen Kupka - horns
Lenny Williams - vocals
 
Лог создания рипа
Exact Audio Copy V1.0 beta 3 from 29. August 2011
Отчёт EAC об извлечении, выполненном 5. февраля 2016, 20:28
Graham Central Station / Release Yourself
Дисковод: Optiarc DVD RW AD-7203S Adapter: 1 ID: 0
Режим чтения : Достоверность
Использование точного потока : Да
Отключение кэша аудио : Да
Использование указателей C2 : Нет
Коррекция смещения при чтении : 48
Способность читать области Lead-in и Lead-out : Нет
Заполнение пропущенных сэмплов тишиной : Да
Удаление блоков с тишиной в начале и конце : Нет
При вычислениях CRC использовались нулевые сэмплы : Да
Интерфейс : Встроенный Win32-интерфейс для Win NT/2000
Выходной формат : Пользовательский кодировщик
Выбранный битрейт : 128 kBit/s
Качество : Высокий
Добавление ID3-тега : Нет
Утилита сжатия : C:\Program Files (x86)\Exact Audio Copy\Flac\flac.exe
Дополнительные параметры : -V -8 -T "Date=%year%" -T "Genre=%genre%" %source%
TOC извлечённого CD
Трек | Старт | Длительность | Начальный сектор | Конечный сектор
---------------------------------------------------------------------
1 | 0:00.00 | 3:32.74 | 0 | 15973
2 | 3:32.74 | 4:46.05 | 15974 | 37428
3 | 8:19.04 | 3:46.13 | 37429 | 54391
4 | 12:05.17 | 5:00.60 | 54392 | 76951
5 | 17:06.02 | 5:42.26 | 76952 | 102627
6 | 22:48.28 | 4:03.32 | 102628 | 120884
7 | 26:51.60 | 3:56.59 | 120885 | 138643
8 | 30:48.44 | 6:42.68 | 138644 | 168861
Характеристики диапазона извлечения и сообщения об ошибках
Выбранный диапазон
Имя файла D:\Music\_Egor from PTZ_02\Graham Central Station\Graham Central Station - Release Yourself (1974)\Graham Central Station - Release Yourself (1974).wav
Пиковый уровень 100.0 %
Скорость извлечения 3.5 X
Качество диапазона 100.0 %
CRC теста 4688F1C0
CRC копии 4688F1C0
Копирование... OK
Ошибок не произошло
AccurateRip: сводка
Трек 1 : извлечено точно (доверие 2) [C1FCA9CF] (AR v1)
Трек 2 : извлечено точно (доверие 2) [F0B2DE5B] (AR v1)
Трек 3 : извлечено точно (доверие 2) [7730AFB4] (AR v1)
Трек 4 : извлечено точно (доверие 2) [329CABBC] (AR v1)
Трек 5 : извлечено точно (доверие 2) [7886917E] (AR v1)
Трек 6 : извлечено точно (доверие 2) [25197296] (AR v1)
Трек 7 : извлечено точно (доверие 2) [BD0E0DAF] (AR v1)
Трек 8 : извлечено точно (доверие 2) [2FC56043] (AR v1)
Все треки извлечены точно
Конец отчёта
==== Контрольная сумма отчёта D00784627B7C7BB945FA67101BC5971EAEEBED703964B9C671A0B7B1C3637C84 ====
 
Содержание индексной карты (.CUE)
REM GENRE Funk
REM DATE 1974
REM DISCID 4E08CB08
REM COMMENT "ExactAudioCopy v1.0b3"
PERFORMER "Graham Central Station"
TITLE "Release Yourself"
FILE "Graham Central Station - Release Yourself.wav" WAVE
TRACK 01 AUDIO
TITLE "G.C.S."
PERFORMER "Graham Central Station"
INDEX 01 00:00:00
TRACK 02 AUDIO
TITLE "Release Yourself"
PERFORMER "Graham Central Station"
INDEX 00 03:32:23
INDEX 01 03:32:74
TRACK 03 AUDIO
TITLE "Got to Go Through It to Get to It"
PERFORMER "Graham Central Station"
INDEX 00 08:17:48
INDEX 01 08:19:04
TRACK 04 AUDIO
TITLE "I Believe in You"
PERFORMER "Graham Central Station"
INDEX 00 12:01:60
INDEX 01 12:05:17
TRACK 05 AUDIO
TITLE "'Tis Your Kind of Music"
PERFORMER "Graham Central Station"
INDEX 00 17:03:63
INDEX 01 17:06:02
TRACK 06 AUDIO
TITLE "Hey Mr. Writer"
PERFORMER "Graham Central Station"
INDEX 00 22:48:17
INDEX 01 22:48:28
TRACK 07 AUDIO
TITLE "Feel the Need"
PERFORMER "Graham Central Station"
INDEX 01 26:51:60
TRACK 08 AUDIO
TITLE "Today"
PERFORMER "Graham Central Station"
INDEX 00 30:47:56
INDEX 01 30:48:44
 
Отчет CUETools
[CUETools log; Date: 06.02.2016 20:46:23; Version: 2.1.5]
[CTDB TOCID: EkBKxDW2vW3dJJKT3UXD2M7seuI-] found.
Track | CTDB Status
1 | (1/1) Accurately ripped
2 | (1/1) Accurately ripped
3 | (1/1) Accurately ripped
4 | (1/1) Accurately ripped
5 | (1/1) Accurately ripped
6 | (1/1) Accurately ripped
7 | (1/1) Accurately ripped
8 | (1/1) Accurately ripped
[AccurateRip ID: 000aebf6-0049d03d-4e08cb08] found.
Track [ CRC | V2 ] Status
01 [c1fca9cf|8d10b854] (2+0/2) Accurately ripped
02 [f0b2de5b|78f7ef3b] (2+0/2) Accurately ripped
03 [7730afb4|17167aeb] (2+0/2) Accurately ripped
04 [329cabbc|77b1e0bf] (2+0/2) Accurately ripped
05 [7886917e|12e23be4] (2+0/2) Accurately ripped
06 [25197296|74af9597] (2+0/2) Accurately ripped
07 [bd0e0daf|1745dca7] (2+0/2) Accurately ripped
08 [2fc56043|3798e75b] (2+0/2) Accurately ripped
Track Peak [ CRC32 ] [W/O NULL] [ LOG ]
-- 100,0 [4688F1C0] [AF36CE8D] CRC32
01 100,0 [1A2EB9AE] [4709EDB2]
02 100,0 [539E8763] [FA4F3287]
03 100,0 [071F5FED] [8A37A54A]
04 100,0 [09931E5C] [3D165C02]
05 100,0 [F2BB7AF5] [31408788]
06 100,0 [41D84E82] [A2DFE8AC]
07 100,0 [B1184F69] [EE8AF44D]
08 100,0 [04BAD850] [AEE28483]
 
AllMusic Review by Donald A. Guarisco
After a tentative but promising 1973 debut album, Graham Central Station returned the next year with a head-spinning blend of R&B styles that realized their promise in a truly impressive fashion. Release Yourself touches on everything from gospel music to psychedelia, as the band puts forth an impressive set of songs that strike an effective balance between accessibility and complexity. This time, keyboards carry a new level of importance: songs like "G.C.S." and "I Believe in You" flow forth on elaborate keyboard riffs layered with plenty of spacey synthesizer leads. The album's most impressive achievements are the title track, a pulse-pounding tribute to the joys of self expression that combines churchy organ riffs and stately horns over a furiously-paced bass/clavinet rhythm, and "Tis Your Kind of Music," a psychedelic-funk masterpiece that has Patryce "Chocolate" Banks and Graham trading sultry lead vocals over an otherworldly blend of keyboard and Mellotron riffs with a fluid bassline. Another stunner is "Today," a funk-rock workout that starts with a slowly-woven tapestry of keyboard riffs before launching into a cosmic vocal section that underscores the group's choral harmonies with some fiery guitar leads. Although it lacks an overtly pop-flavored classic like "Can You Handle It?" or "Your Love," nothing on this album is less than interesting thanks to stellar arrangements and the group's obvious love for what they do -- the sunny energy that propels songs like the title track and "Got to Get Through It" is positively infectious. The result is a true gem that is a treat for funk fanatics and a required listen for anyone with a serious interest in Graham Central Station.
 
1975 - Ain't No 'Bout-A-Doubt It (WPCR-12916) {42:12}
Graham Central Station - Ain't No 'Bout-A-Doubt It
Треклист:
01. The Jam (Graham) - 8:15
02. Your Love (Graham) - 3:22
03. It's Alright (Graham) - 3:52
04. I Can't Stand the Rain (Bryant-Miller-Peebles) - 6:05
05. It Ain't Nothing But a Warner Bros. Party (Graham) - 6:04
06. Ole Smokey (Graham) - 3:18
07. Easy Rider (Graham) - 2:57
08. Water (Graham) - 4:31
09. Luckiest People (Graham) - 3:48
Состав:
Larry Graham - bass, synthesizer, drums, organ, clavinet, timpani, lead and backing vocals
Hershall "Happiness" Kennedy - clavinet, synthesizer, trumpet, vocals
Manuel "The Deacon" Kellough - drums
David "Dynamite" Vega - guitar, vocals
Robert "Butch" Sam - organ, piano, vocals
Patryce "Choc'Let" Banks - drum programming [Funk Box], vocals
 
Лог создания рипа
Exact Audio Copy V1.0 beta 3 from 29. August 2011
Отчёт EAC об извлечении, выполненном 5. февраля 2016, 19:54
Graham Central Station / Ain't No 'Bout-A-Doubt It
Дисковод: Optiarc DVD RW AD-7203S Adapter: 1 ID: 0
Режим чтения : Достоверность
Использование точного потока : Да
Отключение кэша аудио : Да
Использование указателей C2 : Нет
Коррекция смещения при чтении : 48
Способность читать области Lead-in и Lead-out : Нет
Заполнение пропущенных сэмплов тишиной : Да
Удаление блоков с тишиной в начале и конце : Нет
При вычислениях CRC использовались нулевые сэмплы : Да
Интерфейс : Встроенный Win32-интерфейс для Win NT/2000
Выходной формат : Пользовательский кодировщик
Выбранный битрейт : 128 kBit/s
Качество : Высокий
Добавление ID3-тега : Нет
Утилита сжатия : C:\Program Files (x86)\Exact Audio Copy\Flac\flac.exe
Дополнительные параметры : -V -8 -T "Date=%year%" -T "Genre=%genre%" %source%
TOC извлечённого CD
Трек | Старт | Длительность | Начальный сектор | Конечный сектор
---------------------------------------------------------------------
1 | 0:00.00 | 8:14.04 | 0 | 37053
2 | 8:14.04 | 3:21.18 | 37054 | 52146
3 | 11:35.22 | 3:51.38 | 52147 | 69509
4 | 15:26.60 | 6:03.73 | 69510 | 96807
5 | 21:30.58 | 6:03.35 | 96808 | 124067
6 | 27:34.18 | 3:17.52 | 124068 | 138894
7 | 30:51.70 | 2:56.72 | 138895 | 152166
8 | 33:48.67 | 4:30.41 | 152167 | 172457
9 | 38:19.33 | 3:47.60 | 172458 | 189542
Характеристики диапазона извлечения и сообщения об ошибках
Выбранный диапазон
Имя файла D:\Music\_Egor from PTZ_02\Graham Central Station\Graham Central Station - Ain't No 'Bout-A-Doubt It (1975)\Graham Central Station - Ain't No 'Bout-A-Doubt It (1975).wav
Пиковый уровень 100.0 %
Скорость извлечения 3.6 X
Качество диапазона 100.0 %
CRC теста 46B5AB25
CRC копии 46B5AB25
Копирование... OK
Ошибок не произошло
AccurateRip: сводка
Трек 1 : извлечено точно (доверие 1) [B561C3DB] (AR v2)
Трек 2 : извлечено точно (доверие 1) [52D2BAE2] (AR v2)
Трек 3 : извлечено точно (доверие 1) [2BF305A8] (AR v2)
Трек 4 : извлечено точно (доверие 1) [1069AF23] (AR v2)
Трек 5 : извлечено точно (доверие 1) [7935E0D2] (AR v2)
Трек 6 : извлечено точно (доверие 1) [2ADABCE6] (AR v2)
Трек 7 : извлечено точно (доверие 1) [3E941F88] (AR v2)
Трек 8 : извлечено точно (доверие 1) [2B1F61FA] (AR v2)
Трек 9 : извлечено точно (доверие 1) [24171C65] (AR v2)
Все треки извлечены точно
Конец отчёта
==== Контрольная сумма отчёта 6B09833AE06095F2B89A9CE1FEDF4D400128BAE6121569EAFDE3BEA5ACB6D597 ====
 
Содержание индексной карты (.CUE)
REM GENRE Funk
REM DATE 1975
REM DISCID 7A09DF09
REM COMMENT "ExactAudioCopy v1.0b3"
PERFORMER "Graham Central Station"
TITLE "Ain't No 'Bout-A-Doubt It"
FILE "Graham Central Station - Ain't No 'Bout-A-Doubt It.wav" WAVE
TRACK 01 AUDIO
TITLE "The Jam"
PERFORMER "Graham Central Station"
INDEX 01 00:00:00
TRACK 02 AUDIO
TITLE "Your Love"
PERFORMER "Graham Central Station"
INDEX 00 08:12:41
INDEX 01 08:14:04
TRACK 03 AUDIO
TITLE "It's Alright"
PERFORMER "Graham Central Station"
INDEX 00 11:34:73
INDEX 01 11:35:22
TRACK 04 AUDIO
TITLE "I Can't Stand the Rain"
PERFORMER "Graham Central Station"
INDEX 00 15:24:46
INDEX 01 15:26:60
TRACK 05 AUDIO
TITLE "It Ain't Nothing But a Warner Bros. Party"
PERFORMER "Graham Central Station"
INDEX 00 21:26:52
INDEX 01 21:30:58
TRACK 06 AUDIO
TITLE "Ole Smokey"
PERFORMER "Graham Central Station"
INDEX 00 27:33:28
INDEX 01 27:34:18
TRACK 07 AUDIO
TITLE "Easy Rider"
PERFORMER "Graham Central Station"
INDEX 00 30:51:06
INDEX 01 30:51:70
TRACK 08 AUDIO
TITLE "Water"
PERFORMER "Graham Central Station"
INDEX 01 33:48:67
TRACK 09 AUDIO
TITLE "Luckiest People"
PERFORMER "Graham Central Station"
INDEX 00 38:15:49
INDEX 01 38:19:33
 
Отчет CUETools
[CUETools log; Date: 06.02.2016 20:46:50; Version: 2.1.5]
[CTDB TOCID: _ONg3rMetN2lezzGLiq3f6E99Oc-] found.
Track | CTDB Status
1 | (1/1) Accurately ripped
2 | (1/1) Accurately ripped
3 | (1/1) Accurately ripped
4 | (1/1) Accurately ripped
5 | (1/1) Accurately ripped
6 | (1/1) Accurately ripped
7 | (1/1) Accurately ripped
8 | (1/1) Accurately ripped
9 | (1/1) Accurately ripped
[AccurateRip ID: 000fc1ca-0070856f-7a09df09] found.
Track [ CRC | V2 ] Status
01 [798a92ba|b561c3db] (0+1/1) Accurately ripped
02 [0205ba3b|52d2bae2] (0+1/1) Accurately ripped
03 [a5921e5b|2bf305a8] (0+1/1) Accurately ripped
04 [f7d8d74a|1069af23] (0+1/1) Accurately ripped
05 [28aade44|7935e0d2] (0+1/1) Accurately ripped
06 [bdc62b01|2adabce6] (0+1/1) Accurately ripped
07 [b2a830de|3e941f88] (0+1/1) Accurately ripped
08 [e24b93e9|2b1f61fa] (0+1/1) Accurately ripped
09 [b7f99a83|24171c65] (0+1/1) Accurately ripped
Track Peak [ CRC32 ] [W/O NULL] [ LOG ]
-- 100,0 [46B5AB25] [ADA4DBE3] CRC32
01 100,0 [7D2FA5D1] [B553B4C4]
02 100,0 [DFB49DC3] [6067BDAE]
03 100,0 [79BE5368] [955D6204]
04 100,0 [AB54FCE2] [8BF6A771]
05 100,0 [DCF370DC] [1A9B86B4]
06 100,0 [22130CD8] [6207357E]
07 100,0 [F0341C03] [0FEDF0FD]
08 100,0 [35A64411] [250C42BA]
09 100,0 [BC016E20] [59270872]
 
AllMusic Review by Donald A. Guarisco
On their third album, Graham Central Station created an album full of trademark infectious pop-soul grooves, but one that lacked the consistently strong work that defines a true classic. However, that doesn't mean that Ain't No 'Bout-A-Doubt It is less than listenable: in fact, it contains some of the group's finest songs. The album's all-time funk classic is the opening track "The Jam," a "Dance to the Music"-styled funk workout that intersperses a dazzling group groove with individual solos for each player. "Water" is another strong funk tune, an insistently rhythmic song that blends thump-popping basslines with backwards tape loops to create an intriguing blend of funk and psychedelia. Ain't No 'Bout-A-Doubt It also produced a number one R&B smash in "Your Love," which marries the group's talent for funky grooves to an old-fashioned love song with a melody that harkens back to doo wop. However, not everything on Ain't No 'Bout-A-Doubt It is as strong as these highlights: "It Ain't Nothing but a Warner Bros. Party" is a lightweight jam with throwaway lyrics, and the group's rote version of the Ann Peebles classic "I Can't Stand the Rain" fails to add anything memorable to the song. All in all, Ain't No 'Bout-A-Doubt It lacks the strong material to make it memorable, but its high points make it a worthwhile listen for funk enthusiasts.
 
1976 - Mirror (WPCR-12917) {38:09}
Graham Central Station - Mirror
Треклист:
01. Entrow (Graham) - 7:13
02. Love (Covers a Multitude of Sin) (Graham) - 4:10
03. Mirror (Graham) - 3:37
04. Do Yah (Graham) - 3:55
05. Save Me (Graham) - 5:21
06. I Got a Reason (Graham) - 3:47
07. Priscilla (Graham) - 3:17
08. Forever (Graham) - 6:49
Состав:
Larry Graham - bass, synthesizer, lead and backing vocals
Hershall "Happiness" Kennedy - clavinet, vocals
Gaylord "Flash" Birch - drums, vocals
David "Dynamite" Vega - guitar, vocals
Robert "Butch" Sam - organ, piano, vocals
Patryce "Choc'Let" Banks - drum programming [Funk Box], percussion, vocals
 
Лог создания рипа
Exact Audio Copy V1.0 beta 3 from 29. August 2011
Отчёт EAC об извлечении, выполненном 5. февраля 2016, 19:00
Graham Central Station / Mirror
Дисковод: Optiarc DVD RW AD-7203S Adapter: 1 ID: 0
Режим чтения : Достоверность
Использование точного потока : Да
Отключение кэша аудио : Да
Использование указателей C2 : Нет
Коррекция смещения при чтении : 48
Способность читать области Lead-in и Lead-out : Нет
Заполнение пропущенных сэмплов тишиной : Да
Удаление блоков с тишиной в начале и конце : Нет
При вычислениях CRC использовались нулевые сэмплы : Да
Интерфейс : Встроенный Win32-интерфейс для Win NT/2000
Выходной формат : Пользовательский кодировщик
Выбранный битрейт : 128 kBit/s
Качество : Высокий
Добавление ID3-тега : Нет
Утилита сжатия : C:\Program Files (x86)\Exact Audio Copy\Flac\flac.exe
Дополнительные параметры : -V -8 -T "Date=%year%" -T "Genre=%genre%" %source%
TOC извлечённого CD
Трек | Старт | Длительность | Начальный сектор | Конечный сектор
---------------------------------------------------------------------
1 | 0:00.00 | 7:11.44 | 0 | 32368
2 | 7:11.44 | 4:09.39 | 32369 | 51082
3 | 11:21.08 | 3:36.18 | 51083 | 67300
4 | 14:57.26 | 3:54.51 | 67301 | 84901
5 | 18:52.02 | 5:20.48 | 84902 | 108949
6 | 24:12.50 | 3:46.01 | 108950 | 125900
7 | 27:58.51 | 3:16.23 | 125901 | 140623
8 | 31:14.74 | 6:47.69 | 140624 | 171217
Характеристики диапазона извлечения и сообщения об ошибках
Выбранный диапазон
Имя файла D:\Music\_Egor from PTZ_02\Graham Central Station\Graham Central Station - Mirror (1976)\Graham Central Station - Mirror (1976).wav
Пиковый уровень 100.0 %
Скорость извлечения 3.5 X
Качество диапазона 100.0 %
CRC теста 70461588
CRC копии 70461588
Копирование... OK
Ошибок не произошло
AccurateRip: сводка
Трек 1 : извлечено точно (доверие 1) [E902B4ED] (AR v1)
Трек 2 : извлечено точно (доверие 1) [6A65240C] (AR v1)
Трек 3 : извлечено точно (доверие 1) [FB282E8A] (AR v1)
Трек 4 : извлечено точно (доверие 1) [86BBB120] (AR v1)
Трек 5 : извлечено точно (доверие 1) [7D647E32] (AR v1)
Трек 6 : извлечено точно (доверие 1) [407335E3] (AR v1)
Трек 7 : извлечено точно (доверие 1) [75A2EC00] (AR v1)
Трек 8 : извлечено точно (доверие 1) [F2D63085] (AR v1)
Все треки извлечены точно
Конец отчёта
==== Контрольная сумма отчёта 258FA82C0243250C456777E7C2D8544FB1BEEE31F5A00694255730CF0EA5E1E3 ====
 
Содержание индексной карты (.CUE)
REM GENRE Funk
REM DATE 1976
REM DISCID 7308EA08
REM COMMENT "ExactAudioCopy v1.0b3"
PERFORMER "Graham Central Station"
TITLE "Mirror"
FILE "Graham Central Station - Mirror.wav" WAVE
TRACK 01 AUDIO
TITLE "Entrow"
PERFORMER "Graham Central Station"
INDEX 01 00:00:00
TRACK 02 AUDIO
TITLE "Love (Covers a Multitude of Sin)"
PERFORMER "Graham Central Station"
INDEX 00 07:10:52
INDEX 01 07:11:44
TRACK 03 AUDIO
TITLE "Mirror"
PERFORMER "Graham Central Station"
INDEX 00 11:19:56
INDEX 01 11:21:08
TRACK 04 AUDIO
TITLE "Do Yah"
PERFORMER "Graham Central Station"
INDEX 00 14:56:18
INDEX 01 14:57:26
TRACK 05 AUDIO
TITLE "Save Me"
PERFORMER "Graham Central Station"
INDEX 00 18:50:66
INDEX 01 18:52:02
TRACK 06 AUDIO
TITLE "I Got a Reason"
PERFORMER "Graham Central Station"
INDEX 00 24:12:22
INDEX 01 24:12:50
TRACK 07 AUDIO
TITLE "Priscilla"
PERFORMER "Graham Central Station"
INDEX 00 27:58:06
INDEX 01 27:58:51
TRACK 08 AUDIO
TITLE "Forever"
PERFORMER "Graham Central Station"
INDEX 01 31:14:74
 
Отчет CUETools
[CUETools log; Date: 06.02.2016 20:47:14; Version: 2.1.5]
[CTDB TOCID: BQHfXb8EMllfmIppuEcEQfdVBWI-] disk not present in database.
[AccurateRip ID: 000bf00c-004e0357-7308ea08] found.
Track [ CRC | V2 ] Status
01 [e902b4ed|ae376bcf] (1+0/1) Accurately ripped
02 [6a65240c|00c5650f] (1+0/1) Accurately ripped
03 [fb282e8a|1a1e4497] (1+0/1) Accurately ripped
04 [86bbb120|01bd8cca] (1+0/1) Accurately ripped
05 [7d647e32|5ae0f072] (1+0/1) Accurately ripped
06 [407335e3|58cdc722] (1+0/1) Accurately ripped
07 [75a2ec00|86ed17b1] (1+0/1) Accurately ripped
08 [f2d63085|39fe053f] (1+0/1) Accurately ripped
Track Peak [ CRC32 ] [W/O NULL] [ LOG ]
-- 100,0 [70461588] [F1A56264] CRC32
01 100,0 [BFB0C0DC] [7202ABF2]
02 100,0 [8AA9721E] [E95AB961]
03 100,0 [76D568BB] [428A4ABB]
04 100,0 [3463B164] [92497248]
05 100,0 [434B5A8A] [1D4619D3]
06 100,0 [88605AE3] [E5567D60]
07 100,0 [B3492D4F] [5C81D38F]
08 100,0 [CCEC4EA2] [35D92813]
 
AllMusic Review by Craig Lytle
The irony to this album is that the group's music is funky as always, but its lyrical content has many gospel and religious overtones. Though the title track was not a featured release, its synth-propelled rhythm and stirring vocals blend well on this moderately uptempo number. The Top 20 single "Love" is arranged in a free-flowing, mellow tempo. It peaked at number 14 on the Billboard R&B charts. It was followed by the juiced-up funk track "Entrow." Supported by its unwavering beat, group members take turns on vocals and musical exhibitions. While "Save Me" has an aggressive disco groove, the lyric is religious as the title reflects. "I Got a Reason" and "Forever" have similar religious messages. With Larry Graham being the writer on every song on the album, it is highly likely that he was experiencing a transformation in his personal and professional life.
 
1978 - My Radio Sure Sounds Good to Me (WPCR-12919) {37:56}
Graham Central Station - My Radio Sure Sounds Good to Me
Треклист:
01. Pow (Graham) - 4:46
02. My Radio Sure Sounds Good to Me (Graham) - 4:01
03. Is It Love? (Graham) - 6:41
04. Boogie Witcha, Baby (Graham) - 3:49
05. It's the Engine in Me (Graham) - 5:21
06. Turn It Out (Graham) - 4:40
07. Mr. Friend (Graham) - 3:42
08. Are You Happy? (Graham) - 4:56
Состав:
Larry Graham - bass, lead and backing vocals, clavinet, guitar
Gaylord "Flash" Birch - drums
Gemi Taylor - guitar
Nate Ginsberg - keyboards
Robert "Butch" Sam - keyboards, backing vocals, organ, piano
Tina Graham - backing vocals
 
Лог создания рипа
Exact Audio Copy V1.0 beta 3 from 29. August 2011
Отчёт EAC об извлечении, выполненном 5. февраля 2016, 18:34
Graham Central Station / My Radio Sure Sounds Good To Me
Дисковод: Optiarc DVD RW AD-7203S Adapter: 1 ID: 0
Режим чтения : Достоверность
Использование точного потока : Да
Отключение кэша аудио : Да
Использование указателей C2 : Нет
Коррекция смещения при чтении : 48
Способность читать области Lead-in и Lead-out : Нет
Заполнение пропущенных сэмплов тишиной : Да
Удаление блоков с тишиной в начале и конце : Нет
При вычислениях CRC использовались нулевые сэмплы : Да
Интерфейс : Встроенный Win32-интерфейс для Win NT/2000
Выходной формат : Пользовательский кодировщик
Выбранный битрейт : 128 kBit/s
Качество : Высокий
Добавление ID3-тега : Нет
Утилита сжатия : C:\Program Files (x86)\Exact Audio Copy\Flac\flac.exe
Дополнительные параметры : -V -8 -T "Date=%year%" -T "Genre=%genre%" %source%
TOC извлечённого CD
Трек | Старт | Длительность | Начальный сектор | Конечный сектор
---------------------------------------------------------------------
1 | 0:00.00 | 4:45.11 | 0 | 21385
2 | 4:45.11 | 4:00.40 | 21386 | 39425
3 | 8:45.51 | 6:40.15 | 39426 | 69440
4 | 15:25.66 | 3:48.57 | 69441 | 86597
5 | 19:14.48 | 5:19.63 | 86598 | 110585
6 | 24:34.36 | 4:39.26 | 110586 | 131536
7 | 29:13.62 | 3:41.28 | 131537 | 148139
8 | 32:55.15 | 4:55.20 | 148140 | 170284
Характеристики диапазона извлечения и сообщения об ошибках
Выбранный диапазон
Имя файла D:\Music\_Egor from PTZ_02\Graham Central Station\Graham Central Station - My Radio Sure Sounds Good To Me (1978)\Graham Central Station - My Radio Sure Sounds Good To Me (1978).wav
Пиковый уровень 100.0 %
Скорость извлечения 3.5 X
Качество диапазона 100.0 %
CRC теста A9B2E496
CRC копии A9B2E496
Копирование... OK
Ошибок не произошло
AccurateRip: сводка
Трек 1 : извлечено точно (доверие 2) [0D74F7E7] (AR v1)
Трек 2 : извлечено точно (доверие 2) [B4E5D22A] (AR v1)
Трек 3 : извлечено точно (доверие 2) [1D19087E] (AR v1)
Трек 4 : извлечено точно (доверие 2) [595E215A] (AR v1)
Трек 5 : извлечено точно (доверие 2) [CAC76767] (AR v1)
Трек 6 : извлечено точно (доверие 2) [0B8BB933] (AR v1)
Трек 7 : извлечено точно (доверие 2) [C1DCE90B] (AR v1)
Трек 8 : извлечено точно (доверие 2) [837DBB41] (AR v1)
Все треки извлечены точно
Конец отчёта
==== Контрольная сумма отчёта 9A24FAFD504098F85B633CDD7F9A2FD51ABFB00871AA34749EA1CD3D805E33E2 ====
 
Содержание индексной карты (.CUE)
REM GENRE Funk
REM DATE 1978
REM DISCID 7C08DE08
REM COMMENT "ExactAudioCopy v1.0b3"
PERFORMER "Graham Central Station"
TITLE "My Radio Sure Sounds Good to Me"
FILE "Graham Central Station - My Radio Sure Sounds Good to Me.wav" WAVE
TRACK 01 AUDIO
TITLE "Pow"
PERFORMER "Graham Central Station"
INDEX 01 00:00:00
TRACK 02 AUDIO
TITLE "My Radio Sure Sounds Good to Me"
PERFORMER "Graham Central Station"
INDEX 00 04:43:69
INDEX 01 04:45:11
TRACK 03 AUDIO
TITLE "Is It Love?"
PERFORMER "Graham Central Station"
INDEX 00 08:44:15
INDEX 01 08:45:51
TRACK 04 AUDIO
TITLE "Boogie Witcha, Baby"
PERFORMER "Graham Central Station"
INDEX 00 15:24:52
INDEX 01 15:25:66
TRACK 05 AUDIO
TITLE "It's the Engine in Me"
PERFORMER "Graham Central Station"
INDEX 00 19:14:09
INDEX 01 19:14:48
TRACK 06 AUDIO
TITLE "Turn It Out"
PERFORMER "Graham Central Station"
INDEX 00 24:32:58
INDEX 01 24:34:36
TRACK 07 AUDIO
TITLE "Mr. Friend"
PERFORMER "Graham Central Station"
INDEX 00 29:11:57
INDEX 01 29:13:62
TRACK 08 AUDIO
TITLE "Are You Happy?"
PERFORMER "Graham Central Station"
INDEX 00 32:53:39
INDEX 01 32:55:15
 
Отчет CUETools
[CUETools log; Date: 06.02.2016 20:47:36; Version: 2.1.5]
[CTDB TOCID: NoM79SQPwHsJekmBjv02Sexgofs-] found.
Track | CTDB Status
1 | (1/1) Accurately ripped
2 | (1/1) Accurately ripped
3 | (1/1) Accurately ripped
4 | (1/1) Accurately ripped
5 | (1/1) Accurately ripped
6 | (1/1) Accurately ripped
7 | (1/1) Accurately ripped
8 | (1/1) Accurately ripped
[AccurateRip ID: 000bdcb7-004ef205-7c08de08] found.
Track [ CRC | V2 ] Status
01 [0d74f7e7|ee0a1b8e] (2+0/2) Accurately ripped
02 [b4e5d22a|289ca6cd] (2+0/2) Accurately ripped
03 [1d19087e|4e38dfa8] (2+0/2) Accurately ripped
04 [595e215a|accd06d8] (2+0/2) Accurately ripped
05 [cac76767|32b983c0] (2+0/2) Accurately ripped
06 [0b8bb933|bafde064] (2+0/2) Accurately ripped
07 [c1dce90b|8876ced1] (2+0/2) Accurately ripped
08 [837dbb41|a762fab0] (2+0/2) Accurately ripped
Track Peak [ CRC32 ] [W/O NULL] [ LOG ]
-- 100,0 [A9B2E496] [83C4516C] CRC32
01 100,0 [C97B34E6] [480267EC]
02 100,0 [14245A89] [5AE548AB]
03 100,0 [579D1EC5] [104D6AF5]
04 100,0 [01FEE6B2] [1C208BE7]
05 100,0 [A556A7EC] [3ED4CA48]
06 100,0 [7513F3E4] [F534179A]
07 100,0 [0C04C329] [B5064244]
08 100,0 [3C0569AC] [C4859EFE]
 
AllMusic Review by Alex Henderson
Benny Golson is hardly the first person one would expect to co-produce a funk/soul album. In the late '50s, the Philadelphian made a name for himself in the jazz world playing tenor sax alongside the likes of Lee Morgan and Curtis Fuller in Art Blakey's Jazz Messengers -- and his name continues to be synonymous with hard bop. But there isn't a trace of bop to be found on My Radio Sure Sounds Good to Me, a funk/soul LP that Golson produced with Larry Graham. This record marked the first time that Graham called his band Larry Graham & Graham Central Station (as opposed to simply Graham Central Station). But despite the name change and despite Golson's presence, Radio is state-of-the-art GCS -- gritty 1970s funk jams ("Pow," "Boogie Witcha, Baby," "It's the Engine in Me") are right at home with sentimental soul ballads ("Is It Love?") and gospel-influenced message songs ("Mr. Friend"). Golson handles most of the LP's horn and string arrangements, but his jazz background doesn't make its presence felt -- not even in a subtle way. Graham hired Golson to co-produce an R&B project, and he did what he was paid to do. My Radio Sure Sounds Good to Me isn't GCS' most essential album, but it's a solid effort that is easily recommended to anyone with a taste for gutsy, horn-powered 1970s funk.
Приватный:
Нет (DHT включён)
Размер:
1.39 Гб (1,489,873,346 байт) » файлов: 62
Участники:
38 раздают, 0 качают (38 участников всего)
Внешние участники:
9 раздают, 3 качают (12 участников всего) [ Обновить ]
No seeders - write a personal message to user M0p94ok. Нет сидеров - пишите личное сообщение пользователю M0p94ok.
09:56
109
Нет комментариев. Ваш будет первым!