Поиск

(Funk, Soul) [CD] Linda Tillery - Secrets (1985) - 1988, FLAC (tracks+.cue), lossless

(Funk, Soul) [CD] Linda Tillery - Secrets (1985) - 1988, FLAC (tracks+.cue), lossless
Треклист:
Linda Tillery - Secrets (1985) Жанр: Funk, Soul
Носитель: CD
Год издания: 1988
Издатель (лейбл): Timeless Records
Номер по каталогу: TLCD 9.00616
Аудиокодек: FLAC (*.flac)
Тип рипа: tracks+.cue
Битрейт аудио: lossless
Продолжительность: 34:32
Rip by JET 1
Наличие сканов в содержимом раздачи: да
Треклист:
01. Special Kind Of Love (4:44)
02. Secrets (4:35)
03. I Suppose (Bring Me To Your Love) (3:47)
04. I'm So Thankful (3:39)
05. Basin Street (5:08)
06. Count On Me (4:08)
07. The Chosen Ones (4:17)
08. Fever (4:14)
 
 
Лог создания рипа
Exact Audio Copy V1.0 beta 3 from 29. August 2011
EAC extraction logfile from 9. October 2014, 17:38
Linda Tillery / Secrets
Used drive : GENERIC CDRCB05 Adapter: 4 ID: 0
Read mode : Secure
Utilize accurate stream : Yes
Defeat audio cache : Yes
Make use of C2 pointers : No
Read offset correction : 102
Overread into Lead-In and Lead-Out : No
Fill up missing offset samples with silence : Yes
Delete leading and trailing silent blocks : No
Null samples used in CRC calculations : Yes
Used interface : Native Win32 interface for Win NT & 2000
Gap handling : Appended to previous track
Used output format : User Defined Encoder
Selected bitrate : 1024 kBit/s
Quality : High
Add ID3 tag : No
Command line compressor : C:\Program Files\FLAC\flac.exe
Additional command line options : -8 -V -T "ARTIST=%artist%" -T "TITLE=%title%" -T "ALBUM=%albumtitle%" -T "DATE=%year%" -T "TRACKNUMBER=%tracknr%" -T "GENRE=%genre%" -T "PERFORMER=%albuminterpret%" -T "COMPOSER=%composer%" %haslyrics%--tag-from-file=LYRICS="%lyricsfile%"%haslyrics% -T "ALBUMARTIST=%albumartist%" -T "DISCNUMBER=%cdnumber%" -T "TOTALDISCS=%totalcds%" -T "TOTALTRACKS=%numtracks%" -T "COMMENT=%comment%" %source% -o %dest%
TOC of the extracted CD
Track | Start | Length | Start sector | End sector
---------------------------------------------------------
1 | 0:00.00 | 4:44.32 | 0 | 21331
2 | 4:44.32 | 4:35.05 | 21332 | 41961
3 | 9:19.37 | 3:46.68 | 41962 | 58979
4 | 13:06.30 | 3:39.07 | 58980 | 75411
5 | 16:45.37 | 5:08.30 | 75412 | 98541
6 | 21:53.67 | 4:07.68 | 98542 | 117134
7 | 26:01.60 | 4:16.47 | 117135 | 136381
8 | 30:18.32 | 4:13.53 | 136382 | 155409
Track 1
Filename F:\0\!!!!!POST!!!!\Linda Tillery - Secrets (1985)\01 Special Kind Of Love.wav
Pre-gap length 0:00:02.00
Peak level 98.5 %
Extraction speed 2.4 X
Track quality 100.0 %
Test CRC 6BA68BB0
Copy CRC 6BA68BB0
Accurately ripped (confidence 1) [893A6A2E] (AR v1)
Copy OK
Track 2
Filename F:\0\!!!!!POST!!!!\Linda Tillery - Secrets (1985)\02 Secrets.wav
Peak level 100.0 %
Extraction speed 2.7 X
Track quality 100.0 %
Test CRC 681D2B5C
Copy CRC 681D2B5C
Accurately ripped (confidence 1) [905D15F3] (AR v1)
Copy OK
Track 3
Filename F:\0\!!!!!POST!!!!\Linda Tillery - Secrets (1985)\03 I Suppose (Bring Me To Your Love).wav
Pre-gap length 0:00:03.66
Peak level 100.0 %
Extraction speed 2.9 X
Track quality 100.0 %
Test CRC 33003D1C
Copy CRC 33003D1C
Accurately ripped (confidence 1) [0EC92A19] (AR v1)
Copy OK
Track 4
Filename F:\0\!!!!!POST!!!!\Linda Tillery - Secrets (1985)\04 I'm So Thankful.wav
Pre-gap length 0:00:02.24
Peak level 90.1 %
Extraction speed 2.7 X
Track quality 99.9 %
Test CRC 6531D0EB
Copy CRC 6531D0EB
Accurately ripped (confidence 1) [E0F2AD47] (AR v1)
Copy OK
Track 5
Filename F:\0\!!!!!POST!!!!\Linda Tillery - Secrets (1985)\05 Basin Street.wav
Pre-gap length 0:00:02.09
Peak level 80.8 %
Extraction speed 3.1 X
Track quality 99.9 %
Test CRC 7A533ACC
Copy CRC 7A533ACC
Accurately ripped (confidence 1) [27F21AD9] (AR v1)
Copy OK
Track 6
Filename F:\0\!!!!!POST!!!!\Linda Tillery - Secrets (1985)\06 Count On Me.wav
Peak level 100.0 %
Extraction speed 3.5 X
Track quality 100.0 %
Test CRC 28DE31A9
Copy CRC 28DE31A9
Accurately ripped (confidence 1) [7B47285C] (AR v1)
Copy OK
Track 7
Filename F:\0\!!!!!POST!!!!\Linda Tillery - Secrets (1985)\07 The Chosen Ones.wav
Peak level 76.1 %
Extraction speed 3.3 X
Track quality 99.9 %
Test CRC EA989E76
Copy CRC EA989E76
Accurately ripped (confidence 1) [4310981F] (AR v1)
Copy OK
Track 8
Filename F:\0\!!!!!POST!!!!\Linda Tillery - Secrets (1985)\08 Fever.wav
Pre-gap length 0:00:03.46
Peak level 68.0 %
Extraction speed 3.9 X
Track quality 100.0 %
Test CRC 5E11DD86
Copy CRC 5E11DD86
Accurately ripped (confidence 1) [A1740F28] (AR v1)
Copy OK
All tracks accurately ripped
No errors occurred
End of status report
==== Log checksum 9DED5EC4C3A24B8F82B7E95816416DCD1CE74656D26821101376CF387459C905 ====
 
Содержание индексной карты (.CUE)
REM GENRE Jazz
REM DATE 1985
REM DISCID 61081808
REM COMMENT "ExactAudioCopy v1.0b3"
CATALOG 0000000000000
PERFORMER "Linda Tillery"
TITLE "Secrets"
FILE "01 Special Kind Of Love.wav" WAVE
TRACK 01 AUDIO
TITLE "Special Kind Of Love"
PERFORMER "Linda Tillery"
INDEX 01 00:00:00
FILE "02 Secrets.wav" WAVE
TRACK 02 AUDIO
TITLE "Secrets"
PERFORMER "Linda Tillery"
INDEX 01 00:00:00
TRACK 03 AUDIO
TITLE "I Suppose (Bring Me To Your Love)"
PERFORMER "Linda Tillery"
INDEX 00 04:31:30
FILE "03 I Suppose (Bring Me To Your Love).wav" WAVE
INDEX 01 00:00:00
TRACK 04 AUDIO
TITLE "I'm So Thankful"
PERFORMER "Linda Tillery"
INDEX 00 03:44:50
FILE "04 I'm So Thankful.wav" WAVE
INDEX 01 00:00:00
TRACK 05 AUDIO
TITLE "Basin Street"
PERFORMER "Linda Tillery"
INDEX 00 03:37:00
FILE "05 Basin Street.wav" WAVE
INDEX 01 00:00:00
FILE "06 Count On Me.wav" WAVE
TRACK 06 AUDIO
TITLE "Count On Me"
PERFORMER "Linda Tillery"
INDEX 01 00:00:00
FILE "07 The Chosen Ones.wav" WAVE
TRACK 07 AUDIO
TITLE "The Chosen Ones"
PERFORMER "Linda Tillery"
INDEX 01 00:00:00
TRACK 08 AUDIO
TITLE "Fever"
PERFORMER "Linda Tillery"
INDEX 00 04:13:12
FILE "08 Fever.wav" WAVE
INDEX 01 00:00:00
Приватный:
Нет (DHT включён)
Размер:
310.03 Мб (325,088,952 байт) » файлов: 20
Участники:
0 раздают, 0 качают (0 участников всего)
Внешние участники:
2 раздают, 1 качают (3 участников всего) [ Обновить ]
Есть вопросы - пишите личное сообщение пользователю M0p94ok.
09:53
68
Нет комментариев. Ваш будет первым!