Поиск

(Soul, R&B) [CD] Teddy Pendergrass - The Real... Teddy Pendergrass (3CD) - 2014, FLAC (tracks+.cue), lossless

(Soul, R&B) [CD] Teddy Pendergrass - The Real... Teddy Pendergrass (3CD) - 2014, FLAC (tracks+.cue), lossless
Треклист:
Teddy Pendergrass - The Real... Teddy Pendergrass (3CD)

Жанр: Soul, R&B | Носитель: CD
Год издания: 2014 | Издатель (лейбл): Sony Music | Номер по каталогу: 88843049812
Аудиокодек: FLAC (*.flac) | Тип рипа: tracks+.cue | Битрейт аудио: lossless
Продолжительность: 03:24:52 | Источник (релизер): torzok
Наличие сканов в содержимом раздачи: да 
 
 
CD 1 (61:03)
Треклист:
01. The Love I Lost (6:24)
02. Satisfaction Guaranteed (Or Take Your Love Back) (3:29)
03. Be For Real (7:30)
04. If You Don't Know Me By Now (3:26)
05. Wake Up Everybody (7:32)
06. Don't Leave Me This Way (6:06)
07. You Can't Hide From Yourself (4:08)
08. Somebody Told Me (5:13)
09. The Whole Town's Laughing At Me (4:28)
10. I Don't Love You Anymore (3:59)
11. And If I Had (4:22)
12. The More I Get, The More I Want (4:26)
 
 
Лог создания рипа
Exact Audio Copy V1.3 from 2. September 2016
EAC extraction logfile from 6. July 2017, 17:20
Teddy Pendergrass / The Real... Teddy Pendergrass (CD1)
Used drive : HL-DT-STDVD+-RW GU90N Adapter: 1 ID: 0
Read mode : Secure
Utilize accurate stream : Yes
Defeat audio cache : Yes
Make use of C2 pointers : No
Read offset correction : 102
Overread into Lead-In and Lead-Out : No
Fill up missing offset samples with silence : Yes
Delete leading and trailing silent blocks : No
Null samples used in CRC calculations : Yes
Used interface : Installed external ASPI interface
Gap handling : Appended to previous track
Used output format : User Defined Encoder
Selected bitrate : 768 kBit/s
Quality : High
Add ID3 tag : No
Command line compressor : C:\Program Files (x86)\Exact Audio Copy\Flac\flac.exe
Additional command line options : -8 -V -T "ARTIST=%artist%" -T "TITLE=%title%" -T "ALBUM=%albumtitle%" -T "DATE=%year%" -T "TRACKNUMBER=%tracknr%" -T "GENRE=%genre%" -T "COMMENT=%comment%" -T "BAND=%albuminterpret%" -T "ALBUMARTIST=%albuminterpret%" -T "COMPOSER=%composer%" %haslyrics%--tag-from-file=LYRICS="%lyricsfile%"%haslyrics% -T "DISCNUMBER=%cdnumber%" -T "TOTALDISCS=%totalcds%" -T "TOTALTRACKS=%numtracks%" %hascover%--picture="%coverfile%"%hascover% %source% -o %dest%
TOC of the extracted CD
Track | Start | Length | Start sector | End sector
---------------------------------------------------------
1 | 0:00.00 | 6:23.52 | 0 | 28776
2 | 6:23.52 | 3:28.59 | 28777 | 44435
3 | 9:52.36 | 7:30.31 | 44436 | 78216
4 | 17:22.67 | 3:26.34 | 78217 | 93700
5 | 20:49.26 | 7:31.69 | 93701 | 127594
6 | 28:21.20 | 6:06.20 | 127595 | 155064
7 | 34:27.40 | 4:07.40 | 155065 | 173629
8 | 38:35.05 | 5:12.67 | 173630 | 197096
9 | 43:47.72 | 4:27.65 | 197097 | 217186
10 | 48:15.62 | 3:59.37 | 217187 | 235148
11 | 52:15.24 | 4:22.06 | 235149 | 254804
12 | 56:37.30 | 4:25.69 | 254805 | 274748
Track 1
Filename C:\Program Files (x86)\Exact Audio Copy\Flac\01. The Love I Lost.wav
Pre-gap length 0:00:02.00
Peak level 99.9 %
Extraction speed 1.6 X
Track quality 100.0 %
Test CRC 80D1D3DE
Copy CRC 80D1D3DE
Accurately ripped (confidence 2) [BBE51A33] (AR v2)
Copy OK
Track 2
Filename C:\Program Files (x86)\Exact Audio Copy\Flac\02. Satisfaction Guaranteed (Or Take Your Love Back).wav
Pre-gap length 0:00:00.18
Peak level 99.8 %
Extraction speed 2.6 X
Track quality 99.9 %
Test CRC 1DB37F11
Copy CRC 1DB37F11
Accurately ripped (confidence 2) [845F9839] (AR v2)
Copy OK
Track 3
Filename C:\Program Files (x86)\Exact Audio Copy\Flac\03. Be For Real.wav
Pre-gap length 0:00:01.58
Peak level 63.6 %
Extraction speed 3.8 X
Track quality 100.0 %
Test CRC 0B83E19E
Copy CRC 0B83E19E
Accurately ripped (confidence 2) [60EDA4AA] (AR v2)
Copy OK
Track 4
Filename C:\Program Files (x86)\Exact Audio Copy\Flac\04. If You Don't Know Me By Now.wav
Pre-gap length 0:00:00.43
Peak level 94.1 %
Extraction speed 3.0 X
Track quality 99.9 %
Test CRC AA01A8D0
Copy CRC AA01A8D0
Accurately ripped (confidence 2) [B50602E1] (AR v2)
Copy OK
Track 5
Filename C:\Program Files (x86)\Exact Audio Copy\Flac\05. Wake Up Everybody.wav
Pre-gap length 0:00:00.37
Peak level 79.0 %
Extraction speed 4.4 X
Track quality 100.0 %
Test CRC 13B4694F
Copy CRC 13B4694F
Accurately ripped (confidence 2) [CFCF66BD] (AR v2)
Copy OK
Track 6
Filename C:\Program Files (x86)\Exact Audio Copy\Flac\06. Don't Leave Me This Way.wav
Pre-gap length 0:00:01.58
Peak level 94.1 %
Extraction speed 4.5 X
Track quality 100.0 %
Test CRC 0759D62D
Copy CRC 0759D62D
Accurately ripped (confidence 2) [2022D503] (AR v2)
Copy OK
Track 7
Filename C:\Program Files (x86)\Exact Audio Copy\Flac\07. You Can't Hide From Yourself.wav
Pre-gap length 0:00:01.58
Peak level 86.2 %
Extraction speed 4.5 X
Track quality 100.0 %
Test CRC 2458518A
Copy CRC 2458518A
Accurately ripped (confidence 2) [FC49269C] (AR v2)
Copy OK
Track 8
Filename C:\Program Files (x86)\Exact Audio Copy\Flac\08. Somebody Told Me.wav
Pre-gap length 0:00:01.58
Peak level 99.9 %
Extraction speed 4.8 X
Track quality 100.0 %
Test CRC 744945A7
Copy CRC 744945A7
Accurately ripped (confidence 2) [19D9B06C] (AR v2)
Copy OK
Track 9
Filename C:\Program Files (x86)\Exact Audio Copy\Flac\09. The Whole Town's Laughing At Me.wav
Pre-gap length 0:00:00.49
Peak level 95.8 %
Extraction speed 4.6 X
Track quality 100.0 %
Test CRC 1F8CA9CC
Copy CRC 1F8CA9CC
Accurately ripped (confidence 2) [D74AACBB] (AR v2)
Copy OK
Track 10
Filename C:\Program Files (x86)\Exact Audio Copy\Flac\10. I Don't Love You Anymore.wav
Pre-gap length 0:00:00.56
Peak level 86.2 %
Extraction speed 4.8 X
Track quality 100.0 %
Test CRC 52620623
Copy CRC 52620623
Accurately ripped (confidence 2) [E91F512C] (AR v2)
Copy OK
Track 11
Filename C:\Program Files (x86)\Exact Audio Copy\Flac\11. And If I Had.wav
Pre-gap length 0:00:01.58
Peak level 94.1 %
Extraction speed 5.0 X
Track quality 100.0 %
Test CRC 547174D1
Copy CRC 547174D1
Accurately ripped (confidence 2) [B4929882] (AR v2)
Copy OK
Track 12
Filename C:\Program Files (x86)\Exact Audio Copy\Flac\12. The More I Get, The More I Want.wav
Pre-gap length 0:00:01.58
Peak level 99.9 %
Extraction speed 4.3 X
Track quality 99.9 %
Test CRC 085367F4
Copy CRC 085367F4
Accurately ripped (confidence 2) [73985C41] (AR v2)
Copy OK
All tracks accurately ripped
No errors occurred
End of status report
---- CUETools DB Plugin V2.1.6
[CTDB TOCID: QJJhC497JhYq0bf3FTchM6gi3.g-] found
Submit result: QJJhC497JhYq0bf3FTchM6gi3.g- has been confirmed
Track | CTDB Status
1 | (3/3) Accurately ripped
2 | (3/3) Accurately ripped
3 | (3/3) Accurately ripped
4 | (3/3) Accurately ripped
5 | (3/3) Accurately ripped
6 | (3/3) Accurately ripped
7 | (3/3) Accurately ripped
8 | (3/3) Accurately ripped
9 | (3/3) Accurately ripped
10 | (3/3) Accurately ripped
11 | (3/3) Accurately ripped
12 | (3/3) Accurately ripped
==== Log checksum BC33DFD1355B9D1C33EED5DEE6CB319556E3022C5409E33C08C28AEB1CCCDD57 ====
 
Содержание индексной карты (.CUE)
REM GENRE Funk
REM DATE 2014
REM DISCID B20E4F0C
REM COMMENT "ExactAudioCopy v1.3"
PERFORMER "Teddy Pendergrass"
TITLE "The Real... Teddy Pendergrass (CD1)"
REM COMPOSER ""
FILE "01. The Love I Lost.wav" WAVE
TRACK 01 AUDIO
TITLE "The Love I Lost"
PERFORMER "Teddy Pendergrass"
REM COMPOSER ""
INDEX 01 00:00:00
TRACK 02 AUDIO
TITLE "Satisfaction Guaranteed (Or Take Your Love Back)"
PERFORMER "Teddy Pendergrass"
REM COMPOSER ""
INDEX 00 06:23:34
FILE "02. Satisfaction Guaranteed (Or Take Your Love Back).wav" WAVE
INDEX 01 00:00:00
TRACK 03 AUDIO
TITLE "Be For Real"
PERFORMER "Teddy Pendergrass"
REM COMPOSER ""
INDEX 00 03:27:01
FILE "03. Be For Real.wav" WAVE
INDEX 01 00:00:00
TRACK 04 AUDIO
TITLE "If You Don't Know Me By Now"
PERFORMER "Teddy Pendergrass"
REM COMPOSER ""
INDEX 00 07:29:63
FILE "04. If You Don't Know Me By Now.wav" WAVE
INDEX 01 00:00:00
TRACK 05 AUDIO
TITLE "Wake Up Everybody"
PERFORMER "Teddy Pendergrass"
REM COMPOSER ""
INDEX 00 03:25:72
FILE "05. Wake Up Everybody.wav" WAVE
INDEX 01 00:00:00
TRACK 06 AUDIO
TITLE "Don't Leave Me This Way"
PERFORMER "Teddy Pendergrass"
REM COMPOSER ""
INDEX 00 07:30:11
FILE "06. Don't Leave Me This Way.wav" WAVE
INDEX 01 00:00:00
TRACK 07 AUDIO
TITLE "You Can't Hide From Yourself"
PERFORMER "Teddy Pendergrass"
REM COMPOSER ""
INDEX 00 06:04:37
FILE "07. You Can't Hide From Yourself.wav" WAVE
INDEX 01 00:00:00
TRACK 08 AUDIO
TITLE "Somebody Told Me"
PERFORMER "Teddy Pendergrass"
REM COMPOSER ""
INDEX 00 04:05:57
FILE "08. Somebody Told Me.wav" WAVE
INDEX 01 00:00:00
TRACK 09 AUDIO
TITLE "The Whole Town's Laughing At Me"
PERFORMER "Teddy Pendergrass"
REM COMPOSER ""
INDEX 00 05:12:18
FILE "09. The Whole Town's Laughing At Me.wav" WAVE
INDEX 01 00:00:00
TRACK 10 AUDIO
TITLE "I Don't Love You Anymore"
PERFORMER "Teddy Pendergrass"
REM COMPOSER ""
INDEX 00 04:27:09
FILE "10. I Don't Love You Anymore.wav" WAVE
INDEX 01 00:00:00
TRACK 11 AUDIO
TITLE "And If I Had"
PERFORMER "Teddy Pendergrass"
REM COMPOSER ""
INDEX 00 03:57:54
FILE "11. And If I Had.wav" WAVE
INDEX 01 00:00:00
TRACK 12 AUDIO
TITLE "The More I Get, The More I Want"
PERFORMER "Teddy Pendergrass"
REM COMPOSER ""
INDEX 00 04:20:23
FILE "12. The More I Get, The More I Want.wav" WAVE
INDEX 01 00:00:00
 
CD 2 (73:18)
Треклист:
01. Close The Door (5:27)
02. Get Up, Get Down, Get Funky, Get Loose (5:24)
03. Cold, Cold World (4:34)
04. It Don't Hurt Now (6:01)
05. Life Is A Song Worth Singing (4:11)
06. Only You (5:05)
07. When Somebody Loves You Back (4:57)
08. Come Go With Me (5:48)
09. Do Me (4:39)
10. Turn Off The Light (5:55)
11. If You Know Like I Know (5:03)
12. I'll Never See Heaven Again (4:43)
13. Shout And Scream (Live) (5:57)
14. It's You Love (5:34)
 
 
Лог создания рипа
Exact Audio Copy V1.3 from 2. September 2016
EAC extraction logfile from 6. July 2017, 18:10
Teddy Pendergrass / The Real... Teddy Pendergrass (CD2)
Used drive : TSSTcorpCDDVDW SE-208AB Adapter: 2 ID: 0
Read mode : Secure
Utilize accurate stream : Yes
Defeat audio cache : Yes
Make use of C2 pointers : No
Read offset correction : 6
Overread into Lead-In and Lead-Out : No
Fill up missing offset samples with silence : Yes
Delete leading and trailing silent blocks : No
Null samples used in CRC calculations : Yes
Used interface : Installed external ASPI interface
Gap handling : Appended to previous track
Used output format : User Defined Encoder
Selected bitrate : 768 kBit/s
Quality : High
Add ID3 tag : No
Command line compressor : C:\Program Files (x86)\Exact Audio Copy\Flac\flac.exe
Additional command line options : -8 -V -T "ARTIST=%artist%" -T "TITLE=%title%" -T "ALBUM=%albumtitle%" -T "DATE=%year%" -T "TRACKNUMBER=%tracknr%" -T "GENRE=%genre%" -T "COMMENT=%comment%" -T "BAND=%albuminterpret%" -T "ALBUMARTIST=%albuminterpret%" -T "COMPOSER=%composer%" %haslyrics%--tag-from-file=LYRICS="%lyricsfile%"%haslyrics% -T "DISCNUMBER=%cdnumber%" -T "TOTALDISCS=%totalcds%" -T "TOTALTRACKS=%numtracks%" %hascover%--picture="%coverfile%"%hascover% %source% -o %dest%
TOC of the extracted CD
Track | Start | Length | Start sector | End sector
---------------------------------------------------------
1 | 0:00.00 | 5:26.61 | 0 | 24510
2 | 5:26.61 | 5:24.03 | 24511 | 48813
3 | 10:50.64 | 4:33.65 | 48814 | 69353
4 | 15:24.54 | 6:00.44 | 69354 | 96397
5 | 21:25.23 | 4:11.29 | 96398 | 115251
6 | 25:36.52 | 5:04.45 | 115252 | 138096
7 | 30:41.22 | 4:57.16 | 138097 | 160387
8 | 35:38.38 | 5:47.39 | 160388 | 186451
9 | 41:26.02 | 4:39.10 | 186452 | 207386
10 | 46:05.12 | 5:55.23 | 207387 | 234034
11 | 52:00.35 | 5:03.20 | 234035 | 256779
12 | 57:03.55 | 4:43.31 | 256780 | 278035
13 | 61:47.11 | 5:56.50 | 278036 | 304785
14 | 67:43.61 | 5:33.63 | 304786 | 329823
Track 1
Filename C:\Program Files (x86)\Exact Audio Copy\Flac\01. Close The Door.wav
Pre-gap length 0:00:02.00
Peak level 99.8 %
Extraction speed 3.0 X
Track quality 100.0 %
Test CRC FCE4F796
Copy CRC FCE4F796
Accurately ripped (confidence 2) [51EA0E8C] (AR v2)
Copy OK
Track 2
Filename C:\Program Files (x86)\Exact Audio Copy\Flac\02. Get Up, Get Down, Get Funky, Get Loose.wav
Peak level 89.9 %
Extraction speed 2.9 X
Track quality 99.9 %
Test CRC 81633D66
Copy CRC 81633D66
Accurately ripped (confidence 2) [96C21CAA] (AR v2)
Copy OK
Track 3
Filename C:\Program Files (x86)\Exact Audio Copy\Flac\03. Cold, Cold World.wav
Peak level 99.6 %
Extraction speed 3.0 X
Track quality 99.9 %
Test CRC DDED4E6B
Copy CRC DDED4E6B
Accurately ripped (confidence 2) [F9121C3A] (AR v2)
Copy OK
Track 4
Filename C:\Program Files (x86)\Exact Audio Copy\Flac\04. It Don't Hurt Now.wav
Pre-gap length 0:00:00.16
Peak level 99.8 %
Extraction speed 3.9 X
Track quality 100.0 %
Test CRC D56C5E4E
Copy CRC D56C5E4E
Accurately ripped (confidence 2) [74286490] (AR v2)
Copy OK
Track 5
Filename C:\Program Files (x86)\Exact Audio Copy\Flac\05. Life Is A Song Worth Singing.wav
Pre-gap length 0:00:00.13
Peak level 90.0 %
Extraction speed 4.1 X
Track quality 100.0 %
Test CRC 3AA25742
Copy CRC 3AA25742
Accurately ripped (confidence 2) [0C371915] (AR v2)
Copy OK
Track 6
Filename C:\Program Files (x86)\Exact Audio Copy\Flac\06. Only You.wav
Pre-gap length 0:00:00.07
Peak level 93.7 %
Extraction speed 4.3 X
Track quality 100.0 %
Test CRC 96A7638C
Copy CRC 96A7638C
Accurately ripped (confidence 2) [17767055] (AR v2)
Copy OK
Track 7
Filename C:\Program Files (x86)\Exact Audio Copy\Flac\07. When Somebody Loves You Back.wav
Pre-gap length 0:00:00.46
Peak level 94.0 %
Extraction speed 4.5 X
Track quality 100.0 %
Test CRC D6395093
Copy CRC D6395093
Accurately ripped (confidence 2) [0EAEDFCF] (AR v2)
Copy OK
Track 8
Filename C:\Program Files (x86)\Exact Audio Copy\Flac\08. Come Go With Me.wav
Pre-gap length 0:00:00.46
Peak level 97.0 %
Extraction speed 4.8 X
Track quality 100.0 %
Test CRC 63700B37
Copy CRC 63700B37
Accurately ripped (confidence 2) [CE43176B] (AR v2)
Copy OK
Track 9
Filename C:\Program Files (x86)\Exact Audio Copy\Flac\09. Do Me.wav
Pre-gap length 0:00:00.13
Peak level 82.9 %
Extraction speed 4.9 X
Track quality 100.0 %
Test CRC 940D639C
Copy CRC 940D639C
Accurately ripped (confidence 2) [577254CA] (AR v2)
Copy OK
Track 10
Filename C:\Program Files (x86)\Exact Audio Copy\Flac\10. Turn Off The Light.wav
Pre-gap length 0:00:00.65
Peak level 93.9 %
Extraction speed 5.2 X
Track quality 100.0 %
Test CRC D6DE8460
Copy CRC D6DE8460
Accurately ripped (confidence 2) [6C7F10AE] (AR v2)
Copy OK
Track 11
Filename C:\Program Files (x86)\Exact Audio Copy\Flac\11. If You Know Like I Know.wav
Peak level 99.9 %
Extraction speed 5.3 X
Track quality 100.0 %
Test CRC DD6435A9
Copy CRC DD6435A9
Accurately ripped (confidence 2) [B9A9E63B] (AR v2)
Copy OK
Track 12
Filename C:\Program Files (x86)\Exact Audio Copy\Flac\12. I'll Never See Heaven Again.wav
Pre-gap length 0:00:00.04
Peak level 94.6 %
Extraction speed 5.4 X
Track quality 100.0 %
Test CRC D0F1A449
Copy CRC D0F1A449
Accurately ripped (confidence 2) [C28058BB] (AR v2)
Copy OK
Track 13
Filename C:\Program Files (x86)\Exact Audio Copy\Flac\13. Shout And Scream (Live).wav
Peak level 99.9 %
Extraction speed 5.7 X
Track quality 100.0 %
Test CRC 61C00212
Copy CRC 61C00212
Accurately ripped (confidence 2) [652D1A82] (AR v2)
Copy OK
Track 14
Filename C:\Program Files (x86)\Exact Audio Copy\Flac\14. It's You Love.wav
Pre-gap length 0:00:00.13
Peak level 99.9 %
Extraction speed 5.7 X
Track quality 100.0 %
Test CRC D81306C3
Copy CRC D81306C3
Accurately ripped (confidence 2) [BCA97D8B] (AR v2)
Copy OK
All tracks accurately ripped
No errors occurred
End of status report
---- CUETools DB Plugin V2.1.6
[CTDB TOCID: 7XIqEOHJ1I_dbZnZe9BpWtN5aks-] found
Submit result: 7XIqEOHJ1I_dbZnZe9BpWtN5aks- has been confirmed
Track | CTDB Status
1 | (3/3) Accurately ripped
2 | (3/3) Accurately ripped
3 | (3/3) Accurately ripped
4 | (3/3) Accurately ripped
5 | (3/3) Accurately ripped
6 | (3/3) Accurately ripped
7 | (3/3) Accurately ripped
8 | (3/3) Accurately ripped
9 | (3/3) Accurately ripped
10 | (3/3) Accurately ripped
11 | (3/3) Accurately ripped
12 | (3/3) Accurately ripped
13 | (3/3) Accurately ripped
14 | (3/3) Accurately ripped
==== Log checksum 99AA268F98A4A830181B1446333F8BF6F8EE711DDEEDF0333FB5C1A8DDFFAF84 ====
 
Содержание индексной карты (.CUE)
REM GENRE Funk
REM DATE 2014
REM DISCID CB112D0E
REM COMMENT "ExactAudioCopy v1.3"
PERFORMER "Teddy Pendergrass"
TITLE "The Real... Teddy Pendergrass (CD2)"
REM COMPOSER ""
FILE "01. Close The Door.wav" WAVE
TRACK 01 AUDIO
TITLE "Close The Door"
PERFORMER "Teddy Pendergrass"
REM COMPOSER ""
INDEX 01 00:00:00
FILE "02. Get Up, Get Down, Get Funky, Get Loose.wav" WAVE
TRACK 02 AUDIO
TITLE "Get Up, Get Down, Get Funky, Get Loose"
PERFORMER "Teddy Pendergrass"
REM COMPOSER ""
INDEX 01 00:00:00
FILE "03. Cold, Cold World.wav" WAVE
TRACK 03 AUDIO
TITLE "Cold, Cold World"
PERFORMER "Teddy Pendergrass"
REM COMPOSER ""
INDEX 01 00:00:00
TRACK 04 AUDIO
TITLE "It Don't Hurt Now"
PERFORMER "Teddy Pendergrass"
REM COMPOSER ""
INDEX 00 04:33:49
FILE "04. It Don't Hurt Now.wav" WAVE
INDEX 01 00:00:00
TRACK 05 AUDIO
TITLE "Life Is A Song Worth Singing"
PERFORMER "Teddy Pendergrass"
REM COMPOSER ""
INDEX 00 06:00:31
FILE "05. Life Is A Song Worth Singing.wav" WAVE
INDEX 01 00:00:00
TRACK 06 AUDIO
TITLE "Only You"
PERFORMER "Teddy Pendergrass"
REM COMPOSER ""
INDEX 00 04:11:22
FILE "06. Only You.wav" WAVE
INDEX 01 00:00:00
TRACK 07 AUDIO
TITLE "When Somebody Loves You Back"
PERFORMER "Teddy Pendergrass"
REM COMPOSER ""
INDEX 00 05:03:74
FILE "07. When Somebody Loves You Back.wav" WAVE
INDEX 01 00:00:00
TRACK 08 AUDIO
TITLE "Come Go With Me"
PERFORMER "Teddy Pendergrass"
REM COMPOSER ""
INDEX 00 04:56:45
FILE "08. Come Go With Me.wav" WAVE
INDEX 01 00:00:00
TRACK 09 AUDIO
TITLE "Do Me"
PERFORMER "Teddy Pendergrass"
REM COMPOSER ""
INDEX 00 05:47:26
FILE "09. Do Me.wav" WAVE
INDEX 01 00:00:00
TRACK 10 AUDIO
TITLE "Turn Off The Light"
PERFORMER "Teddy Pendergrass"
REM COMPOSER ""
INDEX 00 04:38:20
FILE "10. Turn Off The Light.wav" WAVE
INDEX 01 00:00:00
FILE "11. If You Know Like I Know.wav" WAVE
TRACK 11 AUDIO
TITLE "If You Know Like I Know"
PERFORMER "Teddy Pendergrass"
REM COMPOSER ""
INDEX 01 00:00:00
TRACK 12 AUDIO
TITLE "I'll Never See Heaven Again"
PERFORMER "Teddy Pendergrass"
REM COMPOSER ""
INDEX 00 05:03:16
FILE "12. I'll Never See Heaven Again.wav" WAVE
INDEX 01 00:00:00
FILE "13. Shout And Scream (Live).wav" WAVE
TRACK 13 AUDIO
TITLE "Shout And Scream (Live)"
PERFORMER "Teddy Pendergrass"
REM COMPOSER ""
INDEX 01 00:00:00
TRACK 14 AUDIO
TITLE "It's You Love"
PERFORMER "Teddy Pendergrass"
REM COMPOSER ""
INDEX 00 05:56:37
FILE "14. It's You Love.wav" WAVE
INDEX 01 00:00:00
 
CD 3 (70:31)
Треклист:
01. Can't We Try (5:06)
02. Love T.K.O. (5:01)
03. Feel The Fire (5:32)
04. Is It Still Good To Ya (4:37)
05. You're My Latest, My Greatest Inspiration (5:23)
06. I Can't Live Without Your Love (3:01)
07. Nine Times out Of Ten (4:11)
08. It's Time For Love (5:58)
09. I Can't Leave Your Love Alone (4:41)
10. I Can't Win For Losing (4:13)
11. This One's For You (6:20)
12. This Gift Of Life (4:27)
13. Crazy About Your Love (3:51)
14. I Want My Baby Back (3:59)
15. Heaven Only Knows (4:11)
 
 
Лог создания рипа
Exact Audio Copy V1.3 from 2. September 2016
EAC extraction logfile from 6. July 2017, 19:02
Teddy Pendergrass / The Real... Teddy Pendergrass (CD3)
Used drive : TSSTcorpCDDVDW SE-208AB Adapter: 2 ID: 0
Read mode : Secure
Utilize accurate stream : Yes
Defeat audio cache : Yes
Make use of C2 pointers : No
Read offset correction : 6
Overread into Lead-In and Lead-Out : No
Fill up missing offset samples with silence : Yes
Delete leading and trailing silent blocks : No
Null samples used in CRC calculations : Yes
Used interface : Installed external ASPI interface
Gap handling : Appended to previous track
Used output format : User Defined Encoder
Selected bitrate : 768 kBit/s
Quality : High
Add ID3 tag : No
Command line compressor : C:\Program Files (x86)\Exact Audio Copy\Flac\flac.exe
Additional command line options : -8 -V -T "ARTIST=%artist%" -T "TITLE=%title%" -T "ALBUM=%albumtitle%" -T "DATE=%year%" -T "TRACKNUMBER=%tracknr%" -T "GENRE=%genre%" -T "COMMENT=%comment%" -T "BAND=%albuminterpret%" -T "ALBUMARTIST=%albuminterpret%" -T "COMPOSER=%composer%" %haslyrics%--tag-from-file=LYRICS="%lyricsfile%"%haslyrics% -T "DISCNUMBER=%cdnumber%" -T "TOTALDISCS=%totalcds%" -T "TOTALTRACKS=%numtracks%" %hascover%--picture="%coverfile%"%hascover% %source% -o %dest%
TOC of the extracted CD
Track | Start | Length | Start sector | End sector
---------------------------------------------------------
1 | 0:00.00 | 5:05.65 | 0 | 22939
2 | 5:05.65 | 5:00.74 | 22940 | 45513
3 | 10:06.64 | 5:31.70 | 45514 | 70408
4 | 15:38.59 | 4:36.69 | 70409 | 91177
5 | 20:15.53 | 5:23.04 | 91178 | 115406
6 | 25:38.57 | 3:00.72 | 115407 | 128978
7 | 28:39.54 | 4:10.74 | 128979 | 147802
8 | 32:50.53 | 5:58.06 | 147803 | 174658
9 | 38:48.59 | 4:41.01 | 174659 | 195734
10 | 43:29.60 | 4:12.59 | 195735 | 214693
11 | 47:42.44 | 6:20.21 | 214694 | 243214
12 | 54:02.65 | 4:26.45 | 243215 | 263209
13 | 58:29.35 | 3:51.16 | 263210 | 280550
14 | 62:20.51 | 3:59.36 | 280551 | 298511
15 | 66:20.12 | 4:11.21 | 298512 | 317357
Track 1
Filename C:\Program Files (x86)\Exact Audio Copy\Flac\01. Can't We Try.wav
Pre-gap length 0:00:02.00
Peak level 98.2 %
Extraction speed 3.0 X
Track quality 100.0 %
Test CRC A3040651
Copy CRC A3040651
Accurately ripped (confidence 2) [C9E4E8C1] (AR v2)
Copy OK
Track 2
Filename C:\Program Files (x86)\Exact Audio Copy\Flac\02. Love T.K.O..wav
Pre-gap length 0:00:00.73
Peak level 99.9 %
Extraction speed 3.3 X
Track quality 100.0 %
Test CRC 0206E1EA
Copy CRC 0206E1EA
Accurately ripped (confidence 2) [74DC4BFA] (AR v2)
Copy OK
Track 3
Filename C:\Program Files (x86)\Exact Audio Copy\Flac\03. Feel The Fire.wav
Pre-gap length 0:00:01.58
Peak level 85.3 %
Extraction speed 3.7 X
Track quality 100.0 %
Test CRC 646F4A41
Copy CRC 646F4A41
Accurately ripped (confidence 2) [DEAF1982] (AR v2)
Copy OK
Track 4
Filename C:\Program Files (x86)\Exact Audio Copy\Flac\04. Is It Still Good To Ya.wav
Pre-gap length 0:00:01.13
Peak level 99.9 %
Extraction speed 3.8 X
Track quality 100.0 %
Test CRC 225B6232
Copy CRC 225B6232
Accurately ripped (confidence 2) [768784A0] (AR v2)
Copy OK
Track 5
Filename C:\Program Files (x86)\Exact Audio Copy\Flac\05. You're My Latest, My Greatest Inspiration.wav
Pre-gap length 0:00:00.73
Peak level 99.9 %
Extraction speed 3.5 X
Track quality 99.9 %
Test CRC 5C3ABF48
Copy CRC 5C3ABF48
Accurately ripped (confidence 2) [909C6AC9] (AR v2)
Copy OK
Track 6
Filename C:\Program Files (x86)\Exact Audio Copy\Flac\06. I Can't Live Without Your Love.wav
Pre-gap length 0:00:01.58
Peak level 99.9 %
Extraction speed 4.0 X
Track quality 100.0 %
Test CRC 1F499CD8
Copy CRC 1F499CD8
Accurately ripped (confidence 2) [844D3C49] (AR v2)
Copy OK
Track 7
Filename C:\Program Files (x86)\Exact Audio Copy\Flac\07. Nine Times out Of Ten.wav
Pre-gap length 0:00:00.22
Peak level 100.0 %
Extraction speed 3.6 X
Track quality 99.9 %
Test CRC 53CD5D55
Copy CRC 53CD5D55
Accurately ripped (confidence 2) [711E936F] (AR v2)
Copy OK
Track 8
Filename C:\Program Files (x86)\Exact Audio Copy\Flac\08. It's Time For Love.wav
Pre-gap length 0:00:01.04
Peak level 93.9 %
Extraction speed 4.8 X
Track quality 100.0 %
Test CRC 70B0CE74
Copy CRC 70B0CE74
Accurately ripped (confidence 2) [FDEC4688] (AR v2)
Copy OK
Track 9
Filename C:\Program Files (x86)\Exact Audio Copy\Flac\09. I Can't Leave Your Love Alone.wav
Pre-gap length 0:00:00.35
Peak level 99.9 %
Extraction speed 4.8 X
Track quality 100.0 %
Test CRC 7EF644CD
Copy CRC 7EF644CD
Accurately ripped (confidence 2) [BE0FB95A] (AR v2)
Copy OK
Track 10
Filename C:\Program Files (x86)\Exact Audio Copy\Flac\10. I Can't Win For Losing.wav
Pre-gap length 0:00:00.07
Peak level 94.9 %
Extraction speed 4.9 X
Track quality 100.0 %
Test CRC 66666DEA
Copy CRC 66666DEA
Accurately ripped (confidence 2) [72551443] (AR v2)
Copy OK
Track 11
Filename C:\Program Files (x86)\Exact Audio Copy\Flac\11. This One's For You.wav
Pre-gap length 0:00:00.13
Peak level 85.9 %
Extraction speed 5.3 X
Track quality 100.0 %
Test CRC 91EA1A53
Copy CRC 91EA1A53
Accurately ripped (confidence 2) [7C52505B] (AR v2)
Copy OK
Track 12
Filename C:\Program Files (x86)\Exact Audio Copy\Flac\12. This Gift Of Life.wav
Pre-gap length 0:00:01.58
Peak level 94.6 %
Extraction speed 4.3 X
Track quality 99.9 %
Test CRC BF0C3BA2
Copy CRC BF0C3BA2
Accurately ripped (confidence 2) [0CC53460] (AR v2)
Copy OK
Track 13
Filename C:\Program Files (x86)\Exact Audio Copy\Flac\13. Crazy About Your Love.wav
Pre-gap length 0:00:00.39
Peak level 93.7 %
Extraction speed 5.3 X
Track quality 100.0 %
Test CRC F2B8FC1B
Copy CRC F2B8FC1B
Accurately ripped (confidence 2) [9C89178A] (AR v2)
Copy OK
Track 14
Filename C:\Program Files (x86)\Exact Audio Copy\Flac\14. I Want My Baby Back.wav
Pre-gap length 0:00:01.58
Peak level 77.6 %
Extraction speed 5.4 X
Track quality 100.0 %
Test CRC 563AEBB5
Copy CRC 563AEBB5
Accurately ripped (confidence 2) [CAC2F5D4] (AR v2)
Copy OK
Track 15
Filename C:\Program Files (x86)\Exact Audio Copy\Flac\15. Heaven Only Knows.wav
Pre-gap length 0:00:00.37
Peak level 100.0 %
Extraction speed 5.6 X
Track quality 100.0 %
Test CRC F1CD16CE
Copy CRC F1CD16CE
Accurately ripped (confidence 2) [F9726097] (AR v2)
Copy OK
All tracks accurately ripped
No errors occurred
End of status report
---- CUETools DB Plugin V2.1.6
[CTDB TOCID: ri6kc17fMEdS.Fllac1nMA2ItlE-] found
Submit result: ri6kc17fMEdS.Fllac1nMA2ItlE- has been confirmed
Track | CTDB Status
1 | (4/4) Accurately ripped
2 | (4/4) Accurately ripped
3 | (4/4) Accurately ripped
4 | (4/4) Accurately ripped
5 | (4/4) Accurately ripped
6 | (4/4) Accurately ripped
7 | (4/4) Accurately ripped
8 | (4/4) Accurately ripped
9 | (4/4) Accurately ripped
10 | (4/4) Accurately ripped
11 | (4/4) Accurately ripped
12 | (4/4) Accurately ripped
13 | (4/4) Accurately ripped
14 | (4/4) Accurately ripped
15 | (4/4) Accurately ripped
==== Log checksum 8C1B5B6FA02D473D339148DB820D31C13DBAE3868E8742D2134BEEE9E80321AA ====
 
Содержание индексной карты (.CUE)
REM GENRE Funk
REM DATE 2014
REM DISCID BD10870F
REM COMMENT "ExactAudioCopy v1.3"
PERFORMER "Teddy Pendergrass"
TITLE "The Real... Teddy Pendergrass (CD3)"
REM COMPOSER ""
FILE "01. Can't We Try.wav" WAVE
TRACK 01 AUDIO
TITLE "Can't We Try"
PERFORMER "Teddy Pendergrass"
REM COMPOSER ""
INDEX 01 00:00:00
TRACK 02 AUDIO
TITLE "Love T.K.O."
PERFORMER "Teddy Pendergrass"
REM COMPOSER ""
INDEX 00 05:04:67
FILE "02. Love T.K.O..wav" WAVE
INDEX 01 00:00:00
TRACK 03 AUDIO
TITLE "Feel The Fire"
PERFORMER "Teddy Pendergrass"
REM COMPOSER ""
INDEX 00 04:59:16
FILE "03. Feel The Fire.wav" WAVE
INDEX 01 00:00:00
TRACK 04 AUDIO
TITLE "Is It Still Good To Ya"
PERFORMER "Teddy Pendergrass"
REM COMPOSER ""
INDEX 00 05:30:57
FILE "04. Is It Still Good To Ya.wav" WAVE
INDEX 01 00:00:00
TRACK 05 AUDIO
TITLE "You're My Latest, My Greatest Inspiration"
PERFORMER "Teddy Pendergrass"
REM COMPOSER ""
INDEX 00 04:35:71
FILE "05. You're My Latest, My Greatest Inspiration.wav" WAVE
INDEX 01 00:00:00
TRACK 06 AUDIO
TITLE "I Can't Live Without Your Love"
PERFORMER "Teddy Pendergrass"
REM COMPOSER ""
INDEX 00 05:21:21
FILE "06. I Can't Live Without Your Love.wav" WAVE
INDEX 01 00:00:00
TRACK 07 AUDIO
TITLE "Nine Times out Of Ten"
PERFORMER "Teddy Pendergrass"
REM COMPOSER ""
INDEX 00 03:00:50
FILE "07. Nine Times out Of Ten.wav" WAVE
INDEX 01 00:00:00
TRACK 08 AUDIO
TITLE "It's Time For Love"
PERFORMER "Teddy Pendergrass"
REM COMPOSER ""
INDEX 00 04:09:70
FILE "08. It's Time For Love.wav" WAVE
INDEX 01 00:00:00
TRACK 09 AUDIO
TITLE "I Can't Leave Your Love Alone"
PERFORMER "Teddy Pendergrass"
REM COMPOSER ""
INDEX 00 05:57:46
FILE "09. I Can't Leave Your Love Alone.wav" WAVE
INDEX 01 00:00:00
TRACK 10 AUDIO
TITLE "I Can't Win For Losing"
PERFORMER "Teddy Pendergrass"
REM COMPOSER ""
INDEX 00 04:40:69
FILE "10. I Can't Win For Losing.wav" WAVE
INDEX 01 00:00:00
TRACK 11 AUDIO
TITLE "This One's For You"
PERFORMER "Teddy Pendergrass"
REM COMPOSER ""
INDEX 00 04:12:46
FILE "11. This One's For You.wav" WAVE
INDEX 01 00:00:00
TRACK 12 AUDIO
TITLE "This Gift Of Life"
PERFORMER "Teddy Pendergrass"
REM COMPOSER ""
INDEX 00 06:18:38
FILE "12. This Gift Of Life.wav" WAVE
INDEX 01 00:00:00
TRACK 13 AUDIO
TITLE "Crazy About Your Love"
PERFORMER "Teddy Pendergrass"
REM COMPOSER ""
INDEX 00 04:26:06
FILE "13. Crazy About Your Love.wav" WAVE
INDEX 01 00:00:00
TRACK 14 AUDIO
TITLE "I Want My Baby Back"
PERFORMER "Teddy Pendergrass"
REM COMPOSER ""
INDEX 00 03:49:33
FILE "14. I Want My Baby Back.wav" WAVE
INDEX 01 00:00:00
TRACK 15 AUDIO
TITLE "Heaven Only Knows"
PERFORMER "Teddy Pendergrass"
REM COMPOSER ""
INDEX 00 03:58:74
FILE "15. Heaven Only Knows.wav" WAVE
INDEX 01 00:00:00
Приватный:
Нет (DHT включён)
Размер:
1.22 Гб (1,309,800,580 байт) » файлов: 59
Участники:
0 раздают, 0 качают (0 участников всего)
Внешние участники:
5 раздают, 1 качают (6 участников всего) [ Обновить ]
Есть вопросы - пишите личное сообщение пользователю M0p94ok.
13:59
69
Нет комментариев. Ваш будет первым!