Поиск

(Soul) [CD] Barry White - Can't Get Enough (1974) - 1996, FLAC (image+.cue), lossless

(Soul) [CD] Barry White - Can't Get Enough (1974) - 1996, FLAC (image+.cue), lossless
Треклист:
Barry White - Can't Get Enough (1974) Жанр: Soul
Носитель: CD
Год издания: 1996
Издатель (лейбл): Mercury Records
Номер по каталогу: 532 165-2
Аудиокодек: FLAC (*.flac)
Тип рипа: image+.cue
Битрейт аудио: lossless
Продолжительность: 31:40
Rip by M@ce
Наличие сканов в содержимом раздачи: да
Треклист:
01. Mellow Mood (Pt. I) (1:52)
02. You're The First, The Last, My Everything (4:36)
03. I Can't Believe You Love Me (10:21)
04. Can't Get Enough Of Your Love, Babe (4:34)
05. Oh Love, Well We Finally Made It (3:54)
06. I Love You More Than Anything (In This World Girl) (4:59)
07. Mellow Mood (Pt. II) (1:23)
 
 
AllMusic Review by Stephen Cook
The third in White's mostly stellar run of albums on the 20th Century label, Can't Get Enough finds the bedroom alchemist coming up with another solid batch of lush, proto-disco gems. White went from strength to strength during the '70s, collaborating with co-arranger Gene Page on some of the most sophisticated and seamless charts in popular music (Philly soul architects Leon Huff, Kenny Gamble, and Thom Bell also deserve recognition in this regard). And thanks to an amazing succession of hits, White not only impressed the music cognoscenti, but repeatedly scored with the radio faithful, too -- Can't Get Enough features two of his biggest chart toppers, "You're the First, the Last, My Everything" and "Can't Get Enough of Your Love, Babe." And besides the hits, it's not just all padding here: "I Can't Believe You Love Me" and "Oh Love, Well We Finally We Made It" qualify as two of White's most fetching slow burners, while "Mellow Mood (Pts. 1 & 2)" shows off his knack for layered instrumentals. Another highlight from White's prime.

 
Лог создания рипа
Exact Audio Copy V1.0 beta 3 from 29. August 2011
EAC extraction logfile from 15. April 2012, 23:20
Barry White / Can't Get Enough
Used drive : Memorex 52MAXX 3252AJ1 Adapter: 1 ID: 0
Read mode : Secure
Utilize accurate stream : Yes
Defeat audio cache : Yes
Make use of C2 pointers : No
Read offset correction : 6
Overread into Lead-In and Lead-Out : No
Fill up missing offset samples with silence : Yes
Delete leading and trailing silent blocks : No
Null samples used in CRC calculations : Yes
Used interface : Native Win32 interface for Win NT & 2000
Used output format : User Defined Encoder
Selected bitrate : 1024 kBit/s
Quality : High
Add ID3 tag : No
Command line compressor : C:\Program Files (x86)\Exact Audio Copy\wavpack.exe
Additional command line options : -w "Artist=%artist%" -w "Title=%title%" -w "Album=%albumtitle%" -w "Year=%year%" -w "Track=%tracknr%" -w "Genre=%genre%" -h %source% %dest%
TOC of the extracted CD
Track | Start | Length | Start sector | End sector
---------------------------------------------------------
1 | 0:00.00 | 1:52.05 | 0 | 8404
2 | 1:52.05 | 4:36.35 | 8405 | 29139
3 | 6:28.40 | 10:21.15 | 29140 | 75729
4 | 16:49.55 | 4:34.00 | 75730 | 96279
5 | 21:23.55 | 3:54.00 | 96280 | 113829
6 | 25:17.55 | 4:59.18 | 113830 | 136272
7 | 30:16.73 | 1:23.02 | 136273 | 142499
Range status and errors
Selected range
Filename C:\Users\M@ce\Music\Archives\Rips\Barry White - Can't Get Enough.wav
Peak level 100.0 %
Extraction speed 8.2 X
Range quality 99.9 %
Test CRC 70F17849
Copy CRC 70F17849
Copy OK
No errors occurred
AccurateRip summary
Track 1 cannot be verified as accurate (confidence 5) [A716E6FB], AccurateRip returned [0572FB8A] (AR v2)
Track 2 cannot be verified as accurate (confidence 5) [435F3C77], AccurateRip returned [90C1AF91] (AR v2)
Track 3 cannot be verified as accurate (confidence 5) [F6363EC7], AccurateRip returned [574125FB] (AR v2)
Track 4 cannot be verified as accurate (confidence 5) [067D8644], AccurateRip returned [38E83AEA] (AR v2)
Track 5 cannot be verified as accurate (confidence 5) [8F91C1F0], AccurateRip returned [44CCA201] (AR v2)
Track 6 cannot be verified as accurate (confidence 5) [155231B5], AccurateRip returned [B045A5DD] (AR v2)
Track 7 cannot be verified as accurate (confidence 5) [DF5D4CD9], AccurateRip returned [FA99C017] (AR v2)
No tracks could be verified as accurate
You may have a different pressing from the one(s) in the database
End of status report
---- CUETools DB Plugin V2.1.3
[CTDB TOCID: cLUYe4fBzZ5cLEEVLtKJCVrXouY-] found, Submit result: cLUYe4fBzZ5cLEEVLtKJCVrXouY- has been confirmed
[ffedf777] (11/11) Accurately ripped
==== Log checksum 75908ECDF3B7D7A3B201E9C707611B839B64CE4811186E9B400300179BFECC02 ====
 
Содержание индексной карты (.CUE)
REM GENRE Soul
REM DATE 1974
REM DISCID 49076C07
REM COMMENT "ExactAudioCopy v1.0b3"
PERFORMER "Barry White"
TITLE "Can't Get Enough"
FILE "Barry White - Can't Get Enough.flac" WAVE
TRACK 01 AUDIO
TITLE "Mellow Mood (Pt. I)"
PERFORMER "Barry White"
INDEX 01 00:00:00
TRACK 02 AUDIO
TITLE "You're The First, The Last, My Everything"
PERFORMER "Barry White"
INDEX 01 01:52:05
TRACK 03 AUDIO
TITLE "I Can't Believe You Love Me"
PERFORMER "Barry White"
INDEX 00 06:25:35
INDEX 01 06:28:40
TRACK 04 AUDIO
TITLE "Can't Get Enough Of Your Love, Babe"
PERFORMER "Barry White"
INDEX 00 16:46:48
INDEX 01 16:49:55
TRACK 05 AUDIO
TITLE "Oh Love, Well We Finally Made It"
PERFORMER "Barry White"
INDEX 00 21:20:45
INDEX 01 21:23:55
TRACK 06 AUDIO
TITLE "I Love You More Than Anything (In This World Girl)"
PERFORMER "Barry White"
INDEX 00 25:14:35
INDEX 01 25:17:55
TRACK 07 AUDIO
TITLE "Mellow Mood (Pt. II)"
PERFORMER "Barry White"
INDEX 01 30:16:73
Приватный:
Нет (DHT включён)
Размер:
303.52 Мб (318,258,859 байт) » файлов: 10
Участники:
0 раздают, 0 качают (0 участников всего)
Внешние участники:
1 раздают, 0 качают (1 участников всего) [ Обновить ]
Есть вопросы - пишите личное сообщение пользователю M0p94ok.
13:58
249
Нет комментариев. Ваш будет первым!