Поиск

(Soul, R&B) [CD] Patti LaBelle - Anthology (2CD) - 2004, FLAC (image+.cue), lossless

(Soul, R&B) [CD] Patti LaBelle - Anthology (2CD) - 2004, FLAC (image+.cue), lossless
Треклист:
Patti LaBelle - Anthology (2CD)

Жанр: Soul, R&B | Носитель: CD
Год издания: 2004 | Издатель (лейбл): The Right Stuff | Номер по каталогу: 72435-77962-2-4
Аудиокодек: FLAC (*.flac) | Тип рипа: image+.cue | Битрейт аудио: lossless
Продолжительность: 62:38 / 70:54 | Rip by M@ce
Наличие сканов в содержимом раздачи: да
 
Disc One
Треклист:
01. Joy To Have Your Love (5:47)
02. You Are My Friend (4:39)
03. Spirit's In It (5:51)
04. Here You Come Again (3:04)
05. Love Lives (2:55)
06. I Fell In Love Without Warning (3:15)
07. Boats Against The Current (4:04)
08. Rockin' Pneumonia And The Boogie Woogie Flu (4:27)
09. Family (4:24)
10. Shoot Him On Sight (5:32)
11. Over The Rainbow (3:47)
12. I'm In Love Again (5:41)
13. Lover Man (Oh Where Can You Be) (4:08)
14. Love, Need And Want You (5:03)
 
 
Лог создания рипа
Exact Audio Copy V1.0 beta 6 from 9. April 2015
EAC extraction logfile from 13. November 2015, 1:31
Pattie LaBelle / Anthology [Disc 1]
Used drive : Memorex 52MAXX 3252AJ1 Adapter: 1 ID: 1
Read mode : Secure
Utilize accurate stream : Yes
Defeat audio cache : Yes
Make use of C2 pointers : No
Read offset correction : 6
Overread into Lead-In and Lead-Out : No
Fill up missing offset samples with silence : Yes
Delete leading and trailing silent blocks : No
Null samples used in CRC calculations : Yes
Used interface : Native Win32 interface for Win NT & 2000
Used output format : User Defined Encoder
Selected bitrate : 1024 kBit/s
Quality : High
Add ID3 tag : No
Command line compressor : C:\Program Files (x86)\Exact Audio Copy\Flac\flac.exe
Additional command line options : %ishigh%-V -p -l 12 -b 4096 -m -e -r 8%ishigh%%islow%-5%islow% --replay-gain -T "ARTIST=%artist%" -T "ALBUM=%albumtitle%" -T "TITLE=%title%" -T "DATE=%year%" -T "TRACKNUMBER=%tracknr%" -T "GENRE=%genre%" -T "ENSEMBLE=%albuminterpret%" -T "ALBUMARTIST=%albumartist%" -T "COMPOSER=%albumcomposer%" -T "DISCNUMBER=%cdnumber%" -T "TOTALDISCS=%totalcds%" -T "TOTALTRACKS=%numtracks%" -T "SOURCEMEDIA=CD" -T "COMMENT=%comment%" %hascover%-T "PICTURE=%coverfile%"%hascover% %source%
TOC of the extracted CD
Track | Start | Length | Start sector | End sector
---------------------------------------------------------
1 | 0:00.00 | 5:47.32 | 0 | 26056
2 | 5:47.32 | 4:39.21 | 26057 | 47002
3 | 10:26.53 | 5:51.21 | 47003 | 73348
4 | 16:17.74 | 3:03.68 | 73349 | 87141
5 | 19:21.67 | 2:55.05 | 87142 | 100271
6 | 22:16.72 | 3:14.63 | 100272 | 114884
7 | 25:31.60 | 4:03.52 | 114885 | 133161
8 | 29:35.37 | 4:26.66 | 133162 | 153177
9 | 34:02.28 | 4:24.34 | 153178 | 173011
10 | 38:26.62 | 5:32.13 | 173012 | 197924
11 | 43:59.00 | 3:46.68 | 197925 | 214942
12 | 47:45.68 | 5:41.27 | 214943 | 240544
13 | 53:27.20 | 4:08.29 | 240545 | 259173
14 | 57:35.49 | 5:02.49 | 259174 | 281872
Range status and errors
Selected range
Filename C:\Users\M@ce\Music\Archives\Rips\Pattie LaBelle - Anthology [Disc 1].wav
Peak level 100.0 %
Extraction speed 6.5 X
Range quality 100.0 %
Test CRC 3C47B918
Copy CRC 3C47B918
Copy OK
No errors occurred
AccurateRip summary
Track 1 cannot be verified as accurate (confidence 1) [1D013E3E], AccurateRip returned [D50A672E] (AR v2)
Track 2 cannot be verified as accurate (confidence 1) [D8C9B8E9], AccurateRip returned [E08CA89F] (AR v2)
Track 3 cannot be verified as accurate (confidence 1) [117A7CB6], AccurateRip returned [565C483C] (AR v2)
Track 4 cannot be verified as accurate (confidence 1) [68AA0C80], AccurateRip returned [AF858207] (AR v2)
Track 5 cannot be verified as accurate (confidence 1) [81863991], AccurateRip returned [9830FF50] (AR v2)
Track 6 cannot be verified as accurate (confidence 1) [8995206A], AccurateRip returned [15B83CB7] (AR v2)
Track 7 cannot be verified as accurate (confidence 1) [655CA05B], AccurateRip returned [641439F0] (AR v2)
Track 8 cannot be verified as accurate (confidence 1) [115ED833], AccurateRip returned [0CEA5BF9] (AR v2)
Track 9 cannot be verified as accurate (confidence 1) [CAA0CF85], AccurateRip returned [2262D328] (AR v2)
Track 10 cannot be verified as accurate (confidence 1) [AED96D16], AccurateRip returned [61FEDFF8] (AR v2)
Track 11 cannot be verified as accurate (confidence 1) [40E65460], AccurateRip returned [4A910ACE] (AR v2)
Track 12 cannot be verified as accurate (confidence 1) [4D53145F], AccurateRip returned [429978C0] (AR v2)
Track 13 cannot be verified as accurate (confidence 1) [7C911BED], AccurateRip returned [F7CC3B0B] (AR v2)
Track 14 cannot be verified as accurate (confidence 1) [CF434CC8], AccurateRip returned [69DE6D2D] (AR v2)
No tracks could be verified as accurate
You may have a different pressing from the one(s) in the database
End of status report
---- CUETools DB Plugin V2.1.6
[CTDB TOCID: I6Fg6b03IoPRjEHdKG2p7tAEzEQ-] disk not present in database
Submit result: I6Fg6b03IoPRjEHdKG2p7tAEzEQ- has been uploaded
==== Log checksum 28F36F0B4B8432E49B74C77D9204FDAEDC68EC9C53364A1151CA48695D18F922 ====
 
Содержание индексной карты (.CUE)
REM GENRE R&B
REM DATE 2004
REM DISCID D30EAE0E
REM COMMENT "ExactAudioCopy v1.0b6"
PERFORMER "Patti LaBelle"
TITLE "Anthology [Disc 1]"
FILE "Patti LaBelle - Anthology [Disc 1].flac" WAVE
TRACK 01 AUDIO
TITLE "Joy To Have Your Love"
PERFORMER "Patti LaBelle"
INDEX 01 00:00:00
TRACK 02 AUDIO
TITLE "You Are My Friend"
PERFORMER "Patti LaBelle"
INDEX 00 05:45:36
INDEX 01 05:47:32
TRACK 03 AUDIO
TITLE "Spirit's In It"
PERFORMER "Patti LaBelle"
INDEX 00 10:23:67
INDEX 01 10:26:53
TRACK 04 AUDIO
TITLE "Here You Come Again"
PERFORMER "Patti LaBelle"
INDEX 00 16:16:13
INDEX 01 16:17:74
TRACK 05 AUDIO
TITLE "Love Lives"
PERFORMER "Patti LaBelle"
INDEX 00 19:20:04
INDEX 01 19:21:67
TRACK 06 AUDIO
TITLE "I Fell In Love Without Warning"
PERFORMER "Patti LaBelle"
INDEX 00 22:14:61
INDEX 01 22:16:72
TRACK 07 AUDIO
TITLE "Boats Against The Current"
PERFORMER "Patti LaBelle"
INDEX 00 25:30:48
INDEX 01 25:31:60
TRACK 08 AUDIO
TITLE "Rockin' Pneumonia And The Boogie Woogie Flu"
PERFORMER "Patti LaBelle"
INDEX 01 29:35:37
TRACK 09 AUDIO
TITLE "Family"
PERFORMER "Patti LaBelle"
INDEX 00 34:00:08
INDEX 01 34:02:28
TRACK 10 AUDIO
TITLE "Shoot Him On Sight"
PERFORMER "Patti LaBelle"
INDEX 00 38:25:22
INDEX 01 38:26:62
TRACK 11 AUDIO
TITLE "Over The Rainbow"
PERFORMER "Patti LaBelle"
INDEX 00 43:57:16
INDEX 01 43:59:00
TRACK 12 AUDIO
TITLE "I'm In Love Again"
PERFORMER "Patti LaBelle"
INDEX 00 47:44:41
INDEX 01 47:45:68
TRACK 13 AUDIO
TITLE "Lover Man (Oh Where Can You Be)"
PERFORMER "Patti LaBelle"
INDEX 00 53:26:02
INDEX 01 53:27:20
TRACK 14 AUDIO
TITLE "Love, Need And Want You"
PERFORMER "Patti LaBelle"
INDEX 00 57:33:25
INDEX 01 57:35:49
 
Disc Two
Треклист:
01. If Only You Knew (4:50)
02. Body Language (4:48)
03. I'll Never, Never Give Up (5:23)
04. Love Bankrupt (4:34)
05. When Am I Gonna Find True Love (4:25)
06. Love Symphony (3:49)
07. Living Double (4:16)
08. Where I Wanna Be (4:16)
09. Shy (4:04)
10. Look To The Rainbow (4:33)
11. I Can't Forget You (4:33)
12. What Can I Do For You (4:17)
13. If You Don't Know Me By Now (8:13)
14. If You Asked Me To (4:00)
15. On My Own (with Michael McDonald) (4:52)
 
 
Лог создания рипа
Exact Audio Copy V1.0 beta 6 from 9. April 2015
EAC extraction logfile from 13. November 2015, 2:36
Pattie LaBelle / Anthology [Disc 2]
Used drive : Memorex 52MAXX 3252AJ1 Adapter: 1 ID: 1
Read mode : Secure
Utilize accurate stream : Yes
Defeat audio cache : Yes
Make use of C2 pointers : No
Read offset correction : 6
Overread into Lead-In and Lead-Out : No
Fill up missing offset samples with silence : Yes
Delete leading and trailing silent blocks : No
Null samples used in CRC calculations : Yes
Used interface : Native Win32 interface for Win NT & 2000
Used output format : User Defined Encoder
Selected bitrate : 1024 kBit/s
Quality : High
Add ID3 tag : No
Command line compressor : C:\Program Files (x86)\Exact Audio Copy\Flac\flac.exe
Additional command line options : %ishigh%-V -p -l 12 -b 4096 -m -e -r 8%ishigh%%islow%-5%islow% --replay-gain -T "ARTIST=%artist%" -T "ALBUM=%albumtitle%" -T "TITLE=%title%" -T "DATE=%year%" -T "TRACKNUMBER=%tracknr%" -T "GENRE=%genre%" -T "ENSEMBLE=%albuminterpret%" -T "ALBUMARTIST=%albumartist%" -T "COMPOSER=%albumcomposer%" -T "DISCNUMBER=%cdnumber%" -T "TOTALDISCS=%totalcds%" -T "TOTALTRACKS=%numtracks%" -T "SOURCEMEDIA=CD" -T "COMMENT=%comment%" %hascover%-T "PICTURE=%coverfile%"%hascover% %source%
TOC of the extracted CD
Track | Start | Length | Start sector | End sector
---------------------------------------------------------
1 | 0:00.00 | 4:50.00 | 0 | 21749
2 | 4:50.00 | 4:47.53 | 21750 | 43327
3 | 9:37.53 | 5:23.27 | 43328 | 67579
4 | 15:01.05 | 4:34.34 | 67580 | 88163
5 | 19:35.39 | 4:24.46 | 88164 | 108009
6 | 24:00.10 | 3:49.17 | 108010 | 125201
7 | 27:49.27 | 4:15.68 | 125202 | 144394
8 | 32:05.20 | 4:16.01 | 144395 | 163595
9 | 36:21.21 | 4:03.71 | 163596 | 181891
10 | 40:25.17 | 4:33.21 | 181892 | 202387
11 | 44:58.38 | 4:32.46 | 202388 | 222833
12 | 49:31.09 | 4:16.70 | 222834 | 242103
13 | 53:48.04 | 8:13.33 | 242104 | 279111
14 | 62:01.37 | 4:00.36 | 279112 | 297147
15 | 66:01.73 | 4:52.11 | 297148 | 319058
Range status and errors
Selected range
Filename C:\Users\M@ce\Music\Archives\Rips\Pattie LaBelle - Anthology [Disc 2].wav
Peak level 100.0 %
Extraction speed 9.9 X
Range quality 100.0 %
Test CRC 54D9474C
Copy CRC 54D9474C
Copy OK
No errors occurred
AccurateRip summary
Track 1 cannot be verified as accurate (confidence 1) [74DC6CD9], AccurateRip returned [AEE70AF3] (AR v2)
Track 2 cannot be verified as accurate (confidence 1) [20D429D5], AccurateRip returned [CF94E43B] (AR v2)
Track 3 cannot be verified as accurate (confidence 1) [8D8B060E], AccurateRip returned [94883F0F] (AR v2)
Track 4 cannot be verified as accurate (confidence 1) [A3816E9E], AccurateRip returned [6F3FB786] (AR v2)
Track 5 cannot be verified as accurate (confidence 1) [E8811D81], AccurateRip returned [47257F03] (AR v2)
Track 6 cannot be verified as accurate (confidence 1) [21A7A15E], AccurateRip returned [28C36685] (AR v2)
Track 7 cannot be verified as accurate (confidence 1) [AD410FF2], AccurateRip returned [B2470BD9] (AR v2)
Track 8 cannot be verified as accurate (confidence 1) [BC4D342D], AccurateRip returned [32B7BD67] (AR v2)
Track 9 cannot be verified as accurate (confidence 1) [7FCE0EBC], AccurateRip returned [3B98D6AF] (AR v2)
Track 10 cannot be verified as accurate (confidence 1) [28D2A728], AccurateRip returned [D79C4CBC] (AR v2)
Track 11 cannot be verified as accurate (confidence 1) [435839F5], AccurateRip returned [05AE67E7] (AR v2)
Track 12 cannot be verified as accurate (confidence 1) [85B38D40], AccurateRip returned [7CA056A2] (AR v2)
Track 13 cannot be verified as accurate (confidence 1) [D5B14193], AccurateRip returned [18FCDDA4] (AR v2)
Track 14 cannot be verified as accurate (confidence 1) [2F293548], AccurateRip returned [EAE04F52] (AR v2)
Track 15 cannot be verified as accurate (confidence 1) [11A12AC5], AccurateRip returned [44EB65B4] (AR v2)
No tracks could be verified as accurate
You may have a different pressing from the one(s) in the database
End of status report
---- CUETools DB Plugin V2.1.6
[CTDB TOCID: F10E5tKzVKqrmXkGfifLDXL0jXQ-] disk not present in database
Submit result: F10E5tKzVKqrmXkGfifLDXL0jXQ- has been uploaded
==== Log checksum 1FCC5D0EBEA3DD7F75C657974C9CB8D1A3128F04294DE2FA4E7338AA7158401E ====
 
Содержание индексной карты (.CUE)
REM GENRE Soul
REM DATE 2004
REM DISCID D4109E0F
REM COMMENT ExactAudioCopy v1.0b6
PERFORMER "Patti LaBelle"
TITLE "Anthology [Disc 2]"
FILE "Patti LaBelle - Anthology [Disc 2].flac" WAVE
TRACK 01 AUDIO
TITLE "If Only You Knew"
PERFORMER "Patti LaBelle"
INDEX 01 00:00:00
TRACK 02 AUDIO
TITLE "Body Language"
PERFORMER "Patti LaBelle"
INDEX 01 04:50:00
TRACK 03 AUDIO
TITLE "I'll Never, Never Give Up"
PERFORMER "Patti LaBelle"
INDEX 00 09:36:04
INDEX 01 09:37:53
TRACK 04 AUDIO
TITLE "Love Bankrupt"
PERFORMER "Patti LaBelle"
INDEX 00 15:00:01
INDEX 01 15:01:05
TRACK 05 AUDIO
TITLE "When Am I Gonna Find True Love"
PERFORMER "Patti LaBelle"
INDEX 01 19:35:39
TRACK 06 AUDIO
TITLE "Love Symphony"
PERFORMER "Patti LaBelle"
INDEX 01 24:00:10
TRACK 07 AUDIO
TITLE "Living Double"
PERFORMER "Patti LaBelle"
INDEX 01 27:49:27
TRACK 08 AUDIO
TITLE "Where I Wanna Be"
PERFORMER "Patti LaBelle"
INDEX 00 32:03:53
INDEX 01 32:05:20
TRACK 09 AUDIO
TITLE "Shy"
PERFORMER "Patti LaBelle"
INDEX 00 36:19:43
INDEX 01 36:21:21
TRACK 10 AUDIO
TITLE "Look To The Rainbow"
PERFORMER "Patti LaBelle"
INDEX 00 40:23:34
INDEX 01 40:25:17
TRACK 11 AUDIO
TITLE "I Can't Forget You"
PERFORMER "Patti LaBelle"
INDEX 00 44:56:54
INDEX 01 44:58:38
TRACK 12 AUDIO
TITLE "What Can I Do For You"
PERFORMER "Patti LaBelle"
INDEX 00 49:29:42
INDEX 01 49:31:09
TRACK 13 AUDIO
TITLE "If You Don't Know Me By Now"
PERFORMER "Patti LaBelle"
INDEX 00 53:46:56
INDEX 01 53:48:04
TRACK 14 AUDIO
TITLE "If You Asked Me To"
PERFORMER "Patti LaBelle"
INDEX 00 61:59:35
INDEX 01 62:01:37
TRACK 15 AUDIO
TITLE "On My Own (with Michael McDonald)"
PERFORMER "Patti LaBelle"
INDEX 00 66:00:21
INDEX 01 66:01:73
Приватный:
Нет (DHT включён)
Размер:
892.02 Мб (935,349,323 байт) » файлов: 18
Участники:
0 раздают, 0 качают (0 участников всего)
Внешние участники:
2 раздают, 1 качают (3 участников всего) [ Обновить ]
Есть вопросы - пишите личное сообщение пользователю M0p94ok.
13:59
112
Нет комментариев. Ваш будет первым!