Поиск

(Funk, Soul, R&B) [CD] Gwen McCrae - Melody Of Life (1979) - 2013, FLAC (tracks+.cue), lossless

(Funk, Soul, R&B) [CD] Gwen McCrae - Melody Of Life (1979) - 2013, FLAC (tracks+.cue), lossless
Треклист:
Gwen McCrae - Melody Of Life (1979) Жанр: Funk, Soul, R&B
Носитель: CD
Год издания: 2013
Издатель (лейбл): Big Break Records
Номер по каталогу: CDBBR 0227
Аудиокодек: FLAC (*.flac)
Тип рипа: tracks+.cue
Битрейт аудио: lossless
Продолжительность: 39:56
Rip by JET 1
Наличие сканов в содержимом раздачи: да
Треклист:
01. All This Love That I'm Givin' (4:11)
02. I Can Only Think Of You (5:31)
03. Maybe I'll Find Somebody New (3:35)
04. I Found A Love (4:33)
05. The Joy (4:39)
06. Ease The Pain (3:36)
07. The Melody Of Life (6:12)
08. All This Love That I'm Givin'(Single Version) (3:55)
09. The Joy (Single Version) (3:44)
 
 
Несколько слов на английском
Gwen McCrae, a gutsy soul singer in the southern style and initially influenced by such leading lights of the soul world as Sam Cooke and Aretha Franklin, is known best for her 1975 R&B #1 Rockin Chair . Having married George Rock Your Baby McCrae after a whirlwind romance in 1963 the couple became a vocal duo and were discovered by influential singer/producer Betty Wright in the late 60 s. Betty Wright was able to help them get a recording deal at Henry Stones Alston imprint which led to a move to Columbia Records before going back to a different Henry Stone imprint, Cat. A succession of singles were released during this period with modest success until she hit the R&B #1 spot with the aforementioned Rockin Chair in 1975 and followed it up with her debut LP of the same name. MELODY OF LIFE opens with intent with McCrae putting down a strong, soulful vocal on All This Love That I m Givin backed up with a great synth bass line helping it to become a much lauded underground dance floor favourite up to the present day despite not charting on its release. From I Can Only Think Of You onwards MELODY OF LIFE provides elegant and endearing soulful backdrops for McCrae s stunning vocals to soar over. The Joy has a positive groove led by the bass guitar and backed up with an energetic horn section. On every track McCrae is at her impassioned best.

 
Лог создания рипа
Exact Audio Copy V1.3 from 2. September 2016
EAC extraction logfile from 8. July 2017, 18:18
Gwen McCrae / Melody of Life
Used drive : GENERIC CDRCB05 Adapter: 1 ID: 1
Read mode : Secure
Utilize accurate stream : Yes
Defeat audio cache : Yes
Make use of C2 pointers : No
Read offset correction : 102
Overread into Lead-In and Lead-Out : No
Fill up missing offset samples with silence : Yes
Delete leading and trailing silent blocks : No
Null samples used in CRC calculations : Yes
Used interface : Native Win32 interface for Win NT & 2000
Gap handling : Appended to previous track
Used output format : User Defined Encoder
Selected bitrate : 768 kBit/s
Quality : High
Add ID3 tag : No
Command line compressor : C:\Program Files (x86)\Exact Audio Copy\FLAC\FLAC.EXE
Additional command line options : -6 -V -T "ARTIST=%artist%" -T "TITLE=%title%" -T "ALBUM=%albumtitle%" -T "DATE=%year%" -T "TRACKNUMBER=%tracknr%" -T "GENRE=%genre%" -T "COMMENT=%comment%" -T "BAND=%albuminterpret%" -T "ALBUMARTIST=%albuminterpret%" -T "COMPOSER=%composer%" %haslyrics%--tag-from-file=LYRICS="%lyricsfile%"%haslyrics% -T "DISCNUMBER=%cdnumber%" -T "TOTALDISCS=%totalcds%" -T "TOTALTRACKS=%numtracks%" %hascover%--picture="%coverfile%"%hascover% %source% -o %dest%
TOC of the extracted CD
Track | Start | Length | Start sector | End sector
---------------------------------------------------------
1 | 0:00.00 | 4:10.46 | 0 | 18795
2 | 4:10.46 | 5:31.09 | 18796 | 43629
3 | 9:41.55 | 3:35.32 | 43630 | 59786
4 | 13:17.12 | 4:32.61 | 59787 | 80247
5 | 17:49.73 | 4:39.22 | 80248 | 101194
6 | 22:29.20 | 3:35.62 | 101195 | 117381
7 | 26:05.07 | 6:11.64 | 117382 | 145270
8 | 32:16.71 | 3:55.34 | 145271 | 162929
9 | 36:12.30 | 3:43.64 | 162930 | 179718
Track 1
Filename L:\POST\Gwen McCrae ‎- Melody Of Life (1979) [2013 BBR]\01 All This Love That I'm Givin'.wav
Pre-gap length 0:00:02.00
Peak level 96.1 %
Extraction speed 2.4 X
Track quality 100.0 %
Test CRC 13FAA311
Copy CRC 13FAA311
Accurately ripped (confidence 3) [7DADEAA8] (AR v2)
Copy OK
Track 2
Filename L:\POST\Gwen McCrae ‎- Melody Of Life (1979) [2013 BBR]\02 I Can Only Think Of You.wav
Pre-gap length 0:00:02.06
Peak level 96.1 %
Extraction speed 2.9 X
Track quality 100.0 %
Test CRC A4F7B98E
Copy CRC A4F7B98E
Accurately ripped (confidence 3) [D3178058] (AR v2)
Copy OK
Track 3
Filename L:\POST\Gwen McCrae ‎- Melody Of Life (1979) [2013 BBR]\03 Maybe I'll Find Somebody New.wav
Pre-gap length 0:00:01.51
Peak level 96.1 %
Extraction speed 2.6 X
Track quality 99.9 %
Test CRC 0A2E265C
Copy CRC 0A2E265C
Accurately ripped (confidence 3) [816C2AA8] (AR v2)
Copy OK
Track 4
Filename L:\POST\Gwen McCrae ‎- Melody Of Life (1979) [2013 BBR]\04 I Found A Love.wav
Pre-gap length 0:00:00.56
Peak level 96.1 %
Extraction speed 3.2 X
Track quality 100.0 %
Test CRC CEB78B38
Copy CRC CEB78B38
Accurately ripped (confidence 3) [4A2B6127] (AR v2)
Copy OK
Track 5
Filename L:\POST\Gwen McCrae ‎- Melody Of Life (1979) [2013 BBR]\05 The Joy.wav
Pre-gap length 0:00:00.69
Peak level 96.1 %
Extraction speed 3.4 X
Track quality 100.0 %
Test CRC B7B4119C
Copy CRC B7B4119C
Accurately ripped (confidence 3) [ED52E025] (AR v2)
Copy OK
Track 6
Filename L:\POST\Gwen McCrae ‎- Melody Of Life (1979) [2013 BBR]\06 Ease The Pain.wav
Pre-gap length 0:00:00.69
Peak level 96.1 %
Extraction speed 3.5 X
Track quality 100.0 %
Test CRC F945B963
Copy CRC F945B963
Accurately ripped (confidence 3) [5D579066] (AR v2)
Copy OK
Track 7
Filename L:\POST\Gwen McCrae ‎- Melody Of Life (1979) [2013 BBR]\07 The Melody of Life.wav
Pre-gap length 0:00:01.42
Peak level 96.1 %
Extraction speed 3.6 X
Track quality 99.9 %
Test CRC 252A5DBF
Copy CRC 252A5DBF
Accurately ripped (confidence 3) [7C02EFEE] (AR v2)
Copy OK
Track 8
Filename L:\POST\Gwen McCrae ‎- Melody Of Life (1979) [2013 BBR]\08 All This Love That I'm Givin'(Single Version).wav
Pre-gap length 0:00:03.25
Peak level 96.1 %
Extraction speed 4.0 X
Track quality 100.0 %
Test CRC 006CB036
Copy CRC 006CB036
Accurately ripped (confidence 3) [CA463E56] (AR v2)
Copy OK
Track 9
Filename L:\POST\Gwen McCrae ‎- Melody Of Life (1979) [2013 BBR]\09 The Joy (Single Version).wav
Pre-gap length 0:00:01.50
Peak level 96.1 %
Extraction speed 4.1 X
Track quality 100.0 %
Test CRC 8AE3F3E0
Copy CRC 8AE3F3E0
Accurately ripped (confidence 3) [347C7838] (AR v2)
Copy OK
All tracks accurately ripped
No errors occurred
End of status report
---- CUETools DB Plugin V2.1.6
[CTDB TOCID: ucCmHaQfTLopT2gmuVW.sfW9bow-] found
Submit result: ucCmHaQfTLopT2gmuVW.sfW9bow- has been confirmed
Track | CTDB Status
1 | (2/2) Accurately ripped
2 | (2/2) Accurately ripped
3 | (2/2) Accurately ripped
4 | (2/2) Accurately ripped
5 | (2/2) Accurately ripped
6 | (2/2) Accurately ripped
7 | (2/2) Accurately ripped
8 | (2/2) Accurately ripped
9 | (2/2) Accurately ripped
==== Log checksum CF9146E9DF914521573C9B4B2A29CBA6F989FCB21CA96088ED526C05BCB45F76 ====
 
Содержание индексной карты (.CUE)
REM DATE 2013
REM DISCID 7D095C09
REM COMMENT "ExactAudioCopy v1.3"
PERFORMER "Gwen McCrae"
TITLE "Melody Of Life"
REM COMPOSER ""
FILE "01 All This Love That I'm Givin'.wav" WAVE
TRACK 01 AUDIO
TITLE "All This Love That I'm Givin'"
PERFORMER "Gwen McCrae"
REM COMPOSER ""
INDEX 01 00:00:00
TRACK 02 AUDIO
TITLE "I Can Only Think Of You"
PERFORMER "Gwen McCrae"
REM COMPOSER ""
INDEX 00 04:08:40
FILE "02 I Can Only Think Of You.wav" WAVE
INDEX 01 00:00:00
TRACK 03 AUDIO
TITLE "Maybe I'll Find Somebody New "
PERFORMER "Gwen McCrae"
REM COMPOSER ""
INDEX 00 05:29:33
FILE "03 Maybe I'll Find Somebody New.wav" WAVE
INDEX 01 00:00:00
TRACK 04 AUDIO
TITLE "I Found A Love"
PERFORMER "Gwen McCrae"
REM COMPOSER ""
INDEX 00 03:34:51
FILE "04 I Found A Love.wav" WAVE
INDEX 01 00:00:00
TRACK 05 AUDIO
TITLE "The Joy"
PERFORMER "Gwen McCrae"
REM COMPOSER ""
INDEX 00 04:31:67
FILE "05 The Joy.wav" WAVE
INDEX 01 00:00:00
TRACK 06 AUDIO
TITLE "Ease The Pain"
PERFORMER "Gwen McCrae"
REM COMPOSER ""
INDEX 00 04:38:28
FILE "06 Ease The Pain.wav" WAVE
INDEX 01 00:00:00
TRACK 07 AUDIO
TITLE "The Melody Of Life"
PERFORMER "Gwen McCrae"
REM COMPOSER ""
INDEX 00 03:34:20
FILE "07 The Melody Of Life.wav" WAVE
INDEX 01 00:00:00
TRACK 08 AUDIO
TITLE "All This Love That I'm Givin'(Single Version)"
PERFORMER "Gwen McCrae"
REM COMPOSER ""
INDEX 00 06:08:39
FILE "08 All This Love That I'm Givin'(Single Version).wav" WAVE
INDEX 01 00:00:00
TRACK 09 AUDIO
TITLE "The Joy (Single Version)"
PERFORMER "Gwen McCrae"
REM COMPOSER ""
INDEX 00 03:53:59
FILE "09 The Joy (Single Version).wav" WAVE
INDEX 01 00:00:00
Приватный:
Нет (DHT включён)
Размер:
427.98 Мб (448,771,484 байт) » файлов: 24
Участники:
0 раздают, 0 качают (0 участников всего)
Внешние участники:
2 раздают, 1 качают (3 участников всего) [ Обновить ]
Есть вопросы - пишите личное сообщение пользователю M0p94ok.
14:00
84
Нет комментариев. Ваш будет первым!