Поиск

(Soul, R&B) [CD] Smokey Robinson - One Heartbeat (1987) - 1990, FLAC (image+.cue), lossless

(Soul, R&B) [CD] Smokey Robinson - One Heartbeat (1987) - 1990, FLAC (image+.cue), lossless
Треклист:
Smokey Robinson - One Heartbeat (1987) Жанр: Soul, R&B
Носитель: CD
Год издания: 1990
Издатель (лейбл): Motown
Номер по каталогу: 73746362262
Аудиокодек: FLAC (*.flac)
Тип рипа: image+.cue
Битрейт аудио: lossless
Продолжительность: 37:59
Rip by M@ce
Наличие сканов в содержимом раздачи: да
Треклист:
01. Just To See Her (4:04)
02. One Heartbeat (4:07)
03. It's Time To Stop Shoppin' Around (4:02)
04. Why Do Happy Memories Hurt So Bad (4:06)
05. You Don't Know What It's Like (3:55)
06. What's Too Much (4:23)
07. Love Brought Us Here (3:58)
08. Love Don't Give No Reason (4:25)
09. Keep Me (4:59)
 
 
AllMusic Review by Ron Wynn
Another superb Robinson album. He continued scoring hit singles throughout the 1980s, and this time out, the song "Just To See Her" was another huge pop and R&B smash, and the title track did almost as well. Robinson was thriving, despite the fact that hip-hop was steadily gaining strength, and New Jack Swing would soon force its way into the urban contemporary spotlight.

 
Лог создания рипа
Exact Audio Copy V1.0 beta 6 from 9. April 2015
EAC extraction logfile from 22. September 2015, 14:27
Smokey Robinson / One Heartbeat
Used drive : Memorex 52MAXX 3252AJ1 Adapter: 1 ID: 1
Read mode : Secure
Utilize accurate stream : Yes
Defeat audio cache : Yes
Make use of C2 pointers : No
Read offset correction : 6
Overread into Lead-In and Lead-Out : No
Fill up missing offset samples with silence : Yes
Delete leading and trailing silent blocks : No
Null samples used in CRC calculations : Yes
Used interface : Native Win32 interface for Win NT & 2000
Used output format : User Defined Encoder
Selected bitrate : 1024 kBit/s
Quality : High
Add ID3 tag : No
Command line compressor : C:\Program Files (x86)\Exact Audio Copy\Flac\flac.exe
Additional command line options : %ishigh%-V -p -l 12 -b 4096 -m -e -r 8%ishigh%%islow%-5%islow% --replay-gain -T "ARTIST=%artist%" -T "ALBUM=%albumtitle%" -T "TITLE=%title%" -T "DATE=%year%" -T "TRACKNUMBER=%tracknr%" -T "GENRE=%genre%" -T "ENSEMBLE=%albuminterpret%" -T "ALBUMARTIST=%albumartist%" -T "COMPOSER=%albumcomposer%" -T "DISCNUMBER=%cdnumber%" -T "TOTALDISCS=%totalcds%" -T "TOTALTRACKS=%numtracks%" -T "SOURCEMEDIA=CD" -T "COMMENT=%comment%" %hascover%-T "PICTURE=%coverfile%"%hascover% %source%
TOC of the extracted CD
Track | Start | Length | Start sector | End sector
---------------------------------------------------------
1 | 0:00.00 | 4:04.02 | 0 | 18301
2 | 4:04.02 | 4:07.00 | 18302 | 36826
3 | 8:11.02 | 4:02.23 | 36827 | 54999
4 | 12:13.25 | 4:06.12 | 55000 | 73461
5 | 16:19.37 | 3:55.00 | 73462 | 91086
6 | 20:14.37 | 4:23.15 | 91087 | 110826
7 | 24:37.52 | 3:57.48 | 110827 | 128649
8 | 28:35.25 | 4:25.12 | 128650 | 148536
9 | 33:00.37 | 4:58.38 | 148537 | 170924
Range status and errors
Selected range
Filename C:\Users\M@ce\Music\Archives\Rips\Smokey Robinson - One Heartbeat.wav
Peak level 100.0 %
Extraction speed 8.6 X
Range quality 100.0 %
Test CRC 38A90BDB
Copy CRC 38A90BDB
Copy OK
No errors occurred
AccurateRip summary
Track 1 cannot be verified as accurate (confidence 2) [6A66C61B], AccurateRip returned [6CA0B398] (AR v2)
Track 2 cannot be verified as accurate (confidence 2) [372DD120], AccurateRip returned [E0F244CB] (AR v2)
Track 3 cannot be verified as accurate (confidence 2) [0CA649A6], AccurateRip returned [1FBE0215] (AR v2)
Track 4 cannot be verified as accurate (confidence 2) [084DC3EA], AccurateRip returned [418445F8] (AR v2)
Track 5 cannot be verified as accurate (confidence 2) [A1199CD0], AccurateRip returned [6A4BA14B] (AR v2)
Track 6 cannot be verified as accurate (confidence 2) [35398984], AccurateRip returned [365150C0] (AR v2)
Track 7 cannot be verified as accurate (confidence 2) [8F8CEE77], AccurateRip returned [3F8C7289] (AR v2)
Track 8 cannot be verified as accurate (confidence 2) [34768C41], AccurateRip returned [74E6FBBF] (AR v2)
Track 9 cannot be verified as accurate (confidence 2) [DBB23239], AccurateRip returned [1C6006DD] (AR v2)
No tracks could be verified as accurate
You may have a different pressing from the one(s) in the database
End of status report
---- CUETools DB Plugin V2.1.6
[CTDB TOCID: XT01qFyQNPQGjNVUWHGEqxcvT2Q-] found
Submit result: XT01qFyQNPQGjNVUWHGEqxcvT2Q- has been confirmed
Track | CTDB Status
1 | (3/3) Accurately ripped
2 | (3/3) Accurately ripped
3 | (3/3) Accurately ripped
4 | (3/3) Accurately ripped
5 | (3/3) Accurately ripped
6 | (3/3) Accurately ripped
7 | (3/3) Accurately ripped
8 | (3/3) Accurately ripped
9 | (3/3) Accurately ripped
==== Log checksum B55DB9120E57CAB28BFE44B1CDF71BC3DE0ABB8F8F57AB2578F583957786D3C2 ====
 
Содержание индексной карты (.CUE)
REM GENRE Soul
REM DATE 1987
REM DISCID 8208E709
REM COMMENT "ExactAudioCopy v1.0b6"
PERFORMER "Smokey Robinson"
TITLE "One Heartbeat"
FILE "Smokey Robinson - One Heartbeat.flac" WAVE
TRACK 01 AUDIO
TITLE "Just To See Her"
PERFORMER "Smokey Robinson"
INDEX 01 00:00:00
TRACK 02 AUDIO
TITLE "One Heartbeat"
PERFORMER "Smokey Robinson"
INDEX 00 04:02:52
INDEX 01 04:04:02
TRACK 03 AUDIO
TITLE "It's Time To Stop Shoppin' Around"
PERFORMER "Smokey Robinson"
INDEX 00 08:09:02
INDEX 01 08:11:02
TRACK 04 AUDIO
TITLE "Why Do Happy Memories Hurt So Bad"
PERFORMER "Smokey Robinson"
INDEX 00 12:12:17
INDEX 01 12:13:25
TRACK 05 AUDIO
TITLE "You Don't Know What It's Like"
PERFORMER "Smokey Robinson"
INDEX 00 16:18:40
INDEX 01 16:19:37
TRACK 06 AUDIO
TITLE "What's Too Much"
PERFORMER "Smokey Robinson"
INDEX 00 20:11:57
INDEX 01 20:14:37
TRACK 07 AUDIO
TITLE "Love Brought Us Here"
PERFORMER "Smokey Robinson"
INDEX 00 24:35:20
INDEX 01 24:37:52
TRACK 08 AUDIO
TITLE "Love Don't Give No Reason"
PERFORMER "Smokey Robinson"
INDEX 00 28:32:15
INDEX 01 28:35:25
TRACK 09 AUDIO
TITLE "Keep Me"
PERFORMER "Smokey Robinson"
INDEX 00 32:59:29
INDEX 01 33:00:37
Приватный:
Нет (DHT включён)
Размер:
232.35 Мб (243,638,288 байт) » файлов: 10
Участники:
0 раздают, 0 качают (0 участников всего)
Внешние участники:
3 раздают, 1 качают (4 участников всего) [ Обновить ]
No seeders - write a personal message to user M0p94ok. Нет сидеров - пишите личное сообщение пользователю M0p94ok.
14:00
81
Нет комментариев. Ваш будет первым!