Поиск

(Soul, R&B) [CD] James Brown - The CD Of JB: Sex Machine & Other Soul Classics - 1985, FLAC (tracks+.cue), lossless

(Soul, R&B) [CD] James Brown - The CD Of JB: Sex Machine & Other Soul Classics - 1985, FLAC (tracks+.cue), lossless
Треклист:
James Brown - The CD Of JB: Sex Machine & Other Soul Classics Жанр: Soul, R&B
Носитель: CD
Страна-производитель диска (релиза): USA
Год издания: 1985
Издатель (лейбл): Polydor/PolyGram Records, Inc.
Номер по каталогу: 825 714-2
Аудиокодек: FLAC (*.flac)
Тип рипа: tracks+.cue
Битрейт аудио: lossless
Продолжительность: 56:07
Источник (релизер): TestTickles
Наличие сканов в содержимом раздачи: да
Треклист:
01. Doing It To Death (5:26)
02. Super Bad (Mono) (3:02)
03. Soul Power (Mono) (3:05)
04. Think (3:16)
05. It's A Man's World (Mono) (3:20)
06. Try Me (I Need You) (Mono) (2:35)
07. Bewildered (Mono) (2:28)
08. Out Of Sight (2:28)
09. I Got You (2:31)
10. Prisoner Of Love (2:30)
11. I Got The Feelin' (Mono) (2:45)
12. Maybe The Last Time (3:05)
13. Licking Stick - Licking Stick (2:52)
14. Mother Popcorn (3:15)
15. Papa's Got A Brand New Bag (Mono) (2:11)
16. Sex Machine (5:08)
17. The Payback (3:25)
18. Please, Please, Please (Mono) (2:44)
 
 
AllMusic Review by William Ruhlmann
Polydor Records put a tentative toe into the emerging CD stream in 1985 and enjoyed surprising commercial success with this 56-minute, 18-song James Brown sampler. Rather than taking the standard greatest-hits approach, compiler Cliff White mixed familiar hits with rarities and even unreleased material, a shortened version of the later boxed-set formula. So, along with number one R&B hits like "Papa's Got a Brand New Bag," "Super Bad," and "Mother Popcorn," one heard a previously unreleased version of "It's a Man's World," two years older than the better-known one, and "I Got You," an early version of "I Got You (I Feel Good)," culled from the withdrawn Out of Sight LP. The effect, especially for a first-time listener, was to whet the appetite for more, though The CD of JB was more a highlights disc than a thorough anthology.

 
Лог создания рипа
Exact Audio Copy V1.1 from 23. June 2015
EAC extraction logfile from 6. May 2017, 14:46
James Brown / The CD Of JB
Used drive : TEAC DVD-ROM DV-28SW Adapter: 1 ID: 0
Read mode : Secure
Utilize accurate stream : Yes
Defeat audio cache : Yes
Make use of C2 pointers : No
Read offset correction : 6
Overread into Lead-In and Lead-Out : No
Fill up missing offset samples with silence : Yes
Delete leading and trailing silent blocks : No
Null samples used in CRC calculations : Yes
Used interface : Native Win32 interface for Win NT & 2000
Gap handling : Appended to previous track
Used output format : Internal WAV Routines
Sample format : 44.100 Hz; 16 Bit; Stereo
TOC of the extracted CD
Track | Start | Length | Start sector | End sector
---------------------------------------------------------
1 | 0:00.33 | 5:26.00 | 33 | 24482
2 | 5:26.33 | 3:02.00 | 24483 | 38132
3 | 8:28.33 | 3:04.50 | 38133 | 51982
4 | 11:33.08 | 3:16.12 | 51983 | 66694
5 | 14:49.20 | 3:19.63 | 66695 | 81682
6 | 18:09.08 | 2:34.62 | 81683 | 93294
7 | 20:43.70 | 2:28.13 | 93295 | 104407
8 | 23:12.08 | 2:27.50 | 104408 | 115482
9 | 25:39.58 | 2:31.25 | 115483 | 126832
10 | 28:11.08 | 2:30.37 | 126833 | 138119
11 | 30:41.45 | 2:45.25 | 138120 | 150519
12 | 33:26.70 | 3:04.63 | 150520 | 164382
13 | 36:31.58 | 2:51.50 | 164383 | 177257
14 | 39:23.33 | 3:15.37 | 177258 | 191919
15 | 42:38.70 | 2:10.63 | 191920 | 201732
16 | 44:49.58 | 5:08.12 | 201733 | 224844
17 | 49:57.70 | 3:25.25 | 224845 | 240244
18 | 53:23.20 | 2:44.13 | 240245 | 252557
Track 1
Filename C:\My Documents\My FLAC\James Brown - The CD Of JB (1985) [FLAC] {Polydor}\01 - Doing It To Death.wav
Pre-gap length 0:00:02.33
Peak level 92.3 %
Extraction speed 1.1 X
Track quality 99.9 %
Test CRC D592680A
Copy CRC D592680A
Accurately ripped (confidence 22) [D6DF2144] (AR v2)
Copy OK
Track 2
Filename C:\My Documents\My FLAC\James Brown - The CD Of JB (1985) [FLAC] {Polydor}\02 - Super Bad (Mono).wav
Pre-gap length 0:00:03.00
Peak level 72.8 %
Extraction speed 1.3 X
Track quality 100.0 %
Test CRC BBBE3A40
Copy CRC BBBE3A40
Accurately ripped (confidence 22) [8984AC2D] (AR v2)
Copy OK
Track 3
Filename C:\My Documents\My FLAC\James Brown - The CD Of JB (1985) [FLAC] {Polydor}\03 - Soul Power (Mono).wav
Pre-gap length 0:00:03.00
Peak level 74.8 %
Extraction speed 1.4 X
Track quality 100.0 %
Test CRC 7411F124
Copy CRC 7411F124
Accurately ripped (confidence 22) [559EC98D] (AR v2)
Copy OK
Track 4
Filename C:\My Documents\My FLAC\James Brown - The CD Of JB (1985) [FLAC] {Polydor}\04 - Think.wav
Pre-gap length 0:00:03.00
Peak level 76.9 %
Extraction speed 1.5 X
Track quality 100.0 %
Test CRC F9130785
Copy CRC F9130785
Accurately ripped (confidence 22) [D1C24EA6] (AR v2)
Copy OK
Track 5
Filename C:\My Documents\My FLAC\James Brown - The CD Of JB (1985) [FLAC] {Polydor}\05 - It's A Man's World (Mono).wav
Pre-gap length 0:00:03.00
Peak level 75.7 %
Extraction speed 1.3 X
Track quality 99.9 %
Test CRC 93D54502
Copy CRC 93D54502
Accurately ripped (confidence 22) [E1496CC0] (AR v2)
Copy OK
Track 6
Filename C:\My Documents\My FLAC\James Brown - The CD Of JB (1985) [FLAC] {Polydor}\06 - Try Me (I Need You) (Mono).wav
Pre-gap length 0:00:05.00
Peak level 78.0 %
Extraction speed 1.6 X
Track quality 100.0 %
Test CRC 11CE6DEF
Copy CRC 11CE6DEF
Accurately ripped (confidence 22) [74ACDCBD] (AR v2)
Copy OK
Track 7
Filename C:\My Documents\My FLAC\James Brown - The CD Of JB (1985) [FLAC] {Polydor}\07 - Bewildered (Mono).wav
Pre-gap length 0:00:05.00
Peak level 79.4 %
Extraction speed 1.6 X
Track quality 100.0 %
Test CRC 4E35CD93
Copy CRC 4E35CD93
Accurately ripped (confidence 22) [7CB23989] (AR v2)
Copy OK
Track 8
Filename C:\My Documents\My FLAC\James Brown - The CD Of JB (1985) [FLAC] {Polydor}\08 - Out Of Sight.wav
Pre-gap length 0:00:05.00
Peak level 81.1 %
Extraction speed 1.6 X
Track quality 100.0 %
Test CRC E1DA666F
Copy CRC E1DA666F
Accurately ripped (confidence 22) [2F091680] (AR v2)
Copy OK
Track 9
Filename C:\My Documents\My FLAC\James Brown - The CD Of JB (1985) [FLAC] {Polydor}\09 - I Got You.wav
Pre-gap length 0:00:05.00
Peak level 78.1 %
Extraction speed 1.7 X
Track quality 100.0 %
Test CRC 09E3FA59
Copy CRC 09E3FA59
Accurately ripped (confidence 22) [4733BCD0] (AR v2)
Copy OK
Track 10
Filename C:\My Documents\My FLAC\James Brown - The CD Of JB (1985) [FLAC] {Polydor}\10 - Prisoner Of Love.wav
Pre-gap length 0:00:05.00
Peak level 70.6 %
Extraction speed 1.8 X
Track quality 100.0 %
Test CRC 0AFD718A
Copy CRC 0AFD718A
Accurately ripped (confidence 22) [AD2A8153] (AR v2)
Copy OK
Track 11
Filename C:\My Documents\My FLAC\James Brown - The CD Of JB (1985) [FLAC] {Polydor}\11 - I Got The Feelin' (Mono).wav
Pre-gap length 0:00:03.00
Peak level 84.3 %
Extraction speed 1.6 X
Track quality 99.9 %
Test CRC 0E6011FC
Copy CRC 0E6011FC
Accurately ripped (confidence 22) [3FBC3432] (AR v2)
Copy OK
Track 12
Filename C:\My Documents\My FLAC\James Brown - The CD Of JB (1985) [FLAC] {Polydor}\12 - Maybe The Last Time.wav
Pre-gap length 0:00:05.00
Peak level 76.3 %
Extraction speed 2.0 X
Track quality 100.0 %
Test CRC 69D6B600
Copy CRC 69D6B600
Accurately ripped (confidence 22) [A09948DF] (AR v2)
Copy OK
Track 13
Filename C:\My Documents\My FLAC\James Brown - The CD Of JB (1985) [FLAC] {Polydor}\13 - Licking Stick - Licking Stick.wav
Pre-gap length 0:00:04.00
Peak level 60.6 %
Extraction speed 1.7 X
Track quality 99.9 %
Test CRC 818EB20E
Copy CRC 818EB20E
Accurately ripped (confidence 22) [CB9926FE] (AR v2)
Copy OK
Track 14
Filename C:\My Documents\My FLAC\James Brown - The CD Of JB (1985) [FLAC] {Polydor}\14 - Mother Popcorn.wav
Pre-gap length 0:00:04.00
Peak level 72.2 %
Extraction speed 2.1 X
Track quality 100.0 %
Test CRC C868ED98
Copy CRC C868ED98
Accurately ripped (confidence 22) [12AF9F4A] (AR v2)
Copy OK
Track 15
Filename C:\My Documents\My FLAC\James Brown - The CD Of JB (1985) [FLAC] {Polydor}\15 - Papa's Got A Brand New Bag (Mono).wav
Pre-gap length 0:00:04.00
Peak level 78.7 %
Extraction speed 1.9 X
Track quality 100.0 %
Test CRC 3B5A6303
Copy CRC 3B5A6303
Accurately ripped (confidence 22) [90F51220] (AR v2)
Copy OK
Track 16
Filename C:\My Documents\My FLAC\James Brown - The CD Of JB (1985) [FLAC] {Polydor}\16 - Sex Machine.wav
Pre-gap length 0:00:04.00
Peak level 85.4 %
Extraction speed 0.7 X
Track quality 100.0 %
Test CRC 1100F048
Copy CRC 1100F048
Accurately ripped (confidence 22) [81F84A01] (AR v2)
Copy OK
Track 17
Filename C:\My Documents\My FLAC\James Brown - The CD Of JB (1985) [FLAC] {Polydor}\17 - The Payback.wav
Pre-gap length 0:00:04.00
Peak level 74.8 %
Extraction speed 2.3 X
Track quality 100.0 %
Test CRC CFA8342A
Copy CRC CFA8342A
Accurately ripped (confidence 22) [ACFEA147] (AR v2)
Copy OK
Track 18
Filename C:\My Documents\My FLAC\James Brown - The CD Of JB (1985) [FLAC] {Polydor}\18 - Please, Please, Please (Mono).wav
Pre-gap length 0:00:04.00
Peak level 79.6 %
Extraction speed 2.2 X
Track quality 100.0 %
Test CRC 1DD43FB7
Copy CRC 1DD43FB7
Accurately ripped (confidence 22) [F0DE9A5F] (AR v2)
Copy OK
All tracks accurately ripped
No errors occurred
End of status report
---- CUETools DB Plugin V2.1.6
[CTDB TOCID: R2JjMnlOk.5N26ml72yLYkkCtDk-] found
Submit result: R2JjMnlOk.5N26ml72yLYkkCtDk- has been confirmed
Track | CTDB Status
1 | (91/93) Accurately ripped
2 | (93/93) Accurately ripped
3 | (93/93) Accurately ripped
4 | (93/93) Accurately ripped
5 | (92/93) Accurately ripped
6 | (93/93) Accurately ripped
7 | (93/93) Accurately ripped
8 | (92/93) Accurately ripped
9 | (93/93) Accurately ripped
10 | (91/93) Accurately ripped
11 | (89/93) Accurately ripped
12 | (92/93) Accurately ripped
13 | (91/93) Accurately ripped
14 | (91/93) Accurately ripped
15 | (91/93) Accurately ripped
16 | (90/93) Accurately ripped, or (1/93) differs in 2579 samples @00:58:40,00:58:57-00:58:58,00:59:16-00:59:17,00:59:34-00:59:35,00:59:51-00:59:52,01:00:45-01:00:46,01:02:16-01:02:17,01:02:51-01:02:52,01:03:11-01:03:12,01:04:05-01:04:06,01:04:22-01:04:23,01:04:40,01:04:74-01:05:00,01:05:34-01:05:35,01:06:11-01:06:12,01:06:28-01:06:29,01:06:63-01:06:64,01:07:22-01:07:23,01:07:40-01:07:41,03:31:50-03:31:51,03:31:68-03:31:69,03:34:20,03:36:28-03:36:29,03:36:64-03:36:65,03:37:07,03:38:02-03:38:03,03:39:16,03:39:33-03:39:34,03:39:69,03:40:11-03:40:12,03:40:47-03:40:48,03:41:07-03:41:08,03:41:25-03:41:26,03:43:16-03:43:17,03:43:34-03:43:35,03:44:65-03:44:66,03:45:43-03:45:44,03:46:21-03:46:22
17 | (80/93) Accurately ripped
18 | (91/93) Accurately ripped
==== Log checksum 5986E87ECE57F906E6C1BFB88244D0A2C1B28FE64EE1D018C41B1E3C3D24D1EA ====
 
Содержание индексной карты (.CUE)
REM GENRE Soul
REM DATE 1985
REM DISCID 010D2712
REM COMMENT "ExactAudioCopy v1.1"
CATALOG 0042282571427
PERFORMER "James Brown"
TITLE "The CD Of JB"
FILE "01 - Doing It To Death.wav" WAVE
TRACK 01 AUDIO
TITLE "Doing It To Death"
PERFORMER "James Brown"
ISRC USF067300010
PREGAP 00:00:33
INDEX 01 00:00:00
TRACK 02 AUDIO
TITLE "Super Bad (Mono)"
PERFORMER "James Brown"
ISRC USF067000010
INDEX 00 05:23:00
FILE "02 - Super Bad (Mono).wav" WAVE
INDEX 01 00:00:00
TRACK 03 AUDIO
TITLE "Soul Power (Mono)"
PERFORMER "James Brown"
ISRC USF067100010
INDEX 00 02:59:00
FILE "03 - Soul Power (Mono).wav" WAVE
INDEX 01 00:00:00
TRACK 04 AUDIO
TITLE "Think"
PERFORMER "James Brown"
ISRC USF067300020
INDEX 00 03:01:50
FILE "04 - Think.wav" WAVE
INDEX 01 00:00:00
TRACK 05 AUDIO
TITLE "It's A Man's World (Mono)"
PERFORMER "James Brown"
ISRC USF067000020
INDEX 00 03:13:12
FILE "05 - It's A Man's World (Mono).wav" WAVE
INDEX 01 00:00:00
TRACK 06 AUDIO
TITLE "Try Me (I Need You) (Mono)"
PERFORMER "James Brown"
ISRC USF065800010
INDEX 00 03:14:63
FILE "06 - Try Me (I Need You) (Mono).wav" WAVE
INDEX 01 00:00:00
TRACK 07 AUDIO
TITLE "Bewildered (Mono)"
PERFORMER "James Brown"
ISRC USF066600010
INDEX 00 02:29:62
FILE "07 - Bewildered (Mono).wav" WAVE
INDEX 01 00:00:00
TRACK 08 AUDIO
TITLE "Out Of Sight"
PERFORMER "James Brown"
ISRC USF066400010
INDEX 00 02:23:13
FILE "08 - Out Of Sight.wav" WAVE
INDEX 01 00:00:00
TRACK 09 AUDIO
TITLE "I Got You"
PERFORMER "James Brown"
ISRC USF066500010
INDEX 00 02:22:50
FILE "09 - I Got You.wav" WAVE
INDEX 01 00:00:00
TRACK 10 AUDIO
TITLE "Prisoner Of Love"
PERFORMER "James Brown"
ISRC USF066700010
INDEX 00 02:26:25
FILE "10 - Prisoner Of Love.wav" WAVE
INDEX 01 00:00:00
TRACK 11 AUDIO
TITLE "I Got The Feelin' (Mono)"
PERFORMER "James Brown"
ISRC USF066800010
INDEX 00 02:27:37
FILE "11 - I Got The Feelin' (Mono).wav" WAVE
INDEX 01 00:00:00
TRACK 12 AUDIO
TITLE "Maybe The Last Time"
PERFORMER "James Brown"
ISRC USF066800020
INDEX 00 02:40:25
FILE "12 - Maybe The Last Time.wav" WAVE
INDEX 01 00:00:00
TRACK 13 AUDIO
TITLE "Licking Stick - Licking Stick"
PERFORMER "James Brown"
ISRC USF067000030
INDEX 00 03:00:63
FILE "13 - Licking Stick - Licking Stick.wav" WAVE
INDEX 01 00:00:00
TRACK 14 AUDIO
TITLE "Mother Popcorn"
PERFORMER "James Brown"
ISRC USF066900010
INDEX 00 02:47:50
FILE "14 - Mother Popcorn.wav" WAVE
INDEX 01 00:00:00
TRACK 15 AUDIO
TITLE "Papa's Got A Brand New Bag (Mono)"
PERFORMER "James Brown"
ISRC USF066500020
INDEX 00 03:11:37
FILE "15 - Papa's Got A Brand New Bag (Mono).wav" WAVE
INDEX 01 00:00:00
TRACK 16 AUDIO
TITLE "Sex Machine"
PERFORMER "James Brown"
ISRC USF067500011
INDEX 00 02:06:63
FILE "16 - Sex Machine.wav" WAVE
INDEX 01 00:00:00
TRACK 17 AUDIO
TITLE "The Payback"
PERFORMER "James Brown"
ISRC USF067400010
INDEX 00 05:04:12
FILE "17 - The Payback.wav" WAVE
INDEX 01 00:00:00
TRACK 18 AUDIO
TITLE "Please, Please, Please (Mono)"
PERFORMER "James Brown"
ISRC USF065600010
INDEX 00 03:21:25
FILE "18 - Please, Please, Please (Mono).wav" WAVE
INDEX 01 00:00:00
Приватный:
Нет (DHT включён)
Размер:
299.29 Мб (313,826,383 байт) » файлов: 30
Участники:
0 раздают, 0 качают (0 участников всего)
Внешние участники:
3 раздают, 1 качают (4 участников всего) [ Обновить ]
Есть вопросы - пишите личное сообщение пользователю M0p94ok.
14:01
38
Нет комментариев. Ваш будет первым!