Поиск

(Soul, R&B) [CD] James Brown - CD Of JB II: Cold Sweat & Other Soul Classics - 1987, FLAC (tracks+.cue), lossless

(Soul, R&B) [CD] James Brown - CD Of JB II: Cold Sweat & Other Soul Classics - 1987, FLAC (tracks+.cue), lossless
Треклист:
James Brown - CD Of JB II: Cold Sweat & Other Soul Classics Жанр: Soul, R&B
Носитель: CD
Страна-производитель диска (релиза): USA
Год издания: 1987
Издатель (лейбл): Polydor/PolyGram Records, Inc.
Номер по каталогу: 831 700-2
Аудиокодек: FLAC (*.flac)
Тип рипа: tracks+.cue
Битрейт аудио: lossless
Продолжительность: 64:59
Источник (релизер): TestTickles
Наличие сканов в содержимом раздачи: да
Треклист:
01. Good Good Lovin' (2:18)
02. I'll Go Crazy (2:08)
03. Think (Original) (2:47)
04. Night Train (3:35)
05. Cold Sweat (7:30)
06. I Can't Stand Myself (When You Touch Me) (3:28)
07. Say It Loud - I'm Black And I'm Proud (4:48)
08. Give It Up Or Turnit A Loose (Original) (3:20)
09. I Don't Want Nobody To Give Me Nothing (Open Up The Door, I'll Get It Myself) (7:03)
10. I'm A Greedy Man (6:32)
11. Make It Funky (7:25)
12. Get On The Good Foot (5:20)
13. Papa Don't Take No Mess (Part 1) (4:36)
14. Get Up Offa That Thing (4:10)
 
 
AllMusic Review by Ron Wynn
An excellent follow-up package that includes various James Brown hits from both the soul and funk eras, beginning with "Cold Sweat" and continuing into the '70s. It's also not as vital since the issue of the 1991 boxed set, but contains several fine songs.

 
Лог создания рипа
Exact Audio Copy V1.1 from 23. June 2015
EAC extraction logfile from 6. May 2017, 16:14
James Brown / CD Of JB II
Used drive : TEAC DVD-ROM DV-28SW Adapter: 1 ID: 0
Read mode : Secure
Utilize accurate stream : Yes
Defeat audio cache : Yes
Make use of C2 pointers : No
Read offset correction : 6
Overread into Lead-In and Lead-Out : No
Fill up missing offset samples with silence : Yes
Delete leading and trailing silent blocks : No
Null samples used in CRC calculations : Yes
Used interface : Native Win32 interface for Win NT & 2000
Gap handling : Appended to previous track
Used output format : Internal WAV Routines
Sample format : 44.100 Hz; 16 Bit; Stereo
TOC of the extracted CD
Track | Start | Length | Start sector | End sector
---------------------------------------------------------
1 | 0:00.32 | 2:17.38 | 32 | 10344
2 | 2:17.70 | 2:07.57 | 10345 | 19926
3 | 4:25.52 | 2:47.35 | 19927 | 32486
4 | 7:13.12 | 3:34.53 | 32487 | 48589
5 | 10:47.65 | 7:29.52 | 48590 | 82316
6 | 18:17.42 | 3:28.28 | 82317 | 97944
7 | 21:45.70 | 4:48.20 | 97945 | 119564
8 | 26:34.15 | 3:19.60 | 119565 | 134549
9 | 29:54.00 | 7:03.17 | 134550 | 166291
10 | 36:57.17 | 6:31.43 | 166292 | 195659
11 | 43:28.60 | 7:24.60 | 195660 | 229019
12 | 50:53.45 | 5:20.10 | 229020 | 253029
13 | 56:13.55 | 4:35.50 | 253030 | 273704
14 | 60:49.30 | 4:10.17 | 273705 | 292471
Track 1
Filename C:\My Documents\My FLAC\James Brown - CD Of JB II (1987) [FLAC] {Polydor}\01 - Good Good Lovin'.wav
Pre-gap length 0:00:02.32
Peak level 74.1 %
Extraction speed 1.0 X
Track quality 100.0 %
Test CRC 2B6B1B31
Copy CRC 2B6B1B31
Accurately ripped (confidence 4) [F4B789D8] (AR v2)
Copy OK
Track 2
Filename C:\My Documents\My FLAC\James Brown - CD Of JB II (1987) [FLAC] {Polydor}\02 - I'll Go Crazy.wav
Pre-gap length 0:00:02.06
Peak level 85.6 %
Extraction speed 1.1 X
Track quality 100.0 %
Test CRC 5B91F4AE
Copy CRC 5B91F4AE
Accurately ripped (confidence 4) [6E785AAF] (AR v2)
Copy OK
Track 3
Filename C:\My Documents\My FLAC\James Brown - CD Of JB II (1987) [FLAC] {Polydor}\03 - Think (Original).wav
Pre-gap length 0:00:01.26
Peak level 86.4 %
Extraction speed 1.2 X
Track quality 100.0 %
Test CRC 0C13F70D
Copy CRC 0C13F70D
Accurately ripped (confidence 4) [E5EAB3EF] (AR v2)
Copy OK
Track 4
Filename C:\My Documents\My FLAC\James Brown - CD Of JB II (1987) [FLAC] {Polydor}\04 - Night Train.wav
Pre-gap length 0:00:02.26
Peak level 69.1 %
Extraction speed 1.0 X
Track quality 99.9 %
Test CRC 4A307F55
Copy CRC 4A307F55
Accurately ripped (confidence 4) [63831F7C] (AR v2)
Copy OK
Track 5
Filename C:\My Documents\My FLAC\James Brown - CD Of JB II (1987) [FLAC] {Polydor}\05 - Cold Sweat.wav
Pre-gap length 0:00:02.64
Peak level 100.0 %
Extraction speed 1.7 X
Track quality 100.0 %
Test CRC 3EAC0A5E
Copy CRC 3EAC0A5E
Accurately ripped (confidence 4) [734616A9] (AR v2)
Copy OK
Track 6
Filename C:\My Documents\My FLAC\James Brown - CD Of JB II (1987) [FLAC] {Polydor}\06 - I Can't Stand Myself (When You Touch Me).wav
Pre-gap length 0:00:02.63
Peak level 100.0 %
Extraction speed 0.4 X
Track quality 100.0 %
Test CRC 85B84251
Copy CRC 85B84251
Accurately ripped (confidence 4) [954585D6] (AR v2)
Copy OK
Track 7
Filename C:\My Documents\My FLAC\James Brown - CD Of JB II (1987) [FLAC] {Polydor}\07 - Say It Loud - I'm Black And I'm Proud.wav
Pre-gap length 0:00:02.26
Peak level 100.0 %
Extraction speed 1.8 X
Track quality 100.0 %
Test CRC 462ABC09
Copy CRC 462ABC09
Accurately ripped (confidence 3) [A39C7C42] (AR v2)
Copy OK
Track 8
Filename C:\My Documents\My FLAC\James Brown - CD Of JB II (1987) [FLAC] {Polydor}\08 - Give It Up Or Turnit A Loose (Original).wav
Pre-gap length 0:00:01.64
Peak level 100.0 %
Extraction speed 1.8 X
Track quality 100.0 %
Test CRC B0A5F596
Copy CRC B0A5F596
Accurately ripped (confidence 4) [F39616E8] (AR v2)
Copy OK
Track 9
Filename C:\My Documents\My FLAC\James Brown - CD Of JB II (1987) [FLAC] {Polydor}\09 - I Don't Want Nobody To Give Me Nothing (Open Up The Door, I'll Get It Myself).wav
Pre-gap length 0:00:02.64
Peak level 100.0 %
Extraction speed 2.1 X
Track quality 100.0 %
Test CRC CB12AF01
Copy CRC CB12AF01
Accurately ripped (confidence 4) [471B6D45] (AR v2)
Copy OK
Track 10
Filename C:\My Documents\My FLAC\James Brown - CD Of JB II (1987) [FLAC] {Polydor}\10 - I'm A Greedy Man.wav
Pre-gap length 0:00:01.63
Peak level 100.0 %
Extraction speed 2.2 X
Track quality 100.0 %
Test CRC 02B4A825
Copy CRC 02B4A825
Accurately ripped (confidence 4) [67AEB921] (AR v2)
Copy OK
Track 11
Filename C:\My Documents\My FLAC\James Brown - CD Of JB II (1987) [FLAC] {Polydor}\11 - Make It Funky.wav
Pre-gap length 0:00:01.64
Peak level 100.0 %
Extraction speed 2.4 X
Track quality 100.0 %
Test CRC 11570A35
Copy CRC 11570A35
Accurately ripped (confidence 4) [111398A5] (AR v2)
Copy OK
Track 12
Filename C:\My Documents\My FLAC\James Brown - CD Of JB II (1987) [FLAC] {Polydor}\12 - Get On The Good Foot.wav
Pre-gap length 0:00:02.64
Peak level 95.5 %
Extraction speed 2.4 X
Track quality 100.0 %
Test CRC EE21BD1E
Copy CRC EE21BD1E
Accurately ripped (confidence 4) [4F6C84E7] (AR v2)
Copy OK
Track 13
Filename C:\My Documents\My FLAC\James Brown - CD Of JB II (1987) [FLAC] {Polydor}\13 - Papa Don't Take No Mess (Part 1).wav
Pre-gap length 0:00:02.64
Peak level 93.3 %
Extraction speed 2.4 X
Track quality 100.0 %
Test CRC 9DEDEF70
Copy CRC 9DEDEF70
Accurately ripped (confidence 4) [4E14766E] (AR v2)
Copy OK
Track 14
Filename C:\My Documents\My FLAC\James Brown - CD Of JB II (1987) [FLAC] {Polydor}\14 - Get Up Offa That Thing.wav
Pre-gap length 0:00:01.64
Peak level 100.0 %
Extraction speed 2.5 X
Track quality 100.0 %
Test CRC 80225E49
Copy CRC 80225E49
Accurately ripped (confidence 4) [F0A9F854] (AR v2)
Copy OK
All tracks accurately ripped
No errors occurred
End of status report
---- CUETools DB Plugin V2.1.6
[CTDB TOCID: r04Td14lbz9pGINl7rZlwpU.dfs-] found
Submit result: r04Td14lbz9pGINl7rZlwpU.dfs- has been confirmed
Track | CTDB Status
1 | (14/14) Accurately ripped
2 | (14/14) Accurately ripped
3 | (14/14) Accurately ripped
4 | (14/14) Accurately ripped
5 | (14/14) Accurately ripped
6 | (14/14) Accurately ripped
7 | (14/14) Accurately ripped
8 | (14/14) Accurately ripped
9 | (13/14) Accurately ripped
10 | (14/14) Accurately ripped
11 | (14/14) Accurately ripped
12 | (14/14) Accurately ripped
13 | (14/14) Accurately ripped
14 | (14/14) Accurately ripped
==== Log checksum 8E19AC9939D29D31DF2F53642AD915C98D7971CB9D93ED26947B66623E930DAF ====
 
Содержание индексной карты (.CUE)
REM GENRE Soul
REM DATE 1987
REM DISCID CC0F3B0E
REM COMMENT "ExactAudioCopy v1.1"
CATALOG 0000000000000
PERFORMER "James Brown"
TITLE "CD Of JB II"
FILE "01 - Good Good Lovin'.wav" WAVE
TRACK 01 AUDIO
TITLE "Good Good Lovin'"
PERFORMER "James Brown"
PREGAP 00:00:32
INDEX 01 00:00:00
TRACK 02 AUDIO
TITLE "I'll Go Crazy"
PERFORMER "James Brown"
INDEX 00 02:15:32
FILE "02 - I'll Go Crazy.wav" WAVE
INDEX 01 00:00:00
TRACK 03 AUDIO
TITLE "Think (Original)"
PERFORMER "James Brown"
INDEX 00 02:06:31
FILE "03 - Think (Original).wav" WAVE
INDEX 01 00:00:00
TRACK 04 AUDIO
TITLE "Night Train"
PERFORMER "James Brown"
INDEX 00 02:45:09
FILE "04 - Night Train.wav" WAVE
INDEX 01 00:00:00
TRACK 05 AUDIO
TITLE "Cold Sweat"
PERFORMER "James Brown"
INDEX 00 03:31:64
FILE "05 - Cold Sweat.wav" WAVE
INDEX 01 00:00:00
TRACK 06 AUDIO
TITLE "I Can't Stand Myself (When You Touch Me)"
PERFORMER "James Brown"
INDEX 00 07:26:64
FILE "06 - I Can't Stand Myself (When You Touch Me).wav" WAVE
INDEX 01 00:00:00
TRACK 07 AUDIO
TITLE "Say It Loud - I'm Black And I'm Proud"
PERFORMER "James Brown"
INDEX 00 03:26:02
FILE "07 - Say It Loud - I'm Black And I'm Proud.wav" WAVE
INDEX 01 00:00:00
TRACK 08 AUDIO
TITLE "Give It Up Or Turnit A Loose (Original)"
PERFORMER "James Brown"
INDEX 00 04:46:31
FILE "08 - Give It Up Or Turnit A Loose (Original).wav" WAVE
INDEX 01 00:00:00
TRACK 09 AUDIO
TITLE "I Don't Want Nobody To Give Me Nothing (Open Up The Door, I'll Get It Myself)"
PERFORMER "James Brown"
INDEX 00 03:16:71
FILE "09 - I Don't Want Nobody To Give Me Nothing.wav" WAVE
INDEX 01 00:00:00
TRACK 10 AUDIO
TITLE "I'm A Greedy Man"
PERFORMER "James Brown"
INDEX 00 07:01:29
FILE "10 - I'm A Greedy Man.wav" WAVE
INDEX 01 00:00:00
TRACK 11 AUDIO
TITLE "Make It Funky"
PERFORMER "James Brown"
INDEX 00 06:29:54
FILE "11 - Make It Funky.wav" WAVE
INDEX 01 00:00:00
TRACK 12 AUDIO
TITLE "Get On The Good Foot"
PERFORMER "James Brown"
INDEX 00 07:21:71
FILE "12 - Get On The Good Foot.wav" WAVE
INDEX 01 00:00:00
TRACK 13 AUDIO
TITLE "Papa Don't Take No Mess (Part 1)"
PERFORMER "James Brown"
INDEX 00 05:17:21
FILE "13 - Papa Don't Take No Mess (Part 1).wav" WAVE
INDEX 01 00:00:00
TRACK 14 AUDIO
TITLE "Get Up Offa That Thing"
PERFORMER "James Brown"
INDEX 00 04:33:61
FILE "14 - Get Up Offa That Thing.wav" WAVE
INDEX 01 00:00:00
Приватный:
Нет (DHT включён)
Размер:
421.61 Мб (442,085,558 байт) » файлов: 26
Участники:
0 раздают, 0 качают (0 участников всего)
Внешние участники:
8 раздают, 2 качают (10 участников всего) [ Обновить ]
Есть вопросы - пишите личное сообщение пользователю M0p94ok.
14:02
91
Нет комментариев. Ваш будет первым!