Поиск

(Funk, Soul, R&B) [CD] James Brown - Motherlode - 1988, FLAC (tracks+.cue), lossless

(Funk, Soul, R&B) [CD] James Brown - Motherlode - 1988, FLAC (tracks+.cue), lossless
Треклист:
James Brown - Motherlode Жанр: Funk, Soul, R&B
Носитель: CD
Страна-производитель диска (релиза): USA
Год издания: 1988
Издатель (лейбл): Polydor/PolyGram Records, Inc.
Номер по каталогу: 837 126-2
Аудиокодек: FLAC (*.flac)
Тип рипа: tracks+.cue
Битрейт аудио: lossless
Продолжительность: 55:26
Источник (релизер): TestTickles
Наличие сканов в содержимом раздачи: да
Треклист:
01. There It Is (Live) (3:08)
02. She's The One (2:54)
03. Since You Been Gone (5:36)
04. Untitled Instrumental (3:24)
05. Say It Loud, Say It Live (4:52)
06. Can I Get Some Help (5:01)
07. You Got To Have A Mother For Me (5:13)
08. Funk Bomb (Instrumental) (4:16)
09. Baby, Here I Come (4:30)
10. People Get Up And Drive Your Funky Soul (Remix) (9:07)
11. I Got Ants In My Pants (And I Want To Dance) (Remix) (7:26)
 
 
Состав
Alto Saxophone, Tenor Saxophone – Maceo Parker (tracks: 2, 5 to 10)
Bass – 'Sweet' Charles Sherrell (tracks: 2, 5 to 7, 9)
Drums – Clyde Stubblefield (tracks: 3 to 5, 8), John Jabo Starks (tracks: 1, 4, 5, 9, 11), Melvin Parker (tracks: 2, 5, 6)
Guitar – Alfonzo Kellum (tracks: 2, 5 to 9), Hearlon Cheese Martin (tracks: 1, 4, 11), Jimmy Nolen (tracks: 1, 2, 5 to 10)
Percussion – Johnny Griggs (tracks: 1, 3, 4, 10)
Producer – James Brown
Tenor Saxophone – Eldee Williams (tracks: 2, 5, 9)
Tenor Saxophone, Baritone Saxophone – St-Clair Pinckney (tracks: 1, 4 to 11)
Trombone – Fred Wesley (tracks: 1, 2, 5 to 7, 9 to 11)
Trumpet – Jerone Jasaan Sanford (tracks: 1, 4, 11), Joseph Davis (tracks: 2, 5, 6, 9), Richard Griffith (tracks: 2, 5 to 7, 9)
Vocals – James Brown (tracks: 1 to 3, 5 to 7, 9 to 11)
 
AllMusic Review by Jason Elias
During the mid- and late '80s, after Brown and Polydor parted ways, the label began to reissue his work, some of which had been out of print for close to a decade. Motherlode is one of the finest compilations. Coming a few years after In the Jungle Groove, a compilation effort that culled some of Brown's harder-edged 1969-1971 tracks, this covers 1969-1973 and has the smoothness of a regular release effort.
By this point, Motherlode producers Cliff White and Tim Rogers began to know more about Brown's "classic" work than he did and could do compilations where the tracks were all potent. This set starts off with an explosive live take of "There It Is" recorded at the Apollo in 1972. 1969's "She's the One" with his late-'60s orchestra has great guitar work from both Jimmy "Chank" Nolan and Alphonso "Country" Kellum. Since most of the tracks here weren't hits, or were even released, it provides a fresh interpretation of Brown's production style and the skills of his players. "Untitled Instrumental" features Brown's rock and psychedelic-influenced unit, with included guitarist Phelps Collins and his brother, Bootsy Collins, and his singular bass skills. The heart of this CD, however, is "People Drive Your Funky Soul." Originally on Slaughter's Big Rip Off in a too brief 3:50 version, Motherlode brings the entire take to the public for the first time. The track, which manages to subtly cross reggae with bebop, again features Brown with his 1971-1975 band and it exhibits their chemistry and the band's unbelievable versatility. Although Motherlode has been lost in the shuffle due to a plethora of other compilations, this is still illuminating and enjoyable.

 
Лог создания рипа
Exact Audio Copy V1.1 from 23. June 2015
EAC extraction logfile from 8. May 2017, 11:40
James Brown / Motherlode
Used drive : TEAC DVD-ROM DV-28SW Adapter: 1 ID: 0
Read mode : Secure
Utilize accurate stream : Yes
Defeat audio cache : Yes
Make use of C2 pointers : No
Read offset correction : 6
Overread into Lead-In and Lead-Out : No
Fill up missing offset samples with silence : Yes
Delete leading and trailing silent blocks : No
Null samples used in CRC calculations : Yes
Used interface : Native Win32 interface for Win NT & 2000
Gap handling : Appended to previous track
Used output format : Internal WAV Routines
Sample format : 44.100 Hz; 16 Bit; Stereo
TOC of the extracted CD
Track | Start | Length | Start sector | End sector
---------------------------------------------------------
1 | 0:00.33 | 3:07.65 | 33 | 14122
2 | 3:08.23 | 2:54.35 | 14123 | 27207
3 | 6:02.58 | 5:35.60 | 27208 | 52392
4 | 11:38.43 | 3:24.10 | 52393 | 67702
5 | 15:02.53 | 4:52.10 | 67703 | 89612
6 | 19:54.63 | 5:00.45 | 89613 | 112157
7 | 24:55.33 | 5:12.47 | 112158 | 135604
8 | 30:08.05 | 4:15.60 | 135605 | 154789
9 | 34:23.65 | 4:29.38 | 154790 | 175002
10 | 38:53.28 | 9:07.27 | 175003 | 216054
11 | 48:00.55 | 7:25.73 | 216055 | 249502
Track 1
Filename C:\My Documents\My FLAC\James Brown - Motherlode (1988) [FLAC] {Polydor}\01 - There It Is (Live).wav
Pre-gap length 0:00:02.33
Peak level 75.3 %
Extraction speed 2.2 X
Track quality 99.9 %
Test CRC E33E527B
Copy CRC E33E527B
Accurately ripped (confidence 9) [FA2693B6] (AR v2)
Copy OK
Track 2
Filename C:\My Documents\My FLAC\James Brown - Motherlode (1988) [FLAC] {Polydor}\02 - She's The One.wav
Pre-gap length 0:00:01.45
Peak level 100.0 %
Extraction speed 2.9 X
Track quality 100.0 %
Test CRC 572D8C77
Copy CRC 572D8C77
Accurately ripped (confidence 9) [7A1F2CF5] (AR v2)
Copy OK
Track 3
Filename C:\My Documents\My FLAC\James Brown - Motherlode (1988) [FLAC] {Polydor}\03 - Since You Been Gone.wav
Pre-gap length 0:00:02.06
Peak level 76.2 %
Extraction speed 2.7 X
Track quality 100.0 %
Test CRC 5E9D72CB
Copy CRC 5E9D72CB
Accurately ripped (confidence 9) [7CD766C1] (AR v2)
Copy OK
Track 4
Filename C:\My Documents\My FLAC\James Brown - Motherlode (1988) [FLAC] {Polydor}\04 - Untitled Instrumental.wav
Pre-gap length 0:00:01.66
Peak level 76.4 %
Extraction speed 3.5 X
Track quality 100.0 %
Test CRC 6962758C
Copy CRC 6962758C
Accurately ripped (confidence 9) [D3530C80] (AR v2)
Copy OK
Track 5
Filename C:\My Documents\My FLAC\James Brown - Motherlode (1988) [FLAC] {Polydor}\05 - Say It Loud, Say It Live.wav
Pre-gap length 0:00:02.01
Peak level 64.2 %
Extraction speed 3.4 X
Track quality 99.9 %
Test CRC 64757F17
Copy CRC 64757F17
Accurately ripped (confidence 9) [99D7559D] (AR v2)
Copy OK
Track 6
Filename C:\My Documents\My FLAC\James Brown - Motherlode (1988) [FLAC] {Polydor}\06 - Can I Get Some Help.wav
Pre-gap length 0:00:02.11
Peak level 91.1 %
Extraction speed 3.8 X
Track quality 100.0 %
Test CRC 2E9B96DD
Copy CRC 2E9B96DD
Accurately ripped (confidence 9) [00DB9AED] (AR v2)
Copy OK
Track 7
Filename C:\My Documents\My FLAC\James Brown - Motherlode (1988) [FLAC] {Polydor}\07 - You Got To Have A Mother For Me.wav
Pre-gap length 0:00:02.56
Peak level 69.0 %
Extraction speed 4.1 X
Track quality 100.0 %
Test CRC CB7E9ADA
Copy CRC CB7E9ADA
Accurately ripped (confidence 9) [43F5A177] (AR v2)
Copy OK
Track 8
Filename C:\My Documents\My FLAC\James Brown - Motherlode (1988) [FLAC] {Polydor}\08 - Funk Bomb (Instrumental).wav
Pre-gap length 0:00:01.27
Peak level 79.3 %
Extraction speed 3.9 X
Track quality 100.0 %
Test CRC 4223AC8E
Copy CRC 4223AC8E
Accurately ripped (confidence 8) [34CBF380] (AR v2)
Copy OK
Track 9
Filename C:\My Documents\My FLAC\James Brown - Motherlode (1988) [FLAC] {Polydor}\09 - Baby, Here I Come.wav
Pre-gap length 0:00:02.12
Peak level 89.6 %
Extraction speed 4.0 X
Track quality 100.0 %
Test CRC CC368C01
Copy CRC CC368C01
Accurately ripped (confidence 8) [4B5D0C01] (AR v2)
Copy OK
Track 10
Filename C:\My Documents\My FLAC\James Brown - Motherlode (1988) [FLAC] {Polydor}\10 - People Get Up And Drive Your Funky Soul (Remix).wav
Pre-gap length 0:00:00.51
Peak level 88.2 %
Extraction speed 4.2 X
Track quality 100.0 %
Test CRC 403CB23F
Copy CRC 403CB23F
Accurately ripped (confidence 8) [B559C821] (AR v2)
Copy OK
Track 11
Filename C:\My Documents\My FLAC\James Brown - Motherlode (1988) [FLAC] {Polydor}\11 - I Got Ants In My Pants (And I Want To Dance) (Remix).wav
Pre-gap length 0:00:02.02
Peak level 94.6 %
Extraction speed 1.1 X
Track quality 100.0 %
Test CRC BFA7F481
Copy CRC BFA7F481
Accurately ripped (confidence 8) [C4CB92EE] (AR v2)
Copy OK
All tracks accurately ripped
No errors occurred
End of status report
---- CUETools DB Plugin V2.1.6
[CTDB TOCID: AFsyMG6vuPldDtCyo_jfq44b7aU-] found
Submit result: AFsyMG6vuPldDtCyo_jfq44b7aU- has been submitted
Track | CTDB Status
1 | (6/7) Accurately ripped
2 | (5/7) Accurately ripped
3 | (6/7) Accurately ripped
4 | (6/7) Accurately ripped
5 | (6/7) Accurately ripped
6 | (6/7) Accurately ripped
7 | (6/7) Accurately ripped
8 | (6/7) Accurately ripped
9 | (6/7) Accurately ripped
10 | (1/7) Accurately ripped, or (5/7) differs in 1356 samples @06:45:49-06:45:50
11 | (6/7) Accurately ripped
If you are sure that your rip contains errors, you can use CUETools to repair it.
==== Log checksum F132F6E0DB29224CD808AE17DCB744910EAD9330C8A999D6DC1038323504070E ====
 
Содержание индексной карты (.CUE)
REM GENRE Soul
REM DATE 1988
REM DISCID 8B0CFE0B
REM COMMENT "ExactAudioCopy v1.1"
CATALOG 0000000000000
PERFORMER "James Brown"
TITLE "Motherlode"
FILE "01 - There It Is (Live).wav" WAVE
TRACK 01 AUDIO
TITLE "There It Is (Live)"
PERFORMER "James Brown"
PREGAP 00:00:33
INDEX 01 00:00:00
TRACK 02 AUDIO
TITLE "She's The One"
PERFORMER "James Brown"
INDEX 00 03:06:20
FILE "02 - She's The One.wav" WAVE
INDEX 01 00:00:00
TRACK 03 AUDIO
TITLE "Since You Been Gone"
PERFORMER "James Brown"
INDEX 00 02:52:29
FILE "03 - Since You Been Gone.wav" WAVE
INDEX 01 00:00:00
TRACK 04 AUDIO
TITLE "Untitled Instrumental"
PERFORMER "James Brown"
INDEX 00 05:33:69
FILE "04 - Untitled Instrumental.wav" WAVE
INDEX 01 00:00:00
TRACK 05 AUDIO
TITLE "Say It Loud, Say It Live"
PERFORMER "James Brown"
INDEX 00 03:22:09
FILE "05 - Say It Loud, Say It Live.wav" WAVE
INDEX 01 00:00:00
TRACK 06 AUDIO
TITLE "Can I Get Some Help"
PERFORMER "James Brown"
INDEX 00 04:49:74
FILE "06 - Can I Get Some Help.wav" WAVE
INDEX 01 00:00:00
TRACK 07 AUDIO
TITLE "You Got To Have A Mother For Me"
PERFORMER "James Brown"
INDEX 00 04:57:64
FILE "07 - You Got To Have A Mother For Me.wav" WAVE
INDEX 01 00:00:00
TRACK 08 AUDIO
TITLE "Funk Bomb (Instrumental)"
PERFORMER "James Brown"
INDEX 00 05:11:20
FILE "08 - Funk Bomb (Instrumental).wav" WAVE
INDEX 01 00:00:00
TRACK 09 AUDIO
TITLE "Baby, Here I Come"
PERFORMER "James Brown"
INDEX 00 04:13:48
FILE "09 - Baby, Here I Come.wav" WAVE
INDEX 01 00:00:00
TRACK 10 AUDIO
TITLE "People Get Up And Drive Your Funky Soul (Remix)"
PERFORMER "James Brown"
INDEX 00 04:28:62
FILE "10 - People Get Up And Drive Your Funky Soul (Remix).wav" WAVE
INDEX 01 00:00:00
TRACK 11 AUDIO
TITLE "I Got Ants In My Pants (And I Want To Dance) (Remix)"
PERFORMER "James Brown"
INDEX 00 09:05:25
FILE "11 - I Got Ants In My Pants (And I Want To Dance) (Remix).wav" WAVE
INDEX 01 00:00:00
 
CUETools log
[CUETools log; Date: 11.07.2017 14:46:33; Version: 2.0.9]
Pregap length 00:00:33.
[AccurateRip ID: 0013bf6b-00b0b003-8b0cfe0b] found.
Track [ CRC ] Status
01 [e02da4c3] (05/20) Accurately ripped
02 [27880d4b] (05/20) Accurately ripped
03 [144c0679] (05/20) Accurately ripped
04 [01b11042] (05/20) Accurately ripped
05 [57b207dc] (05/20) Accurately ripped
06 [95f2b05b] (05/20) Accurately ripped
07 [f1fe9f9b] (05/20) Accurately ripped
08 [616c7a9f] (05/19) Accurately ripped
09 [bfaf6719] (05/19) Accurately ripped
10 [9c2849b1] (05/19) Accurately ripped
11 [06969e30] (05/19) Accurately ripped
Offsetted by 1570:
01 [87f9133d] (02/20) Accurately ripped
02 [5bf2e810] (02/20) Accurately ripped
03 [5cee6a29] (02/20) Accurately ripped
04 [9bb60b7b] (02/20) Accurately ripped
05 [a24787cf] (02/20) Accurately ripped
06 [1c827b40] (02/20) Accurately ripped
07 [8217f918] (02/20) Accurately ripped
08 [b21080a1] (02/19) Accurately ripped
09 [bf5dd4a4] (02/19) Accurately ripped
10 [fe584c2d] (05/19) No match but offset
11 [835694fa] (02/19) Accurately ripped
Track Peak [ CRC32 ] [W/O NULL] [ LOG ]
-- 100,0 [9E26DBC5] [1118BCEF]
01 75,3 [E33E527B] [C94F15FA] CRC32
02 100,0 [572D8C77] [6C19D6F2] CRC32
03 76,2 [5E9D72CB] [ABB78E83] CRC32
04 76,4 [6962758C] [FC228984] CRC32
05 64,2 [64757F17] [11627E66] CRC32
06 91,1 [2E9B96DD] [56E08C3F] CRC32
07 69,0 [CB7E9ADA] [47E9DFB9] CRC32
08 79,3 [4223AC8E] [6BD5E6AF] CRC32
09 89,6 [CC368C01] [2508822F] CRC32
10 88,2 [403CB23F] [3003F771] CRC32
11 94,6 [BFA7F481] [FB0644AE] CRC32
Приватный:
Нет (DHT включён)
Размер:
319.67 Мб (335,197,478 байт) » файлов: 23
Участники:
0 раздают, 1 качают (1 участников всего)
Внешние участники:
8 раздают, 2 качают (10 участников всего) [ Обновить ]
Есть вопросы - пишите личное сообщение пользователю M0p94ok.
14:02
670
Нет комментариев. Ваш будет первым!