Поиск

(Funk / Soul) [CD] Norman Connors - Love From The Sun / Slew Foot - 2013, FLAC (image+.cue), lossless

(Funk / Soul) [CD] Norman Connors - Love From The Sun / Slew Foot - 2013, FLAC (image+.cue), lossless
Треклист:
Norman Connors - Love From The Sun / Slew Foot Жанр: Funk / Soul
Носитель: CD
Страна-производитель диска (релиза): USA
Год издания: 2013
Издатель (лейбл): Funky Town Grooves
Номер по каталогу: CSS-004
Аудиокодек: FLAC (*.flac)
Тип рипа: image+.cue
Битрейт аудио: lossless
Продолжительность: 75:44
Rip by M@ce
Наличие сканов в содержимом раздачи: да
Треклист:
Love From The Sun (1974)
01. Revelation (9:12)
02. Carlos II (6:12)
03. Drums From The World (5:44)
04. Love From The Sun (8:20)
05. Kumakucha (The Sun Has Risen) (6:43)
06. Holy Waters (5:32)
Slew Foot (1974)
07. Mother Of The Future (6:52)
08. Back On The Street (4:05)
09. Welcome (7:17)
10. Slew Foot (3:19)
11. Dreams (6:16)
12. Chuka (3:30)
13. Jump Street (2:40)
 
 
AllMusic Review by Andy Kellman
In 2013, Funky Town Grooves reissued a significant portion of Norman Connors' discography as a leader slash highly connected talent organizer. Along with straightforward Dance of Magic/Dark of Light and You Are My Starship/Aquarian Dream two-for-one releases, as well as individualized bonus-track-enhanced reissues of Invitation and Take It to the Limit, there was this -- a pairing of Connors' 1974 Buddah dates. Among the highlights: a gorgeous eight-minute "Love from the Sun," a storming version of Carlos Garnett's "Mother of the Future" (with Jean Carn at full, jaw-dropping power), and Reggie Lucas' funky instrumental "Slew Foot."

 
Лог создания рипа
Exact Audio Copy V1.3 from 2. September 2016
EAC extraction logfile from 26. June 2017, 11:53
Norman Connors / Love From The Sun / Slew Foot
Used drive : Memorex 52MAXX 3252AJ1 Adapter: 1 ID: 1
Read mode : Secure
Utilize accurate stream : Yes
Defeat audio cache : Yes
Make use of C2 pointers : No
Read offset correction : 6
Overread into Lead-In and Lead-Out : No
Fill up missing offset samples with silence : Yes
Delete leading and trailing silent blocks : No
Null samples used in CRC calculations : Yes
Used interface : Native Win32 interface for Win NT & 2000
Used output format : User Defined Encoder
Selected bitrate : 896 kBit/s
Quality : High
Add ID3 tag : No
Command line compressor : C:\Program Files (x86)\Exact Audio Copy\Flac\flac.exe
Additional command line options : %ishigh%-V -p -l 12 -b 4096 -m -e -r 8%ishigh%%islow%-5%islow% --replay-gain -T "ARTIST=%artist%" -T "ALBUM=%albumtitle%" -T "TITLE=%title%" -T "DATE=%year%" -T "TRACKNUMBER=%tracknr%" -T "GENRE=%genre%" -T "ENSEMBLE=%albuminterpret%" -T "ALBUMARTIST=%albumartist%" -T "COMPOSER=%albumcomposer%" -T "DISCNUMBER=%cdnumber%" -T "TOTALDISCS=%totalcds%" -T "TOTALTRACKS=%numtracks%" -T "SOURCEMEDIA=CD" -T "COMMENT=%comment%" %hascover%-T "PICTURE=%coverfile%"%hascover% %source%
TOC of the extracted CD
Track | Start | Length | Start sector | End sector
---------------------------------------------------------
1 | 0:00.00 | 9:12.29 | 0 | 41428
2 | 9:12.29 | 6:12.31 | 41429 | 69359
3 | 15:24.60 | 5:43.63 | 69360 | 95147
4 | 21:08.48 | 8:20.34 | 95148 | 132681
5 | 29:29.07 | 6:43.37 | 132682 | 162943
6 | 36:12.44 | 5:32.33 | 162944 | 187876
7 | 41:45.02 | 6:51.66 | 187877 | 218767
8 | 48:36.68 | 4:05.08 | 218768 | 237150
9 | 52:42.01 | 7:16.57 | 237151 | 269907
10 | 59:58.58 | 3:19.19 | 269908 | 284851
11 | 63:18.02 | 6:16.36 | 284852 | 313087
12 | 69:34.38 | 3:30.14 | 313088 | 328851
13 | 73:04.52 | 2:39.44 | 328852 | 340820
Range status and errors
Selected range
Filename C:\Users\M@ce\Music\Archives\Rips\Burn WAV\Norman Connors - Love From The Sun , Slew Foot.wav
Peak level 99.6 %
Extraction speed 10.0 X
Range quality 100.0 %
Test CRC 0A1AF236
Copy CRC 0A1AF236
Copy OK
No errors occurred
AccurateRip summary
Track 1 not present in database
Track 2 not present in database
Track 3 not present in database
Track 4 not present in database
Track 5 not present in database
Track 6 not present in database
Track 7 not present in database
Track 8 not present in database
Track 9 not present in database
Track 10 not present in database
Track 11 not present in database
Track 12 not present in database
Track 13 not present in database
None of the tracks are present in the AccurateRip database
End of status report
---- CUETools DB Plugin V2.1.6
[CTDB TOCID: 0nduH3SfsBNju7tCBA7i2iYZ0ls-] disk not present in database
Submit result: 0nduH3SfsBNju7tCBA7i2iYZ0ls- has been uploaded
==== Log checksum 1D8D1369C022EB2FD9090FC4C89D99ED20590968B242004418560020A075A1A8 ====
 
Содержание индексной карты (.CUE)
REM GENRE Fusion
REM DATE 2013
REM DISCID B411C00D
REM COMMENT "ExactAudioCopy v1.3"
PERFORMER "Norman Connors"
TITLE "Love From The Sun / Slew Foot"
REM COMPOSER ""
FILE "Norman Connors - Love From The Sun , Slew Foot.flac" WAVE
TRACK 01 AUDIO
TITLE "Revelation"
PERFORMER "Norman Connors"
REM COMPOSER "Herbie Hancock"
INDEX 01 00:00:00
TRACK 02 AUDIO
TITLE "Carlos II"
PERFORMER "Norman Connors"
REM COMPOSER "Carlos Garnett"
INDEX 00 09:10:29
INDEX 01 09:12:29
TRACK 03 AUDIO
TITLE "Drums From The World"
PERFORMER "Norman Connors"
REM COMPOSER "Norman Connors"
INDEX 00 15:22:60
INDEX 01 15:24:60
TRACK 04 AUDIO
TITLE "Love From The Sun"
PERFORMER "Norman Connors"
REM COMPOSER "Richard Clay"
INDEX 00 21:06:48
INDEX 01 21:08:48
TRACK 05 AUDIO
TITLE "Kumakucha (The Sun Has Risen)"
PERFORMER "Norman Connors"
REM COMPOSER "Elmer Gibson"
INDEX 00 29:27:07
INDEX 01 29:29:07
TRACK 06 AUDIO
TITLE "Holy Waters"
PERFORMER "Norman Connors"
REM COMPOSER "Carlos Garnett"
INDEX 00 36:10:44
INDEX 01 36:12:44
TRACK 07 AUDIO
TITLE "Mother Of The Future"
PERFORMER "Norman Connors"
REM COMPOSER "Carlos Garnett"
INDEX 00 41:43:02
INDEX 01 41:45:02
TRACK 08 AUDIO
TITLE "Back On The Street"
PERFORMER "Norman Connors"
REM COMPOSER "Richard Clay"
INDEX 00 48:34:68
INDEX 01 48:36:68
TRACK 09 AUDIO
TITLE "Welcome"
PERFORMER "Norman Connors"
REM COMPOSER "John Coltrane"
INDEX 00 52:40:01
INDEX 01 52:42:01
TRACK 10 AUDIO
TITLE "Slew Foot"
PERFORMER "Norman Connors"
REM COMPOSER "Anthony Jackson / Reggie Lucas"
INDEX 00 59:56:58
INDEX 01 59:58:58
TRACK 11 AUDIO
TITLE "Dreams"
PERFORMER "Norman Connors"
REM COMPOSER "Eddie Henderson"
INDEX 00 63:16:02
INDEX 01 63:18:02
TRACK 12 AUDIO
TITLE "Chuka"
PERFORMER "Norman Connors"
REM COMPOSER "Elmer Gibson"
INDEX 00 69:32:38
INDEX 01 69:34:38
TRACK 13 AUDIO
TITLE "Jump Street"
PERFORMER "Norman Connors"
REM COMPOSER "Norman Connors"
INDEX 00 73:02:52
INDEX 01 73:04:52
Приватный:
Нет (DHT включён)
Размер:
530.98 Мб (556,768,014 байт) » файлов: 11
Участники:
0 раздают, 0 качают (0 участников всего)
Внешние участники:
5 раздают, 2 качают (7 участников всего) [ Обновить ]
Есть вопросы - пишите личное сообщение пользователю M0p94ok.
14:03
83
Нет комментариев. Ваш будет первым!