Поиск

(Funk, Soul) [CD] Harvey Mason - M.V.P. (MVP) (1981) - 2011, FLAC (tracks+.cue), lossless

(Funk, Soul) [CD] Harvey Mason - M.V.P. (MVP) (1981) - 2011, FLAC (tracks+.cue), lossless
Треклист:
Harvey Mason - M.V.P. (1981) Жанр: Funk, Soul
Носитель: CD
Страна-производитель диска (релиза): UK
Год издания: 2011
Издатель (лейбл): SoulMusic.com Records
Номер по каталогу: SMCR 5026
Аудиокодек: FLAC (*.flac)
Тип рипа: tracks+.cue
Битрейт аудио: lossless
Продолжительность: 41:59
Источник (релизер): BlondStyle
Наличие сканов в содержимом раздачи: да
Треклист:
01. How Does It Feel (4:12)
02. We Can Start Tonight (4:18)
03. Universal Rhyme (3:31)
04. Spell (3:58)
05. On And On (5:01)
06. Going Through The Motions (3:51)
07. You And Me (5:12)
08. Don't Doubt My Lovin' (4:32)
09. How Does It Feel (UK Single) (3:28)
10. On And On (UK Single) (3:56)
 
 
Credits
Backing Vocals – Greg Wright, Karen Floyd, Richard Heath, Stephanie Spruill
Bass – Weston Gite
Bass, Backing Vocals – Deon Estus
Co-producer, Trumpet, Backing Vocals – Kenny Mason
Guitar – Lee Ritenour, Mike Levin, Spencer Been
Keyboards – Michael Boddicker, Pete Robinson, Tom Keane, William Bryant
Mastered By – Bernie Grundman
Piano – Sonny Burke
Producer, Piano, Drums, Vocals – Harvey Mason
Saxophone – Gary Herbig
Trombone – Bill Reichenbach, Charles Loper, Lew McCreary, Maurice Spears
Trumpet – Chuck Findley, Snooky Young, Gary Grant, Jerry Hey, Oscar Brashear
 
Review by Dusty Groove, Inc.
Harvey's fifth and final album for Arista - another win for the funk-soul-fusion MVP! Given that Harvey worked on some of the best fusion sessions of the 70s, it's more than safe to give him "most valuable player" award - because without his drums, many a record would have faltered! Here, though, Mason's much more in his all-out soul mode - singing, playing, and producing in a smooth blend of jazz and modern soul, still with some funky grit in the mix. It not only benefits greatly from his years as one of the great studio players, but even more so for his triple threat talent as a writer, producer and performer. Tracks are all quite tight and catchy - soul groovers with some funk. Feature arrangements from Kenny Mason, Patrice Rushen and Jerry Peters. Titles include "Universal Rhyme", "Don't Doubt My Lovin", "On and On", "You And Me", "Spell", and "How Does It Feel". This expanded edition from Soulmusic.com includes 2 bonus tracks: "How Does It Feel (UK Single)" and "On And On (UK Single)"

 
Лог создания рипа
Exact Audio Copy V1.0 beta 3 from 29. August 2011
EAC extraction logfile from 14. January 2012, 8:38
Harvey Mason / M.V.P.
Used drive : HL-DT-STBD-RE BT11F Adapter: 0 ID: 2
Read mode : Secure
Utilize accurate stream : Yes
Defeat audio cache : Yes
Make use of C2 pointers : No
Read offset correction : 667
Overread into Lead-In and Lead-Out : No
Fill up missing offset samples with silence : Yes
Delete leading and trailing silent blocks : No
Null samples used in CRC calculations : Yes
Used interface : Native Win32 interface for Win NT & 2000
Gap handling : Appended to previous track
Used output format : User Defined Encoder
Selected bitrate : 256 kBit/s
Quality : High
Add ID3 tag : No
Command line compressor : C:\Program Files (x86)\Exact Audio Copy\Flac\flac.exe
Additional command line options : -8 -V -T "ARTIST=%artist%" -T "TITLE=%title%" -T "ALBUM=%albumtitle%" -T "DATE=%year%" -T "TRACKNUMBER=%tracknr%" -T "TOTALTRACKS=%numtracks%" -T "GENRE=%genre%" -T "ALBUMARTIST=%albumartist%" -T "ALBUM ARTIST=%albumartist%" -T "COMMENT=EAC Secure Mode, Test & Copy, AccurateRip, FLAC -8" %source%
TOC of the extracted CD
Track | Start | Length | Start sector | End sector
---------------------------------------------------------
1 | 0:00.00 | 4:12.26 | 0 | 18925
2 | 4:12.26 | 4:18.01 | 18926 | 38276
3 | 8:30.27 | 3:31.08 | 38277 | 54109
4 | 12:01.35 | 3:57.50 | 54110 | 71934
5 | 15:59.10 | 5:00.62 | 71935 | 94496
6 | 20:59.72 | 3:51.27 | 94497 | 111848
7 | 24:51.24 | 5:12.12 | 111849 | 135260
8 | 30:03.36 | 4:32.17 | 135261 | 155677
9 | 34:35.53 | 3:27.43 | 155678 | 171245
10 | 38:03.21 | 3:56.00 | 171246 | 188945
Track 1
Filename D:\Music\EAC\01 - How Does It Feel.wav
Pre-gap length 0:00:02.00
Peak level 100.0 %
Extraction speed 2.5 X
Track quality 100.0 %
Test CRC 85BB2C8E
Copy CRC 85BB2C8E
Track not present in AccurateRip database
Copy OK
Track 2
Filename D:\Music\EAC\02 - We Can Start Tonight.wav
Peak level 100.0 %
Extraction speed 2.8 X
Track quality 100.0 %
Test CRC 98CABB08
Copy CRC 98CABB08
Track not present in AccurateRip database
Copy OK
Track 3
Filename D:\Music\EAC\03 - Universal Rhyme.wav
Peak level 100.0 %
Extraction speed 2.9 X
Track quality 100.0 %
Test CRC B6787F5E
Copy CRC B6787F5E
Track not present in AccurateRip database
Copy OK
Track 4
Filename D:\Music\EAC\04 - Spell.wav
Peak level 100.0 %
Extraction speed 3.2 X
Track quality 100.0 %
Test CRC 76FFC8D2
Copy CRC 76FFC8D2
Track not present in AccurateRip database
Copy OK
Track 5
Filename D:\Music\EAC\05 - On And On.wav
Peak level 100.0 %
Extraction speed 3.6 X
Track quality 100.0 %
Test CRC 3010DB17
Copy CRC 3010DB17
Track not present in AccurateRip database
Copy OK
Track 6
Filename D:\Music\EAC\06 - Going Through The Motions.wav
Peak level 99.9 %
Extraction speed 3.6 X
Track quality 100.0 %
Test CRC 09623EEF
Copy CRC 09623EEF
Track not present in AccurateRip database
Copy OK
Track 7
Filename D:\Music\EAC\07 - You And Me.wav
Peak level 100.0 %
Extraction speed 4.1 X
Track quality 100.0 %
Test CRC 41CF0F03
Copy CRC 41CF0F03
Track not present in AccurateRip database
Copy OK
Track 8
Filename D:\Music\EAC\08 - Don't Doubt My Lovin'.wav
Peak level 99.9 %
Extraction speed 3.6 X
Track quality 99.9 %
Test CRC 6157F3F2
Copy CRC 6157F3F2
Track not present in AccurateRip database
Copy OK
Track 9
Filename D:\Music\EAC\09 - How Does It Feel (UK Single).wav
Peak level 100.0 %
Extraction speed 4.2 X
Track quality 100.0 %
Test CRC 4FE1FEBD
Copy CRC 4FE1FEBD
Track not present in AccurateRip database
Copy OK
Track 10
Filename D:\Music\EAC\10 - On And On (UK Single).wav
Peak level 100.0 %
Extraction speed 4.5 X
Track quality 100.0 %
Test CRC 9B899901
Copy CRC 9B899901
Track not present in AccurateRip database
Copy OK
None of the tracks are present in the AccurateRip database
No errors occurred
End of status report
==== Log checksum 489FAC08AD929939FC35A97A3B1AC12FDDD3EEF15300469041B2F6181AF052C6 ====
 
Содержание индексной карты (.CUE)
REM GENRE Jazz+Funk
REM DATE 1981
REM DISCID 7B09D70A
REM COMMENT "ExactAudioCopy v1.0b3"
PERFORMER "Harvey Mason"
TITLE "M.V.P."
FILE "01 - How Does It Feel.wav" WAVE
TRACK 01 AUDIO
TITLE "How Does It Feel"
PERFORMER "Harvey Mason"
INDEX 01 00:00:00
FILE "02 - We Can Start Tonight.wav" WAVE
TRACK 02 AUDIO
TITLE "We Can Start Tonight"
PERFORMER "Harvey Mason"
INDEX 01 00:00:00
FILE "03 - Universal Rhyme.wav" WAVE
TRACK 03 AUDIO
TITLE "Universal Rhyme"
PERFORMER "Harvey Mason"
INDEX 01 00:00:00
FILE "04 - Spell.wav" WAVE
TRACK 04 AUDIO
TITLE "Spell"
PERFORMER "Harvey Mason"
INDEX 01 00:00:00
FILE "05 - On And On.wav" WAVE
TRACK 05 AUDIO
TITLE "On And On"
PERFORMER "Harvey Mason"
INDEX 01 00:00:00
FILE "06 - Going Through The Motions.wav" WAVE
TRACK 06 AUDIO
TITLE "Going Through The Motions"
PERFORMER "Harvey Mason"
INDEX 01 00:00:00
FILE "07 - You And Me.wav" WAVE
TRACK 07 AUDIO
TITLE "You And Me"
PERFORMER "Harvey Mason"
INDEX 01 00:00:00
FILE "08 - Don't Doubt My Lovin'.wav" WAVE
TRACK 08 AUDIO
TITLE "Don't Doubt My Lovin'"
PERFORMER "Harvey Mason"
INDEX 01 00:00:00
FILE "09 - How Does It Feel (UK Single).wav" WAVE
TRACK 09 AUDIO
TITLE "How Does It Feel (UK Single)"
PERFORMER "Harvey Mason"
INDEX 01 00:00:00
FILE "10 - On And On (UK Single).wav" WAVE
TRACK 10 AUDIO
TITLE "On And On (UK Single)"
PERFORMER "Harvey Mason"
INDEX 01 00:00:00
Приватный:
Нет (DHT включён)
Размер:
392.00 Мб (411,037,644 байт) » файлов: 27
Участники:
0 раздают, 0 качают (0 участников всего)
Внешние участники:
3 раздают, 1 качают (4 участников всего) [ Обновить ]
No seeders - write a personal message to user M0p94ok. Нет сидеров - пишите личное сообщение пользователю M0p94ok.
14:04
161
Нет комментариев. Ваш будет первым!