Поиск

(Funk, Soul, R&B) [CD] James Brown - Revolution Of The Mind (a.k.a. Live At The Apollo Vol. III) (1971) - 1993, FLAC (tracks+.cue), lossless

(Funk, Soul, R&B) [CD] James Brown - Revolution Of The Mind (a.k.a. Live At The Apollo Vol. III) (1971) - 1993, FLAC (tracks+.cue), lossless
Треклист:
James Brown - Revolution Of The Mind (1971) Жанр: Funk, Soul, R&B
Носитель: CD
Год издания: 1993
Издатель (лейбл): Polydor
Номер по каталогу: 517 983-2
Аудиокодек: FLAC (*.flac)
Тип рипа: tracks+.cue
Битрейт аудио: lossless
Продолжительность: 62:06
Источник (релизер): JET 1
Наличие сканов в содержимом раздачи: да
Треклист:
01. Intro / It's A New Day So Let A Man Come In And Do The Popcorn (3:49)
02. Bewildered (7:56)
03. Sex Machine (5:05)
04. Escape-Ism (3:04)
05. Make It Funky (12:53)
06. Try Me (2:44)
07. Fast Medley: (I Can't Stand It, Mother Popcorn, I Got The Feelin') (1:18)
08. Give It Up Or Turnit A Loose (2:23)
09. Call Me Super Bad (4:22)
10. Get Up, Get Into It, Get Involved (3:21)
11. Soul Power (6:37)
12. Hot Pants (She Got To Use What She Got To Get What She Wants) (8:35)
Recorded live at New York's Apollo Theater on July 24, 25 and 26, 1971.
 
 
Об альбоме (сборнике)
Subtitled "Recorded Live at the Apollo, Vol. 3," Revolution of the Mind presents a 1971 James Brown concert performance, which means the set list is given over largely to the singles Brown had released over the previous couple of years, including "Give It Up or Turnit a Loose," "Super Bad," and "Make It Funky," all of them groove tunes with chanted slogans for lyrics, plus a medley of slightly less recent hits and the occasional real oldie, such as "Try Me." Brown concentrates on communicating with his audience, generating female screams, for example, when he comes out against dieting "'cause the more you got, the more I want." On the one hand, this can be considered indulgent – Brown spends the nearly 13-minute "Make It Funky" introducing the band and asking each member where he's from; on the other hand, the aural evidence suggests it went over better in the theater than it does in your living room. That wasn't true of the first Live at the Apollo, though.

 
Лог создания рипа
Exact Audio Copy V1.3 from 2. September 2016
EAC extraction logfile from 29. April 2017, 14:17
James Brown / Revolution of the Mind
Used drive : ATAPI DVD A DH16A6S Adapter: 1 ID: 0
Read mode : Secure
Utilize accurate stream : Yes
Defeat audio cache : Yes
Make use of C2 pointers : No
Read offset correction : 6
Overread into Lead-In and Lead-Out : No
Fill up missing offset samples with silence : Yes
Delete leading and trailing silent blocks : No
Null samples used in CRC calculations : Yes
Used interface : Native Win32 interface for Win NT & 2000
Gap handling : Appended to previous track
Used output format : User Defined Encoder
Selected bitrate : 1024 kBit/s
Quality : High
Add ID3 tag : No
Command line compressor : C:\Program Files (x86)\Exact Audio Copy\Flac\flac.exe
Additional command line options : -8 -e -p -V -T "ARTIST=%artist%" -T "TITLE=%title%" -T "ALBUM=%albumtitle%" -T "DATE=%year%" -T "TRACKNUMBER=%tracknr%" -T "GENRE=%genre%" -T "PERFORMER=%albuminterpret%" -T "COMPOSER=%composer%" %haslyrics%--tag-from-file=LYRICS="%lyricsfile%"%haslyrics% -T "ALBUMARTIST=%albumartist%" -T "DISCNUMBER=%cdnumber%" -T "TOTALDISCS=%totalcds%" -T "TOTALTRACKS=%numtracks%" -T "COMMENT=%comment%" %source% -o %dest%
TOC of the extracted CD
Track | Start | Length | Start sector | End sector
---------------------------------------------------------
1 | 0:00.32 | 3:48.43 | 32 | 17174
2 | 3:49.00 | 7:55.42 | 17175 | 52841
3 | 11:44.42 | 5:05.33 | 52842 | 75749
4 | 16:50.00 | 3:04.15 | 75750 | 89564
5 | 19:54.15 | 12:52.70 | 89565 | 147534
6 | 32:47.10 | 2:43.65 | 147535 | 159824
7 | 35:31.00 | 1:17.52 | 159825 | 165651
8 | 36:48.52 | 2:22.40 | 165652 | 176341
9 | 39:11.17 | 4:22.15 | 176342 | 196006
10 | 43:33.32 | 3:21.25 | 196007 | 211106
11 | 46:54.57 | 6:36.43 | 211107 | 240849
12 | 53:31.25 | 8:35.37 | 240850 | 279511
Track 1
Filename H:\James Brown - Revolution of the Mind (1993) [FLAC] {314 517 983-2}\01 Intro,It's a New Day So Let a Man Come In and Do the Popcorn.wav
Pre-gap length 0:00:02.42
Peak level 100.0 %
Extraction speed 3.3 X
Track quality 100.0 %
Test CRC 80476E05
Copy CRC 80476E05
Accurately ripped (confidence 2) [51C3A6A4] (AR v2)
Copy OK
Track 2
Filename H:\James Brown - Revolution of the Mind (1993) [FLAC] {314 517 983-2}\02 Bewildered.wav
Peak level 100.0 %
Extraction speed 4.2 X
Track quality 100.0 %
Test CRC 639E085C
Copy CRC 639E085C
Accurately ripped (confidence 2) [2859FDA7] (AR v2)
Copy OK
Track 3
Filename H:\James Brown - Revolution of the Mind (1993) [FLAC] {314 517 983-2}\03 Sex Machine.wav
Peak level 100.0 %
Extraction speed 3.8 X
Track quality 99.9 %
Test CRC D3ED37B6
Copy CRC D3ED37B6
Accurately ripped (confidence 2) [4346AB3E] (AR v2)
Copy OK
Track 4
Filename H:\James Brown - Revolution of the Mind (1993) [FLAC] {314 517 983-2}\04 Escape-Ism.wav
Peak level 93.7 %
Extraction speed 4.5 X
Track quality 100.0 %
Test CRC 05E2DDF9
Copy CRC 05E2DDF9
Accurately ripped (confidence 2) [14BC8125] (AR v2)
Copy OK
Track 5
Filename H:\James Brown - Revolution of the Mind (1993) [FLAC] {314 517 983-2}\05 Make It Funky.wav
Peak level 96.5 %
Extraction speed 5.6 X
Track quality 100.0 %
Test CRC 5AEAEB0B
Copy CRC 5AEAEB0B
Accurately ripped (confidence 2) [4D537360] (AR v2)
Copy OK
Track 6
Filename H:\James Brown - Revolution of the Mind (1993) [FLAC] {314 517 983-2}\06 Try Me.wav
Peak level 92.8 %
Extraction speed 5.2 X
Track quality 100.0 %
Test CRC 4D9511C6
Copy CRC 4D9511C6
Accurately ripped (confidence 2) [42202690] (AR v2)
Copy OK
Track 7
Filename H:\James Brown - Revolution of the Mind (1993) [FLAC] {314 517 983-2}\07 Fast Medley- I Can't Stand It,Mother Popcorn,I Got the Feelin'.wav
Peak level 94.3 %
Extraction speed 2.8 X
Track quality 99.8 %
Test CRC 65771E88
Copy CRC 65771E88
Accurately ripped (confidence 2) [FF575EB8] (AR v2)
Copy OK
Track 8
Filename H:\James Brown - Revolution of the Mind (1993) [FLAC] {314 517 983-2}\08 Give It Up or Turnit a Loose.wav
Peak level 94.6 %
Extraction speed 5.3 X
Track quality 100.0 %
Test CRC E75B3CFE
Copy CRC E75B3CFE
Accurately ripped (confidence 2) [FD378FB5] (AR v2)
Copy OK
Track 9
Filename H:\James Brown - Revolution of the Mind (1993) [FLAC] {314 517 983-2}\09 Call Me Super Bad.wav
Peak level 97.1 %
Extraction speed 6.0 X
Track quality 100.0 %
Test CRC 2682BFD5
Copy CRC 2682BFD5
Accurately ripped (confidence 2) [4DFCCAE3] (AR v2)
Copy OK
Track 10
Filename H:\James Brown - Revolution of the Mind (1993) [FLAC] {314 517 983-2}\10 Get Up, Get Into It, Get Involved.wav
Peak level 90.8 %
Extraction speed 6.0 X
Track quality 100.0 %
Test CRC 5DD7E48F
Copy CRC 5DD7E48F
Accurately ripped (confidence 2) [7E617EAC] (AR v2)
Copy OK
Track 11
Filename H:\James Brown - Revolution of the Mind (1993) [FLAC] {314 517 983-2}\11 Soul Power.wav
Peak level 84.0 %
Extraction speed 6.7 X
Track quality 100.0 %
Test CRC F7452C79
Copy CRC F7452C79
Accurately ripped (confidence 2) [F16228DF] (AR v2)
Copy OK
Track 12
Filename H:\James Brown - Revolution of the Mind (1993) [FLAC] {314 517 983-2}\12 Hot Pants (She Got to Use What She Got to Get What She Wants).wav
Peak level 71.0 %
Extraction speed 7.2 X
Track quality 100.0 %
Test CRC 3E2458CE
Copy CRC 3E2458CE
Accurately ripped (confidence 2) [96B621CF] (AR v2)
Copy OK
All tracks accurately ripped
No errors occurred
End of status report
---- CUETools DB Plugin V2.1.6
[CTDB TOCID: UFpLGbFYHWM1G_RQBzR57x528bo-] found
Submit result: UFpLGbFYHWM1G_RQBzR57x528bo- has been confirmed
Track | CTDB Status
1 | ( 9/25) Accurately ripped
2 | ( 8/25) Accurately ripped
3 | ( 9/25) Accurately ripped
4 | ( 9/25) Accurately ripped
5 | ( 9/25) Accurately ripped
6 | ( 9/25) Accurately ripped
7 | ( 9/25) Accurately ripped
8 | ( 9/25) Accurately ripped
9 | ( 9/25) Accurately ripped
10 | ( 9/25) Accurately ripped
11 | ( 9/25) Accurately ripped
12 | ( 9/25) Accurately ripped
==== Log checksum 0327E76D76DD2FD649FCECFAFFF043587B67E9AC809CC765B91FE07339CFE16D ====
 
Содержание индексной карты (.CUE)
REM GENRE "Soul, Funk"
REM DATE 1971
REM DISCID 860E8E0C
REM COMMENT "ExactAudioCopy v1.3"
PERFORMER "James Brown"
TITLE "Revolution of the Mind"
FILE "01. Intro - It's A New Day So Let A Man Come In And Do The Popcorn.wav" WAVE
TRACK 01 AUDIO
TITLE "Intro / It's A New Day So Let A Man Come In And Do The Popcorn"
PERFORMER "James Brown"
PREGAP 00:00:32
INDEX 01 00:00:00
INDEX 02 01:12:58
FILE "02. Bewildered.wav" WAVE
TRACK 02 AUDIO
TITLE "Bewildered"
PERFORMER "James Brown"
INDEX 01 00:00:00
FILE "03. Sex Machine.wav" WAVE
TRACK 03 AUDIO
TITLE "Sex Machine"
PERFORMER "James Brown"
INDEX 01 00:00:00
FILE "04. Escape-Ism.wav" WAVE
TRACK 04 AUDIO
TITLE "Escape-Ism"
PERFORMER "James Brown"
INDEX 01 00:00:00
FILE "05. Make It Funky.wav" WAVE
TRACK 05 AUDIO
TITLE "Make It Funky"
PERFORMER "James Brown"
INDEX 01 00:00:00
FILE "06. Try Me.wav" WAVE
TRACK 06 AUDIO
TITLE "Try Me"
PERFORMER "James Brown"
INDEX 01 00:00:00
FILE "07. Fast Medley- (I Can't Stand It, Mother Popcorn, I Got The Feelin').wav" WAVE
TRACK 07 AUDIO
TITLE "Fast Medley: (I Can't Stand It, Mother Popcorn, I Got The Feelin')"
PERFORMER "James Brown"
INDEX 01 00:00:00
FILE "08. Give It Up Or Turnit A Loose.wav" WAVE
TRACK 08 AUDIO
TITLE "Give It Up Or Turnit A Loose"
PERFORMER "James Brown"
INDEX 01 00:00:00
FILE "09. Call Me Super Bad.wav" WAVE
TRACK 09 AUDIO
TITLE "Call Me Super Bad"
PERFORMER "James Brown"
INDEX 01 00:00:00
FILE "10. Get Up, Get Into It, Get Involved.wav" WAVE
TRACK 10 AUDIO
TITLE "Get Up, Get Into It, Get Involved"
PERFORMER "James Brown"
INDEX 01 00:00:00
FILE "11. Soul Power.wav" WAVE
TRACK 11 AUDIO
TITLE "Soul Power"
PERFORMER "James Brown"
INDEX 01 00:00:00
FILE "12. Hot Pants (She Got To Use What She Got To Get What She Wants).wav" WAVE
TRACK 12 AUDIO
TITLE "Hot Pants (She Got To Use What She Got To Get What She Wants)"
PERFORMER "James Brown"
INDEX 01 00:00:00
Приватный:
Нет (DHT включён)
Размер:
385.47 Мб (404,195,566 байт) » файлов: 24
Участники:
0 раздают, 0 качают (0 участников всего)
Внешние участники:
5 раздают, 2 качают (7 участников всего) [ Обновить ]
No seeders - write a personal message to user M0p94ok. Нет сидеров - пишите личное сообщение пользователю M0p94ok.
14:05
88
Нет комментариев. Ваш будет первым!