Поиск

(Soul, R&B) [CD] Smoked Sugar - Smoked Sugar (1975) - 2014, FLAC (tracks+.cue), lossless

(Soul, R&B) [CD] Smoked Sugar - Smoked Sugar (1975) - 2014, FLAC (tracks+.cue), lossless
Треклист:
Smoked Sugar - Smoked Sugar (1975) Жанр: Soul, R&B
Носитель: CD
Страна-производитель диска (релиза): Japan
Год издания: 2014
Издатель (лейбл): Universal Music Japan
Номер по каталогу: UICY-15320
Аудиокодек: FLAC (*.flac)
Тип рипа: tracks+.cue
Битрейт аудио: lossless
Продолжительность: 38:04
Rip by JET 1
Наличие сканов в содержимом раздачи: да
Треклист:
01. I've Found Someone Of My Own (4:21)
02. My Eyes Search A Lonely Room For You (4:10)
03. Bump Me (2:57)
04. I'm A Blues Singer, Guitar Banger (2:52)
05. Don't Let The Feeling Hit Me Again (3:42)
06. It's Funny Til I Crying (3:22)
07. Loving You Coming Out Of A Brand New Bag (2:59)
08. I Can't Get Enough (3:17)
09. I'm A Winner (3:57)
10. Keeping Up My Front (3:16)
11. My Eyes Search A Lonely Room For You (Promotional Single Version) (3:11)
 
 
Лог создания рипа
Exact Audio Copy V1.3 from 2. September 2016
EAC extraction logfile from 24. December 2016, 19:27
Smoked Sugar / Smoked Sugar
Used drive : GENERIC CDRCB05 Adapter: 1 ID: 1
Read mode : Secure
Utilize accurate stream : Yes
Defeat audio cache : Yes
Make use of C2 pointers : No
Read offset correction : 102
Overread into Lead-In and Lead-Out : No
Fill up missing offset samples with silence : Yes
Delete leading and trailing silent blocks : No
Null samples used in CRC calculations : Yes
Used interface : Native Win32 interface for Win NT & 2000
Gap handling : Appended to previous track
Used output format : User Defined Encoder
Selected bitrate : 768 kBit/s
Quality : High
Add ID3 tag : No
Command line compressor : C:\Program Files (x86)\Exact Audio Copy\FLAC\FLAC.EXE
Additional command line options : -6 -V -T "ARTIST=%artist%" -T "TITLE=%title%" -T "ALBUM=%albumtitle%" -T "DATE=%year%" -T "TRACKNUMBER=%tracknr%" -T "GENRE=%genre%" -T "COMMENT=%comment%" -T "BAND=%albuminterpret%" -T "ALBUMARTIST=%albuminterpret%" -T "COMPOSER=%composer%" %haslyrics%--tag-from-file=LYRICS="%lyricsfile%"%haslyrics% -T "DISCNUMBER=%cdnumber%" -T "TOTALDISCS=%totalcds%" -T "TOTALTRACKS=%numtracks%" %hascover%--picture="%coverfile%"%hascover% %source% -o %dest%
TOC of the extracted CD
Track | Start | Length | Start sector | End sector
---------------------------------------------------------
1 | 0:00.00 | 4:21.31 | 0 | 19605
2 | 4:21.31 | 4:09.40 | 19606 | 38320
3 | 8:30.71 | 2:57.22 | 38321 | 51617
4 | 11:28.18 | 2:51.52 | 51618 | 64494
5 | 14:19.70 | 3:41.68 | 64495 | 81137
6 | 18:01.63 | 3:22.14 | 81138 | 96301
7 | 21:24.02 | 2:59.27 | 96302 | 109753
8 | 24:23.29 | 3:16.66 | 109754 | 124519
9 | 27:40.20 | 3:57.11 | 124520 | 142305
10 | 31:37.31 | 3:15.48 | 142306 | 156978
11 | 34:53.04 | 3:10.62 | 156979 | 171290
Track 1
Filename J:\POST\Smoked Sugar ‎- Smoked Sugar (1975) [2014 Japan]\01 I've Found Someone Of My Own.wav
Pre-gap length 0:00:02.00
Peak level 96.6 %
Extraction speed 2.4 X
Track quality 100.0 %
Test CRC 548F3040
Copy CRC 548F3040
Accurately ripped (confidence 1) [431463B7] (AR v2)
Copy OK
Track 2
Filename J:\POST\Smoked Sugar ‎- Smoked Sugar (1975) [2014 Japan]\02 My Eyes Search A Lonely Room For You.wav
Pre-gap length 0:00:01.12
Peak level 96.6 %
Extraction speed 2.7 X
Track quality 100.0 %
Test CRC 5A807A0C
Copy CRC 5A807A0C
Accurately ripped (confidence 1) [A41BEC0F] (AR v2)
Copy OK
Track 3
Filename J:\POST\Smoked Sugar ‎- Smoked Sugar (1975) [2014 Japan]\03 Bump Me.wav
Pre-gap length 0:00:01.25
Peak level 96.6 %
Extraction speed 2.3 X
Track quality 99.9 %
Test CRC 233C5F8B
Copy CRC 233C5F8B
Accurately ripped (confidence 1) [761ABF80] (AR v2)
Copy OK
Track 4
Filename J:\POST\Smoked Sugar ‎- Smoked Sugar (1975) [2014 Japan]\04 I'm A Blues Singer, Guitar Banger.wav
Pre-gap length 0:00:01.24
Peak level 96.6 %
Extraction speed 2.9 X
Track quality 100.0 %
Test CRC 39753DB5
Copy CRC 39753DB5
Accurately ripped (confidence 1) [1844D535] (AR v2)
Copy OK
Track 5
Filename J:\POST\Smoked Sugar ‎- Smoked Sugar (1975) [2014 Japan]\05 Don´t Let The Feeling Hit Me Again.wav
Pre-gap length 0:00:01.24
Peak level 96.6 %
Extraction speed 3.1 X
Track quality 100.0 %
Test CRC ABE25AFD
Copy CRC ABE25AFD
Accurately ripped (confidence 1) [0591E96D] (AR v2)
Copy OK
Track 6
Filename J:\POST\Smoked Sugar ‎- Smoked Sugar (1975) [2014 Japan]\06 It's Funny Til I Crying.wav
Pre-gap length 0:00:01.24
Peak level 96.6 %
Extraction speed 2.8 X
Track quality 99.9 %
Test CRC D786D6E7
Copy CRC D786D6E7
Accurately ripped (confidence 1) [1DDCEB24] (AR v2)
Copy OK
Track 7
Filename J:\POST\Smoked Sugar ‎- Smoked Sugar (1975) [2014 Japan]\07 Loving You Coming Out Of A Brand New Bag.wav
Pre-gap length 0:00:01.24
Peak level 96.6 %
Extraction speed 3.3 X
Track quality 100.0 %
Test CRC 80D28CB5
Copy CRC 80D28CB5
Accurately ripped (confidence 1) [27BBF44C] (AR v2)
Copy OK
Track 8
Filename J:\POST\Smoked Sugar ‎- Smoked Sugar (1975) [2014 Japan]\08 I Can´t Get Enough.wav
Pre-gap length 0:00:01.23
Peak level 96.6 %
Extraction speed 3.0 X
Track quality 99.9 %
Test CRC 7CC8716A
Copy CRC 7CC8716A
Accurately ripped (confidence 1) [F1B0B386] (AR v2)
Copy OK
Track 9
Filename J:\POST\Smoked Sugar ‎- Smoked Sugar (1975) [2014 Japan]\09 I´m A Winner.wav
Pre-gap length 0:00:01.24
Peak level 96.6 %
Extraction speed 3.7 X
Track quality 100.0 %
Test CRC ED55E661
Copy CRC ED55E661
Accurately ripped (confidence 1) [9A68E424] (AR v2)
Copy OK
Track 10
Filename J:\POST\Smoked Sugar ‎- Smoked Sugar (1975) [2014 Japan]\10 Keeping Up My Front.wav
Pre-gap length 0:00:01.25
Peak level 96.6 %
Extraction speed 3.8 X
Track quality 100.0 %
Test CRC E8C629E9
Copy CRC E8C629E9
Accurately ripped (confidence 1) [3A9932C2] (AR v2)
Copy OK
Track 11
Filename J:\POST\Smoked Sugar ‎- Smoked Sugar (1975) [2014 Japan]\11 My Eyes Search A Lonely Room For You (Promotional Single Version).wav
Pre-gap length 0:00:01.24
Peak level 96.6 %
Extraction speed 3.9 X
Track quality 100.0 %
Test CRC 7A7EE2C9
Copy CRC 7A7EE2C9
Accurately ripped (confidence 1) [5EFA0C6D] (AR v2)
Copy OK
All tracks accurately ripped
No errors occurred
End of status report
---- CUETools DB Plugin V2.1.6
[CTDB TOCID: PgSJ6OguvKibzrs_iqDI.mV4orY-] found
Submit result: PgSJ6OguvKibzrs_iqDI.mV4orY- has been confirmed
Track | CTDB Status
1 | (3/3) Accurately ripped
2 | (3/3) Accurately ripped
3 | (3/3) Accurately ripped
4 | (3/3) Accurately ripped
5 | (3/3) Accurately ripped
6 | (3/3) Accurately ripped
7 | (3/3) Accurately ripped
8 | (3/3) Accurately ripped
9 | (3/3) Accurately ripped
10 | (3/3) Accurately ripped
11 | (3/3) Accurately ripped
==== Log checksum CA3A22AA60FCA0333976E2862C4DF0B46D7771AEFFBD62F19C43E62E1159ED83 ====
 
Содержание индексной карты (.CUE)
REM GENRE R&B
REM DATE 2014
REM DISCID 9A08EB0B
REM COMMENT "ExactAudioCopy v1.3"
PERFORMER "Smoked Sugar"
TITLE "Smoked Sugar"
FILE "01 I've Found Someone Of My Own.wav" WAVE
TRACK 01 AUDIO
TITLE "I've Found Someone Of My Own"
PERFORMER "Smoked Sugar"
INDEX 01 00:00:00
TRACK 02 AUDIO
TITLE "My Eyes Search A Lonely Room For You"
PERFORMER "Smoked Sugar"
INDEX 00 04:20:19
FILE "02 My Eyes Search A Lonely Room For You.wav" WAVE
INDEX 01 00:00:00
TRACK 03 AUDIO
TITLE "Bump Me"
PERFORMER "Smoked Sugar"
INDEX 00 04:08:15
FILE "03 Bump Me.wav" WAVE
INDEX 01 00:00:00
TRACK 04 AUDIO
TITLE "I'm A Blues Singer, Guitar Banger"
PERFORMER "Smoked Sugar"
INDEX 00 02:55:73
FILE "04 I'm A Blues Singer, Guitar Banger.wav" WAVE
INDEX 01 00:00:00
TRACK 05 AUDIO
TITLE "Don't Let The Feeling Hit Me Again"
PERFORMER "Smoked Sugar"
INDEX 00 02:50:28
FILE "05 Don't Let The Feeling Hit Me Again.wav" WAVE
INDEX 01 00:00:00
TRACK 06 AUDIO
TITLE "It's Funny Til I Crying"
PERFORMER "Smoked Sugar"
INDEX 00 03:40:44
FILE "06 It's Funny Til I Crying.wav" WAVE
INDEX 01 00:00:00
TRACK 07 AUDIO
TITLE "Loving You Coming Out Of A Brand New Bag"
PERFORMER "Smoked Sugar"
INDEX 00 03:20:65
FILE "07 Loving You Coming Out Of A Brand New Bag.wav" WAVE
INDEX 01 00:00:00
TRACK 08 AUDIO
TITLE "I Can't Get Enough"
PERFORMER "Smoked Sugar"
INDEX 00 02:58:04
FILE "08 I Can't Get Enough.wav" WAVE
INDEX 01 00:00:00
TRACK 09 AUDIO
TITLE "I'm A Winner"
PERFORMER "Smoked Sugar"
INDEX 00 03:15:42
FILE "09 I'm A Winner.wav" WAVE
INDEX 01 00:00:00
TRACK 10 AUDIO
TITLE "Keeping Up My Front"
PERFORMER "Smoked Sugar"
INDEX 00 03:55:61
FILE "10 Keeping Up My Front.wav" WAVE
INDEX 01 00:00:00
TRACK 11 AUDIO
TITLE "My Eyes Search A Lonely Room For You (Promotional Single Version)"
PERFORMER "Smoked Sugar"
INDEX 00 03:14:24
FILE "11 My Eyes Search A Lonely Room For You (Promotional Single Version).wav" WAVE
INDEX 01 00:00:00
Приватный:
Нет (DHT включён)
Размер:
310.01 Мб (325,069,845 байт) » файлов: 27
Участники:
0 раздают, 0 качают (0 участников всего)
Внешние участники:
2 раздают, 1 качают (3 участников всего) [ Обновить ]
Есть вопросы - пишите личное сообщение пользователю M0p94ok.
13:06
63
Нет комментариев. Ваш будет первым!