Поиск

(Jazz- Funk, Soul Jazz, Smooth Jazz) [CD] Melvin Sparks - I'm A 'Gittar' Player - 1997, FLAC (tracks+.cue), lossless

(Jazz- Funk, Soul Jazz, Smooth Jazz) [CD] Melvin Sparks - I'm A 'Gittar' Player - 1997, FLAC (tracks+.cue), lossless
Треклист:
Melvin Sparks / I'm A 'Gittar' Player
Жанр: Jazz- Funk, Soul Jazz, Smooth Jazz
Носитель: CD
Страна-производитель диска (релиза): usa
Год издания: 1997
Издатель (лейбл): Cannonball Records
Номер по каталогу: CBD 27101
Страна исполнителя (группы): usa
Аудиокодек: FLAC (*.flac)
Тип рипа: tracks+.cue
Битрейт аудио: lossless
Продолжительность: 46:48
Источник (релизер): CD
Наличие сканов в содержимом раздачи: да
Треклист:
01 Mr. Texan (07:08)
02 Balcony (05:14)
03 Jiggy (06:29)
04 Boogie Street (05:28)
05 I'm A 'Gittar' Player (05:35)
06 Sparkling (03:36)
07 Taste The Flavor (04:19)
08 All Day, All Night (04:32)
09 Get Down Tonite (04:22)
https://www.discogs.com/Melvin-Sparks-Im-A-Gittar-Player/release/2616351
 
Лог создания рипа
Exact Audio Copy V1.0 beta 2 from 29. April 2011
Отчёт EAC об извлечении, выполненном 23. февраля 2017, 18:12
Melvin Sparks / I'm A 'Gittar' Player
Дисковод: PLEXTOR BDDVDRPX-B330SA Adapter: 0 ID: 1
Режим чтения : Достоверность
Использование точного потока : Да
Отключение кэша аудио : Да
Использование указателей C2 : Нет
Коррекция смещения при чтении : 702
Способность читать области Lead-in и Lead-out : Нет
Заполнение пропущенных сэмплов тишиной : Да
Удаление блоков с тишиной в начале и конце : Нет
При вычислениях CRC использовались нулевые сэмплы : Да
Интерфейс : Встроенный Win32-интерфейс для Win NT/2000
Обработка зазоров : Добавлено к предыдущему треку
Выходной формат : Пользовательский кодировщик
Выбранный битрейт : 128 kBit/s
Качество : Высокий
Добавление ID3-тега : Нет
Утилита сжатия : C:\Program Files\Exact Audio Copy\FLAC\FLAC.EXE
Дополнительные параметры : -6 -V -T "ARTIST=%artist%" -T "TITLE=%title%" -T "ALBUM=%albumtitle%" -T "DATE=%year%" -T "TRACKNUMBER=%tracknr%" -T "GENRE=%genre%" -T "COMMENT=%comment%" -T "BAND=%albuminterpret%" -T "COMPOSER=%composer%" %haslyrics%--tag-from-
TOC извлечённого CD
Трек | Старт | Длительность | Начальный сектор | Конечный сектор
---------------------------------------------------------------------
1 | 0:00.00 | 7:08.20 | 0 | 32119
2 | 7:08.20 | 5:14.62 | 32120 | 55731
3 | 12:23.07 | 6:29.18 | 55732 | 84924
4 | 18:52.25 | 5:28.00 | 84925 | 109524
5 | 24:20.25 | 5:35.70 | 109525 | 134719
6 | 29:56.20 | 3:36.57 | 134720 | 150976
7 | 33:33.02 | 4:19.48 | 150977 | 170449
8 | 37:52.50 | 4:32.50 | 170450 | 190899
9 | 42:25.25 | 4:22.50 | 190900 | 210599
Трек 1
Имя файла D:\FLAC\01 Mr. Texan.wav
Длина предзазора 0:00:02.00
Пиковый уровень 94.1 %
Скорость извлечения 5.0 X
Качество трека 99.9 %
CRC теста A570D532
CRC копии A570D532
Точное извлечение (достоверность 4) [514C8825] (AR v2)
Копирование... OK
Трек 2
Имя файла D:\FLAC\02 Balcony.wav
Длина предзазора 0:00:02.43
Пиковый уровень 93.0 %
Скорость извлечения 5.8 X
Качество трека 100.0 %
CRC теста D27688B5
CRC копии D27688B5
Точное извлечение (достоверность 4) [F465827F] (AR v2)
Копирование... OK
Трек 3
Имя файла D:\FLAC\03 Jiggy.wav
Длина предзазора 0:00:02.37
Пиковый уровень 94.2 %
Скорость извлечения 6.7 X
Качество трека 100.0 %
CRC теста 1024B6BD
CRC копии 1024B6BD
Точное извлечение (достоверность 4) [A7BDAB16] (AR v2)
Копирование... OK
Трек 4
Имя файла D:\FLAC\04 Boogie Street.wav
Длина предзазора 0:00:02.46
Пиковый уровень 92.8 %
Скорость извлечения 6.3 X
Качество трека 99.9 %
CRC теста 0C4AEE5C
CRC копии 0C4AEE5C
Точное извлечение (достоверность 4) [4179AE34] (AR v2)
Копирование... OK
Трек 5
Имя файла D:\FLAC\05 I'm A 'Gittar' Player.wav
Длина предзазора 0:00:02.46
Пиковый уровень 95.0 %
Скорость извлечения 7.6 X
Качество трека 100.0 %
CRC теста 88575CC2
CRC копии 88575CC2
Точное извлечение (достоверность 4) [0A6C9C10] (AR v2)
Копирование... OK
Трек 6
Имя файла D:\FLAC\06 Sparkling.wav
Длина предзазора 0:00:02.63
Пиковый уровень 90.0 %
Скорость извлечения 6.8 X
Качество трека 99.9 %
CRC теста F5BED034
CRC копии F5BED034
Точное извлечение (достоверность 4) [B4B2C9BD] (AR v2)
Копирование... OK
Трек 7
Имя файла D:\FLAC\07 Taste The Flavor.wav
Пиковый уровень 94.8 %
Скорость извлечения 8.0 X
Качество трека 100.0 %
CRC теста E3DB476F
CRC копии E3DB476F
Точное извлечение (достоверность 4) [91E455D5] (AR v2)
Копирование... OK
Трек 8
Имя файла D:\FLAC\08 All Day, All Night.wav
Длина предзазора 0:00:01.65
Пиковый уровень 94.8 %
Скорость извлечения 8.1 X
Качество трека 100.0 %
CRC теста FB392931
CRC копии FB392931
Точное извлечение (достоверность 4) [666AE233] (AR v2)
Копирование... OK
Трек 9
Имя файла D:\FLAC\09 Get Down Tonite.wav
Длина предзазора 0:00:01.43
Пиковый уровень 94.9 %
Скорость извлечения 4.4 X
Качество трека 100.0 %
CRC теста 72409A79
CRC копии 72409A79
Точное извлечение (достоверность 4) [7C0835EB] (AR v2)
Копирование... OK
Все треки извлечены точно
Ошибок не произошло
Конец отчёта
---- CUETools DB Plugin V2.1.4
[CTDB TOCID: .hS3HVC7.xIb3JjVoO4nGSExRag-] found
Submit result: .hS3HVC7.xIb3JjVoO4nGSExRag- has been confirmed
Track | CTDB Status
1 | (2/2) Accurately ripped
2 | (2/2) Accurately ripped
3 | (2/2) Accurately ripped
4 | (2/2) Accurately ripped
5 | (2/2) Accurately ripped
6 | (2/2) Accurately ripped
7 | (2/2) Accurately ripped
8 | (2/2) Accurately ripped
9 | (2/2) Accurately ripped
==== Контрольная сумма отчёта 064CCC8439DF7E3039406C70E58AF45A2E8E0376D78A12E26DC0D35DB97C5271 ====
 
Содержание индексной карты (.CUE)
REM GENRE "Jazz+Funk, Smooth Jazz "
REM DATE 1997
REM DISCID 710AF809
REM COMMENT "ExactAudioCopy v1.0b2"
CATALOG 0000000000000
PERFORMER "Melvin Sparks"
TITLE "I'm A 'Gittar' Player"
FILE "01 Mr. Texan.wav" WAVE
TRACK 01 AUDIO
TITLE "Mr. Texan"
PERFORMER "Melvin Sparks"
INDEX 01 00:00:00
TRACK 02 AUDIO
TITLE "Balcony"
PERFORMER "Melvin Sparks"
INDEX 00 07:05:52
FILE "02 Balcony.wav" WAVE
INDEX 01 00:00:00
TRACK 03 AUDIO
TITLE "Jiggy"
PERFORMER "Melvin Sparks"
INDEX 00 05:12:25
FILE "03 Jiggy.wav" WAVE
INDEX 01 00:00:00
TRACK 04 AUDIO
TITLE "Boogie Street"
PERFORMER "Melvin Sparks"
INDEX 00 06:26:47
FILE "04 Boogie Street.wav" WAVE
INDEX 01 00:00:00
TRACK 05 AUDIO
TITLE "I'm A 'Gittar' Player"
PERFORMER "Melvin Sparks"
INDEX 00 05:25:29
FILE "05 I'm A 'Gittar' Player.wav" WAVE
INDEX 01 00:00:00
TRACK 06 AUDIO
TITLE "Sparkling"
PERFORMER "Melvin Sparks"
INDEX 00 05:33:07
FILE "06 Sparkling.wav" WAVE
INDEX 01 00:00:00
FILE "07 Taste The Flavor.wav" WAVE
TRACK 07 AUDIO
TITLE "Taste The Flavor"
PERFORMER "Melvin Sparks"
INDEX 01 00:00:00
TRACK 08 AUDIO
TITLE "All Day, All Night"
PERFORMER "Melvin Sparks"
INDEX 00 04:17:58
FILE "08 All Day, All Night.wav" WAVE
INDEX 01 00:00:00
TRACK 09 AUDIO
TITLE "Get Down Tonite"
PERFORMER "Melvin Sparks"
INDEX 00 04:31:07
FILE "09 Get Down Tonite.wav" WAVE
INDEX 01 00:00:00
Приватный:
Нет (DHT включён)
Размер:
306.60 Мб (321,497,542 байт) » файлов: 21
Участники:
0 раздают, 0 качают (0 участников всего)
Внешние участники:
1 раздают, 0 качают (1 участников всего) [ Обновить ]
Есть вопросы - пишите личное сообщение пользователю M0p94ok.
13:06
74
Нет комментариев. Ваш будет первым!