Поиск

(Funk, Soul) Charles Wright & The Watts 103Rd Street Rhythm Band - Original Album Series (5CD Box Set) - 2010, FLAC (tracks+.cue), lossless

(Funk, Soul) Charles Wright & The Watts 103Rd Street Rhythm Band - Original Album Series (5CD Box Set) - 2010, FLAC (tracks+.cue), lossless
Треклист:
Charles Wright & The Watts 103Rd Street Rhythm Band - Original Album Series (5CD Box Set) (2010)

Жанр: Funk, Soul
Страна-производитель диска: EU
Год первого выпуска: 2010
Год настоящего издания: 2010
Издатель (лейбл): Rhino Records
Номер по каталогу: 8122 79833 5
Format: 5xCD, 5xAlbum, Box Set
Страна исполнителя (группы):
Аудиокодек: FLAC (*.flac)
Тип рипа: tracks+.cue
Битрейт аудио: lossless
Источник (релизер): softarchive
Наличие сканов в содержимом раздачи: да
 
CD1: Hot Heat And Sweet Groove (1967)
Продолжительность: 00:32:49
Треклист:
01. Caesar's Palace (02:40)
02. Yellow Submarine (03:17)
03. Brown Sugar (02:25)
04. Soul Concerto (02:26)
05. Fried Okra (02:38)
06. Spreadin' Honey (02:23)
07. A Little Class & A Little Trash (03:09)
08. The 103rd St. Theme (02:34)
09. The Girl From Ipanema (03:00)
10. Bring It On Home To Me (02:37)
11. Whole Hog, Or None At All (02:56)
12. Watts Happening (02:39)
 
Лог создания рипа
Exact Audio Copy V0.99 prebeta 5 from 4. May 2009
EAC extraction logfile from 15. November 2010, 1:23
Charles Wright & The Watts 103Rd Street Rhythm Band / The Watts 103Rd. St. Rhythm Band
Used drive : PHILIPS DVDR1628P1 Adapter: 4 ID: 0
Read mode : Secure
Utilize accurate stream : Yes
Defeat audio cache : Yes
Make use of C2 pointers : No
Read offset correction : 618
Overread into Lead-In and Lead-Out : No
Fill up missing offset samples with silence : Yes
Delete leading and trailing silent blocks : No
Null samples used in CRC calculations : Yes
Used interface : Installed external ASPI interface
Gap handling : Appended to previous track
Used output format : User Defined Encoder
Selected bitrate : 128 kBit/s
Quality : High
Add ID3 tag : No
Command line compressor : C:\Program Files\Exact Audio Copy\Flac\flac.exe
Additional command line options : -8 -V -T "ARTIST=%a" -T "TITLE=%t" -T "ALBUM=%g" -T "DATE=%y" -T "TRACKNUMBER=%n" -T "TOTALTRACKS=%x" -T "GENRE=%m" -T "ALBUM ARTIST=%v" -T "ALBUMARTIST=%v" -T "COMMENT=EAC V0.99 prebeta 5, Secure Mode, Test & Copy, Accurat
TOC of the extracted CD
Track | Start | Length | Start sector | End sector
---------------------------------------------------------
1 | 0:00.00 | 2:40.07 | 0 | 12006
2 | 2:40.07 | 3:17.15 | 12007 | 26796
3 | 5:57.22 | 2:25.66 | 26797 | 37737
4 | 8:23.13 | 2:26.57 | 37738 | 48744
5 | 10:49.70 | 2:38.33 | 48745 | 60627
6 | 13:28.28 | 2:23.21 | 60628 | 71373
7 | 15:51.49 | 3:09.08 | 71374 | 85556
8 | 19:00.57 | 2:34.36 | 85557 | 97142
9 | 21:35.18 | 3:00.72 | 97143 | 110714
10 | 24:36.15 | 2:37.13 | 110715 | 122502
11 | 27:13.28 | 2:56.66 | 122503 | 135768
12 | 30:10.19 | 2:39.48 | 135769 | 147741
Track 1
Filename C:\addis gugsa killed my hdd\01 - Caesar's Palace.wav
Pre-gap length 0:00:02.00
Peak level 75.4 %
Track quality 100.0 %
Test CRC E02AEEAC
Copy CRC E02AEEAC
Track not present in AccurateRip database
Copy OK
Track 2
Filename C:\addis gugsa killed my hdd\02 - Yellow Submarine.wav
Peak level 70.3 %
Track quality 100.0 %
Test CRC 89F07E5D
Copy CRC 89F07E5D
Track not present in AccurateRip database
Copy OK
Track 3
Filename C:\addis gugsa killed my hdd\03 - Brown Sugar.wav
Peak level 72.0 %
Track quality 100.0 %
Test CRC 5A84DE2C
Copy CRC 5A84DE2C
Track not present in AccurateRip database
Copy OK
Track 4
Filename C:\addis gugsa killed my hdd\04 - Soul Concerto.wav
Peak level 82.0 %
Track quality 99.9 %
Test CRC D9E8A8C8
Copy CRC D9E8A8C8
Track not present in AccurateRip database
Copy OK
Track 5
Filename C:\addis gugsa killed my hdd\05 - Fried Okra.wav
Peak level 84.4 %
Track quality 100.0 %
Test CRC 5409E632
Copy CRC 5409E632
Track not present in AccurateRip database
Copy OK
Track 6
Filename C:\addis gugsa killed my hdd\06 - Spreadin' Honey.wav
Peak level 71.5 %
Track quality 100.0 %
Test CRC 11CE3CFC
Copy CRC 11CE3CFC
Track not present in AccurateRip database
Copy OK
Track 7
Filename C:\addis gugsa killed my hdd\07 - A Little Class & A Little Trash.wav
Peak level 69.8 %
Track quality 100.0 %
Test CRC 67DEA5E7
Copy CRC 67DEA5E7
Track not present in AccurateRip database
Copy OK
Track 8
Filename C:\addis gugsa killed my hdd\08 - The 103Rd St. Theme.wav
Peak level 69.4 %
Track quality 100.0 %
Test CRC B9FC103C
Copy CRC B9FC103C
Track not present in AccurateRip database
Copy OK
Track 9
Filename C:\addis gugsa killed my hdd\09 - The Girl From Ipanema.wav
Peak level 80.2 %
Track quality 99.9 %
Test CRC DC9FE6F2
Copy CRC DC9FE6F2
Track not present in AccurateRip database
Copy OK
Track 10
Filename C:\addis gugsa killed my hdd\10 - Bring It On Home To Me.wav
Peak level 69.1 %
Track quality 100.0 %
Test CRC 6BB9D8D4
Copy CRC 6BB9D8D4
Track not present in AccurateRip database
Copy OK
Track 11
Filename C:\addis gugsa killed my hdd\11 - Whole Hog Or None At All.wav
Peak level 86.5 %
Track quality 100.0 %
Test CRC 1B1D99CF
Copy CRC 1B1D99CF
Track not present in AccurateRip database
Copy OK
Track 12
Filename C:\addis gugsa killed my hdd\12 - Watts Happening.wav
Peak level 69.2 %
Track quality 100.0 %
Test CRC 4F31E745
Copy CRC 4F31E745
Track not present in AccurateRip database
Copy OK
None of the tracks are present in the AccurateRip database
No errors occurred
End of status report
 
Содержание индексной карты (.CUE)
REM GENRE Soul
REM DATE 1968
REM DISCID 9607B10C
REM COMMENT "ExactAudioCopy v0.99pb5"
PERFORMER "Charles Wright & The Watts 103Rd Street Rhythm Band"
TITLE "Hot Heat And Sweet Groove"
FILE "01 - Caesar's Palace.wav" WAVE
TRACK 01 AUDIO
TITLE "Caesar's Palace"
PERFORMER "Charles Wright & The Watts 103Rd Street Rhythm Band"
FLAGS DCP
INDEX 01 00:00:00
FILE "02 - Yellow Submarine.wav" WAVE
TRACK 02 AUDIO
TITLE "Yellow Submarine"
PERFORMER "Charles Wright & The Watts 103Rd Street Rhythm Band"
FLAGS DCP
INDEX 01 00:00:00
FILE "03 - Brown Sugar.wav" WAVE
TRACK 03 AUDIO
TITLE "Brown Sugar"
PERFORMER "Charles Wright & The Watts 103Rd Street Rhythm Band"
FLAGS DCP
INDEX 01 00:00:00
FILE "04 - Soul Concerto.wav" WAVE
TRACK 04 AUDIO
TITLE "Soul Concerto"
PERFORMER "Charles Wright & The Watts 103Rd Street Rhythm Band"
FLAGS DCP
INDEX 01 00:00:00
FILE "05 - Fried Okra.wav" WAVE
TRACK 05 AUDIO
TITLE "Fried Okra"
PERFORMER "Charles Wright & The Watts 103Rd Street Rhythm Band"
FLAGS DCP
INDEX 01 00:00:00
FILE "06 - Spreadin' Honey.wav" WAVE
TRACK 06 AUDIO
TITLE "Spreadin' Honey"
PERFORMER "Charles Wright & The Watts 103Rd Street Rhythm Band"
FLAGS DCP
INDEX 01 00:00:00
FILE "07 - A Little Class & A Little Trash.wav" WAVE
TRACK 07 AUDIO
TITLE "A Little Class & A Little Trash"
PERFORMER "Charles Wright & The Watts 103Rd Street Rhythm Band"
FLAGS DCP
INDEX 01 00:00:00
FILE "08 - The 103Rd St. Theme.wav" WAVE
TRACK 08 AUDIO
TITLE "The 103Rd St. Theme"
PERFORMER "Charles Wright & The Watts 103Rd Street Rhythm Band"
FLAGS DCP
INDEX 01 00:00:00
FILE "09 - The Girl From Ipanema.wav" WAVE
TRACK 09 AUDIO
TITLE "The Girl From Ipanema"
PERFORMER "Charles Wright & The Watts 103Rd Street Rhythm Band"
FLAGS DCP
INDEX 01 00:00:00
FILE "10 - Bring It On Home To Me.wav" WAVE
TRACK 10 AUDIO
TITLE "Bring It On Home To Me"
PERFORMER "Charles Wright & The Watts 103Rd Street Rhythm Band"
FLAGS DCP
INDEX 01 00:00:00
FILE "11 - Whole Hog Or None At All.wav" WAVE
TRACK 11 AUDIO
TITLE "Whole Hog Or None At All"
PERFORMER "Charles Wright & The Watts 103Rd Street Rhythm Band"
FLAGS DCP
INDEX 01 00:00:00
FILE "12 - Watts Happening.wav" WAVE
TRACK 12 AUDIO
TITLE "Watts Happening"
PERFORMER "Charles Wright & The Watts 103Rd Street Rhythm Band"
FLAGS DCP
INDEX 01 00:00:00
 
Лог проверки качества
AUDIOCHECKER v2.0 beta (build 457) - by Dester - opdester@freemail.hu
~~~~~~~~~~~~~~~~~~~~~~~~~~~~~~~~~~
-=== DO NOT EDIT THIS FILE! ===-
Path: ...\CD1
01 -=- 01 - Caesar's Palace.flac -=- CDDA (99%)
02 -=- 02 - Yellow Submarine.flac -=- CDDA (100%)
03 -=- 03 - Brown Sugar.flac -=- CDDA (100%)
04 -=- 04 - Soul Concerto.flac -=- CDDA (100%)
05 -=- 05 - Fried Okra.flac -=- CDDA (100%)
06 -=- 06 - Spreadin' Honey.flac -=- CDDA (100%)
07 -=- 07 - A Little Class & A Little Trash.flac -=- CDDA (100%)
08 -=- 08 - The 103Rd St. Theme.flac -=- CDDA (100%)
09 -=- 09 - The Girl From Ipanema.flac -=- CDDA (100%)
10 -=- 10 - Bring It On Home To Me.flac -=- CDDA (100%)
11 -=- 11 - Whole Hog Or None At All.flac -=- CDDA (100%)
12 -=- 12 - Watts Happening.flac -=- CDDA (100%)
Summary 99,92% CDDA
161454692
 
CD2: Together (1968)
Продолжительность: 00:46:48
Треклист:
01. Sorry Charlie (03:31)
02. Something You Got (02:59)
03. 65 Bars And A Taste Of Soul (02:43)
04. Papa's Got A Brand New Bag (03:18)
05. (I Can't Get No) Satisfaction (03:11)
06. A Dance, A Kiss And A Song (02:30)
07. Phuncky Bill (03:15)
08. Get Ready (04:12)
09. Stormy Monday (04:57)
10. Giggin' Down 103rd (03:04)
11. My Summer's Gone (03:15)
12. Knock On Wood (02:51)
13. I Wake Up Crying (03:22)
14. Do Your Thing (03:34)
 
Лог создания рипа
Exact Audio Copy V0.99 prebeta 5 from 4. May 2009
EAC extraction logfile from 14. November 2010, 23:46
The Watts 103Rd Street Rhythm Band / Together
Used drive : PHILIPS DVDR1628P1 Adapter: 4 ID: 0
Read mode : Secure
Utilize accurate stream : Yes
Defeat audio cache : Yes
Make use of C2 pointers : No
Read offset correction : 618
Overread into Lead-In and Lead-Out : No
Fill up missing offset samples with silence : Yes
Delete leading and trailing silent blocks : No
Null samples used in CRC calculations : Yes
Used interface : Installed external ASPI interface
Gap handling : Appended to previous track
Used output format : User Defined Encoder
Selected bitrate : 128 kBit/s
Quality : High
Add ID3 tag : No
Command line compressor : C:\Program Files\Exact Audio Copy\Flac\flac.exe
Additional command line options : -8 -V -T "ARTIST=%a" -T "TITLE=%t" -T "ALBUM=%g" -T "DATE=%y" -T "TRACKNUMBER=%n" -T "TOTALTRACKS=%x" -T "GENRE=%m" -T "ALBUM ARTIST=%v" -T "ALBUMARTIST=%v" -T "COMMENT=EAC V0.99 prebeta 5, Secure Mode, Test & Copy, Accurat
TOC of the extracted CD
Track | Start | Length | Start sector | End sector
---------------------------------------------------------
1 | 0:00.00 | 3:31.33 | 0 | 15857
2 | 3:31.33 | 2:59.24 | 15858 | 29306
3 | 6:30.57 | 2:43.31 | 29307 | 41562
4 | 9:14.13 | 3:18.58 | 41563 | 56470
5 | 12:32.71 | 3:11.39 | 56471 | 70834
6 | 15:44.35 | 2:30.52 | 70835 | 82136
7 | 18:15.12 | 3:15.04 | 82137 | 96765
8 | 21:30.16 | 4:12.17 | 96766 | 115682
9 | 25:42.33 | 4:57.47 | 115683 | 138004
10 | 30:40.05 | 3:04.32 | 138005 | 151836
11 | 33:44.37 | 3:15.07 | 151837 | 166468
12 | 36:59.44 | 2:51.74 | 166469 | 179367
13 | 39:51.43 | 3:22.00 | 179368 | 194517
14 | 43:13.43 | 3:34.59 | 194518 | 210626
Track 1
Filename C:\addis gugsa killed my hdd\01 - Sorrie Charlie.wav
Pre-gap length 0:00:02.00
Peak level 88.0 %
Track quality 100.0 %
Test CRC ABAF0AE8
Copy CRC ABAF0AE8
Track not present in AccurateRip database
Copy OK
Track 2
Filename C:\addis gugsa killed my hdd\02 - Something You Got.wav
Peak level 79.7 %
Track quality 99.9 %
Test CRC ECA68BC3
Copy CRC ECA68BC3
Track not present in AccurateRip database
Copy OK
Track 3
Filename C:\addis gugsa killed my hdd\03 - 65 Bars And A Taste Of Soul.wav
Peak level 90.9 %
Track quality 100.0 %
Test CRC FDF1E172
Copy CRC FDF1E172
Track not present in AccurateRip database
Copy OK
Track 4
Filename C:\addis gugsa killed my hdd\04 - Papa's Got A Brand New Bag.wav
Peak level 80.0 %
Track quality 100.0 %
Test CRC 8F9A37E6
Copy CRC 8F9A37E6
Track not present in AccurateRip database
Copy OK
Track 5
Filename C:\addis gugsa killed my hdd\05 - (I Can't Get No) Satisfaction.wav
Peak level 69.4 %
Track quality 100.0 %
Test CRC 3A30AECB
Copy CRC 3A30AECB
Track not present in AccurateRip database
Copy OK
Track 6
Filename C:\addis gugsa killed my hdd\06 - A Dance A Kiss And A Song.wav
Peak level 87.6 %
Track quality 100.0 %
Test CRC 88A673A0
Copy CRC 88A673A0
Track not present in AccurateRip database
Copy OK
Track 7
Filename C:\addis gugsa killed my hdd\07 - Phuncky Bill.wav
Peak level 85.6 %
Track quality 100.0 %
Test CRC 578E540A
Copy CRC 578E540A
Track not present in AccurateRip database
Copy OK
Track 8
Filename C:\addis gugsa killed my hdd\08 - Ger Ready.wav
Peak level 79.8 %
Track quality 100.0 %
Test CRC 28C2A75B
Copy CRC 28C2A75B
Track not present in AccurateRip database
Copy OK
Track 9
Filename C:\addis gugsa killed my hdd\09 - Stormy Monday.wav
Peak level 76.3 %
Track quality 100.0 %
Test CRC C73A5D49
Copy CRC C73A5D49
Track not present in AccurateRip database
Copy OK
Track 10
Filename C:\addis gugsa killed my hdd\10 - Gigin' Down 103 Rd.wav
Peak level 84.9 %
Track quality 100.0 %
Test CRC D3F19F4E
Copy CRC D3F19F4E
Track not present in AccurateRip database
Copy OK
Track 11
Filename C:\addis gugsa killed my hdd\11 - My Sumer's Gone.wav
Peak level 72.7 %
Track quality 100.0 %
Test CRC FDA0174F
Copy CRC FDA0174F
Track not present in AccurateRip database
Copy OK
Track 12
Filename C:\addis gugsa killed my hdd\12 - Knock On Wood.wav
Peak level 80.4 %
Track quality 99.9 %
Test CRC 8963C0FB
Copy CRC 8963C0FB
Track not present in AccurateRip database
Copy OK
Track 13
Filename C:\addis gugsa killed my hdd\13 - I Wake Up Crying.wav
Peak level 80.1 %
Track quality 100.0 %
Test CRC F13362D0
Copy CRC F13362D0
Track not present in AccurateRip database
Copy OK
Track 14
Filename C:\addis gugsa killed my hdd\14 - Do Your Thing.wav
Peak level 82.7 %
Track quality 100.0 %
Test CRC C1200B35
Copy CRC C1200B35
Track not present in AccurateRip database
Copy OK
None of the tracks are present in the AccurateRip database
No errors occurred
End of status report
 
Содержание индексной карты (.CUE)
REM GENRE Soul
REM DATE 1968
REM DISCID BC0AF80E
REM COMMENT "ExactAudioCopy v0.99pb5"
PERFORMER "The Watts 103Rd Street Rhythm Band"
TITLE "Together"
FILE "01 - Sorrie Charlie.wav" WAVE
TRACK 01 AUDIO
TITLE "Sorrie Charlie"
PERFORMER "The Watts 103Rd Street Rhythm Band"
FLAGS DCP
INDEX 01 00:00:00
FILE "02 - Something You Got.wav" WAVE
TRACK 02 AUDIO
TITLE "Something You Got"
PERFORMER "The Watts 103Rd Street Rhythm Band"
FLAGS DCP
INDEX 01 00:00:00
FILE "03 - 65 Bars And A Taste Of Soul.wav" WAVE
TRACK 03 AUDIO
TITLE "65 Bars And A Taste Of Soul"
PERFORMER "The Watts 103Rd Street Rhythm Band"
FLAGS DCP
INDEX 01 00:00:00
FILE "04 - Papa's Got A Brand New Bag.wav" WAVE
TRACK 04 AUDIO
TITLE "Papa's Got A Brand New Bag"
PERFORMER "The Watts 103Rd Street Rhythm Band"
FLAGS DCP
INDEX 01 00:00:00
FILE "05 - (I Can't Get No) Satisfaction.wav" WAVE
TRACK 05 AUDIO
TITLE "(I Can't Get No) Satisfaction"
PERFORMER "The Watts 103Rd Street Rhythm Band"
FLAGS DCP
INDEX 01 00:00:00
FILE "06 - A Dance A Kiss And A Song.wav" WAVE
TRACK 06 AUDIO
TITLE "A Dance A Kiss And A Song"
PERFORMER "The Watts 103Rd Street Rhythm Band"
FLAGS DCP
INDEX 01 00:00:00
FILE "07 - Phuncky Bill.wav" WAVE
TRACK 07 AUDIO
TITLE "Phuncky Bill"
PERFORMER "The Watts 103Rd Street Rhythm Band"
FLAGS DCP
INDEX 01 00:00:00
FILE "08 - Ger Ready.wav" WAVE
TRACK 08 AUDIO
TITLE "Ger Ready"
PERFORMER "The Watts 103Rd Street Rhythm Band"
FLAGS DCP
INDEX 01 00:00:00
FILE "09 - Stormy Monday.wav" WAVE
TRACK 09 AUDIO
TITLE "Stormy Monday"
PERFORMER "The Watts 103Rd Street Rhythm Band"
FLAGS DCP
INDEX 01 00:00:00
FILE "10 - Gigin' Down 103 Rd.wav" WAVE
TRACK 10 AUDIO
TITLE "Gigin' Down 103 Rd"
PERFORMER "The Watts 103Rd Street Rhythm Band"
FLAGS DCP
INDEX 01 00:00:00
FILE "11 - My Sumer's Gone.wav" WAVE
TRACK 11 AUDIO
TITLE "My Sumer's Gone"
PERFORMER "The Watts 103Rd Street Rhythm Band"
FLAGS DCP
INDEX 01 00:00:00
FILE "12 - Knock On Wood.wav" WAVE
TRACK 12 AUDIO
TITLE "Knock On Wood"
PERFORMER "The Watts 103Rd Street Rhythm Band"
FLAGS DCP
INDEX 01 00:00:00
FILE "13 - I Wake Up Crying.wav" WAVE
TRACK 13 AUDIO
TITLE "I Wake Up Crying"
PERFORMER "The Watts 103Rd Street Rhythm Band"
FLAGS DCP
INDEX 01 00:00:00
FILE "14 - Do Your Thing.wav" WAVE
TRACK 14 AUDIO
TITLE "Do Your Thing"
PERFORMER "The Watts 103Rd Street Rhythm Band"
FLAGS DCP
INDEX 01 00:00:00
 
Лог проверки качества
AUDIOCHECKER v2.0 beta (build 457) - by Dester - opdester@freemail.hu
~~~~~~~~~~~~~~~~~~~~~~~~~~~~~~~~~~
-=== DO NOT EDIT THIS FILE! ===-
Path: ...\CD2
01 -=- 01 - Sorrie Charlie.flac -=- CDDA (99%)
02 -=- 02 - Something You Got.flac -=- CDDA (100%)
03 -=- 03 - 65 Bars And A Taste Of Soul.flac -=- CDDA (100%)
04 -=- 04 - Papa's Got A Brand New Bag.flac -=- CDDA (100%)
05 -=- 05 - (I Can't Get No) Satisfaction.flac -=- CDDA (100%)
06 -=- 06 - A Dance A Kiss And A Song.flac -=- CDDA (100%)
07 -=- 07 - Phuncky Bill.flac -=- CDDA (100%)
08 -=- 08 - Ger Ready.flac -=- CDDA (100%)
09 -=- 09 - Stormy Monday.flac -=- CDDA (100%)
10 -=- 10 - Gigin' Down 103 Rd.flac -=- CDDA (100%)
11 -=- 11 - My Sumer's Gone.flac -=- CDDA (100%)
12 -=- 12 - Knock On Wood.flac -=- CDDA (100%)
13 -=- 13 - I Wake Up Crying.flac -=- CDDA (100%)
14 -=- 14 - Do Your Thing.flac -=- CDDA (100%)
Summary 99,93% CDDA
159343124
 
CD3: In The Jungle, Babe (1969)
Продолжительность: 00:35:24
Треклист:
01. Till You Get Enough (05:08)
02. I'm A Midnight Mover (02:21)
03. Light My Fire (03:41)
04. Comment (05:57)
05. Everyday People (In The Jungle) (02:33)
06. Must Be Your Thing (03:41)
07. Love Land (03:05)
08. Oh Happy Gabe (Sometimes Blue) (02:53)
09. Twenty-Five Miles (03:06)
10. The Joker (On A Trip Through The Jungle) (03:04)
 
Лог создания рипа
Exact Audio Copy V0.99 prebeta 5 from 4. May 2009
EAC extraction logfile from 14. November 2010, 22:39
The Watts 103Rd Street Rhythm Band / In The Jungle Babe
Used drive : PHILIPS DVDR1628P1 Adapter: 4 ID: 0
Read mode : Secure
Utilize accurate stream : Yes
Defeat audio cache : Yes
Make use of C2 pointers : No
Read offset correction : 618
Overread into Lead-In and Lead-Out : No
Fill up missing offset samples with silence : Yes
Delete leading and trailing silent blocks : No
Null samples used in CRC calculations : Yes
Used interface : Installed external ASPI interface
Gap handling : Appended to previous track
Used output format : User Defined Encoder
Selected bitrate : 128 kBit/s
Quality : High
Add ID3 tag : No
Command line compressor : C:\Program Files\Exact Audio Copy\Flac\flac.exe
Additional command line options : -8 -V -T "ARTIST=%a" -T "TITLE=%t" -T "ALBUM=%g" -T "DATE=%y" -T "TRACKNUMBER=%n" -T "TOTALTRACKS=%x" -T "GENRE=%m" -T "ALBUM ARTIST=%v" -T "ALBUMARTIST=%v" -T "COMMENT=EAC V0.99 prebeta 5, Secure Mode, Test & Copy, Accurat
TOC of the extracted CD
Track | Start | Length | Start sector | End sector
---------------------------------------------------------
1 | 0:00.00 | 5:08.47 | 0 | 23146
2 | 5:08.47 | 2:12.31 | 23147 | 33077
3 | 7:21.03 | 3:41.33 | 33078 | 49685
4 | 11:02.36 | 5:57.09 | 49686 | 76469
5 | 16:59.45 | 2:33.13 | 76470 | 87957
6 | 19:32.58 | 3:41.32 | 87958 | 104564
7 | 23:14.15 | 3:05.10 | 104565 | 118449
8 | 26:19.25 | 2:53.60 | 118450 | 131484
9 | 29:13.10 | 3:06.26 | 131485 | 145460
10 | 32:19.36 | 3:04.65 | 145461 | 159325
Track 1
Filename C:\addis gugsa killed my hdd\01 - Till You Get Enough.wav
Pre-gap length 0:00:02.00
Peak level 88.1 %
Track quality 100.0 %
Test CRC 3B457FA6
Copy CRC 3B457FA6
Track not present in AccurateRip database
Copy OK
Track 2
Filename C:\addis gugsa killed my hdd\02 - I'm A Midnight Mover.wav
Peak level 99.9 %
Track quality 100.0 %
Test CRC 735D5F16
Copy CRC 735D5F16
Track not present in AccurateRip database
Copy OK
Track 3
Filename C:\addis gugsa killed my hdd\03 - Light My Fire.wav
Peak level 99.2 %
Track quality 100.0 %
Test CRC E224D9DA
Copy CRC E224D9DA
Track not present in AccurateRip database
Copy OK
Track 4
Filename C:\addis gugsa killed my hdd\04 - Comment.wav
Peak level 98.8 %
Track quality 100.0 %
Test CRC 873736E9
Copy CRC 873736E9
Track not present in AccurateRip database
Copy OK
Track 5
Filename C:\addis gugsa killed my hdd\05 - Everyday People.wav
Peak level 98.8 %
Track quality 100.0 %
Test CRC 8237810A
Copy CRC 8237810A
Track not present in AccurateRip database
Copy OK
Track 6
Filename C:\addis gugsa killed my hdd\06 - Must Be Your Thing.wav
Peak level 93.7 %
Track quality 100.0 %
Test CRC BA81D13F
Copy CRC BA81D13F
Track not present in AccurateRip database
Copy OK
Track 7
Filename C:\addis gugsa killed my hdd\07 - Love Land.wav
Peak level 91.6 %
Track quality 100.0 %
Test CRC 1A8EBD54
Copy CRC 1A8EBD54
Track not present in AccurateRip database
Copy OK
Track 8
Filename C:\addis gugsa killed my hdd\08 - Oh Happy Gabe (Sometimes Blue).wav
Peak level 91.4 %
Track quality 100.0 %
Test CRC 505223C5
Copy CRC 505223C5
Track not present in AccurateRip database
Copy OK
Track 9
Filename C:\addis gugsa killed my hdd\09 - Twenty-Five Miles.wav
Peak level 90.9 %
Track quality 100.0 %
Test CRC 4CD3FB67
Copy CRC 4CD3FB67
Track not present in AccurateRip database
Copy OK
Track 10
Filename C:\addis gugsa killed my hdd\10 - The Joker (On A Trip Through The Jungle).wav
Peak level 90.9 %
Track quality 100.0 %
Test CRC 5580EFA9
Copy CRC 5580EFA9
Track not present in AccurateRip database
Copy OK
None of the tracks are present in the AccurateRip database
No errors occurred
End of status report
 
Содержание индексной карты (.CUE)
REM GENRE Soul
REM DATE 1969
REM DISCID 75084C0A
REM COMMENT "ExactAudioCopy v0.99pb5"
PERFORMER "The Watts 103Rd Street Rhythm Band"
TITLE "In The Jungle Babe"
FILE "01 - Till You Get Enough.wav" WAVE
TRACK 01 AUDIO
TITLE "Till You Get Enough"
PERFORMER "The Watts 103Rd Street Rhythm Band"
FLAGS DCP
INDEX 01 00:00:00
FILE "02 - I'm A Midnight Mover.wav" WAVE
TRACK 02 AUDIO
TITLE "I'm A Midnight Mover"
PERFORMER "The Watts 103Rd Street Rhythm Band"
FLAGS DCP
INDEX 01 00:00:00
FILE "03 - Light My Fire.wav" WAVE
TRACK 03 AUDIO
TITLE "Light My Fire"
PERFORMER "The Watts 103Rd Street Rhythm Band"
FLAGS DCP
INDEX 01 00:00:00
FILE "04 - Comment.wav" WAVE
TRACK 04 AUDIO
TITLE "Comment"
PERFORMER "The Watts 103Rd Street Rhythm Band"
FLAGS DCP
INDEX 01 00:00:00
FILE "05 - Everyday People.wav" WAVE
TRACK 05 AUDIO
TITLE "Everyday People"
PERFORMER "The Watts 103Rd Street Rhythm Band"
FLAGS DCP
INDEX 01 00:00:00
FILE "06 - Must Be Your Thing.wav" WAVE
TRACK 06 AUDIO
TITLE "Must Be Your Thing"
PERFORMER "The Watts 103Rd Street Rhythm Band"
FLAGS DCP
INDEX 01 00:00:00
FILE "07 - Love Land.wav" WAVE
TRACK 07 AUDIO
TITLE "Love Land"
PERFORMER "The Watts 103Rd Street Rhythm Band"
FLAGS DCP
INDEX 01 00:00:00
FILE "08 - Oh Happy Gabe (Sometimes Blue).wav" WAVE
TRACK 08 AUDIO
TITLE "Oh Happy Gabe (Sometimes Blue)"
PERFORMER "The Watts 103Rd Street Rhythm Band"
FLAGS DCP
INDEX 01 00:00:00
FILE "09 - Twenty-Five Miles.wav" WAVE
TRACK 09 AUDIO
TITLE "Twenty-Five Miles"
PERFORMER "The Watts 103Rd Street Rhythm Band"
FLAGS DCP
INDEX 01 00:00:00
FILE "10 - The Joker (On A Trip Through The Jungle).wav" WAVE
TRACK 10 AUDIO
TITLE "The Joker (On A Trip Through The Jungle)"
PERFORMER "The Watts 103Rd Street Rhythm Band"
FLAGS DCP
INDEX 01 00:00:00
 
Лог проверки качества
AUDIOCHECKER v2.0 beta (build 457) - by Dester - opdester@freemail.hu
~~~~~~~~~~~~~~~~~~~~~~~~~~~~~~~~~~
-=== DO NOT EDIT THIS FILE! ===-
Path: ...\CD3
01 -=- 01 - Till You Get Enough.flac -=- CDDA (100%)
02 -=- 02 - I'm A Midnight Mover.flac -=- CDDA (100%)
03 -=- 03 - Light My Fire.flac -=- CDDA (100%)
04 -=- 04 - Comment.flac -=- CDDA (100%)
05 -=- 05 - Everyday People.flac -=- CDDA (100%)
06 -=- 06 - Must Be Your Thing.flac -=- CDDA (100%)
07 -=- 07 - Love Land.flac -=- CDDA (100%)
08 -=- 08 - Oh Happy Gabe (Sometimes Blue).flac -=- CDDA (100%)
09 -=- 09 - Twenty-Five Miles.flac -=- CDDA (100%)
10 -=- 10 - The Joker (On A Trip Through The Jungle).flac -=- CDDA (100%)
Summary 100,00% CDDA
138206196
 
CD4: Express Yourself (1970)
Продолжительность: 00:45:35
Треклист:
01. Road Without An End (03:07)
02. I Got Love (03:39)
03. High As Apple Pie - Slice I (07:22)
04. Express Yourself (03:54)
05. I'm Aware (03:49)
06. Tell Me What You Want Me To Do (05:45)
07. High As Apple Pie - Slice II (17:57)
 
Лог создания рипа
Exact Audio Copy V0.99 prebeta 5 from 4. May 2009
EAC extraction logfile from 14. November 2010, 21:52
Charles Wright & The Watts 103Rd Street Rhythm Band / Express Yourself
Used drive : PHILIPS DVDR1628P1 Adapter: 4 ID: 0
Read mode : Secure
Utilize accurate stream : Yes
Defeat audio cache : Yes
Make use of C2 pointers : No
Read offset correction : 618
Overread into Lead-In and Lead-Out : No
Fill up missing offset samples with silence : Yes
Delete leading and trailing silent blocks : No
Null samples used in CRC calculations : Yes
Used interface : Installed external ASPI interface
Gap handling : Appended to previous track
Used output format : User Defined Encoder
Selected bitrate : 128 kBit/s
Quality : High
Add ID3 tag : No
Command line compressor : C:\Program Files\Exact Audio Copy\Flac\flac.exe
Additional command line options : -8 -V -T "ARTIST=%a" -T "TITLE=%t" -T "ALBUM=%g" -T "DATE=%y" -T "TRACKNUMBER=%n" -T "TOTALTRACKS=%x" -T "GENRE=%m" -T "ALBUM ARTIST=%v" -T "ALBUMARTIST=%v" -T "COMMENT=EAC V0.99 prebeta 5, Secure Mode, Test & Copy, Accurat
TOC of the extracted CD
Track | Start | Length | Start sector | End sector
---------------------------------------------------------
1 | 0:00.00 | 3:07.49 | 0 | 14073
2 | 3:07.49 | 3:39.24 | 14074 | 30522
3 | 6:46.73 | 7:22.35 | 30523 | 63707
4 | 14:09.33 | 3:54.10 | 63708 | 81267
5 | 18:03.43 | 3:49.24 | 81268 | 98466
6 | 21:52.67 | 5:45.19 | 98467 | 124360
7 | 27:38.11 | 17:57.31 | 124361 | 205166
Track 1
Filename C:\addis gugsa killed my hdd\01 - Road Without An End.wav
Pre-gap length 0:00:02.00
Peak level 96.1 %
Track quality 100.0 %
Test CRC 615DA617
Copy CRC 615DA617
Track not present in AccurateRip database
Copy OK
Track 2
Filename C:\addis gugsa killed my hdd\02 - I Got Love.wav
Peak level 92.7 %
Track quality 100.0 %
Test CRC E77A66AF
Copy CRC E77A66AF
Track not present in AccurateRip database
Copy OK
Track 3
Filename C:\addis gugsa killed my hdd\03 - High As Apple Pie (Slice 1).wav
Peak level 95.6 %
Track quality 100.0 %
Test CRC 63E69796
Copy CRC 63E69796
Track not present in AccurateRip database
Copy OK
Track 4
Filename C:\addis gugsa killed my hdd\04 - Express Yourself.wav
Peak level 96.0 %
Track quality 100.0 %
Test CRC 423CA61F
Copy CRC 423CA61F
Track not present in AccurateRip database
Copy OK
Track 5
Filename C:\addis gugsa killed my hdd\05 - I'm Aware.wav
Peak level 93.1 %
Track quality 100.0 %
Test CRC D9F7D771
Copy CRC D9F7D771
Track not present in AccurateRip database
Copy OK
Track 6
Filename C:\addis gugsa killed my hdd\06 - Tell Me What You Want Me To Do.wav
Peak level 96.9 %
Track quality 100.0 %
Test CRC 746AC8A2
Copy CRC 746AC8A2
Track not present in AccurateRip database
Copy OK
Track 7
Filename C:\addis gugsa killed my hdd\07 - High As Apple Pie (Slice 2).wav
Peak level 88.7 %
Track quality 100.0 %
Test CRC C62FE11D
Copy CRC C62FE11D
Track not present in AccurateRip database
Copy OK
None of the tracks are present in the AccurateRip database
No errors occurred
End of status report
 
Содержание индексной карты (.CUE)
REM GENRE Soul
REM DATE 1970
REM DISCID 520AAF07
REM COMMENT "ExactAudioCopy v0.99pb5"
PERFORMER "Charles Wright & The Watts 103Rd Street Rhythm Band"
TITLE "Express Yourself"
FILE "01 - Road Without An End.wav" WAVE
TRACK 01 AUDIO
TITLE "Road Without An End"
PERFORMER "Charles Wright & The Watts 103Rd Street Rhythm Band"
FLAGS DCP
INDEX 01 00:00:00
FILE "02 - I Got Love.wav" WAVE
TRACK 02 AUDIO
TITLE "I Got Love"
PERFORMER "Charles Wright & The Watts 103Rd Street Rhythm Band"
FLAGS DCP
INDEX 01 00:00:00
FILE "03 - High As Apple Pie (Slice 1).wav" WAVE
TRACK 03 AUDIO
TITLE "High As Apple Pie (Slice 1)"
PERFORMER "Charles Wright & The Watts 103Rd Street Rhythm Band"
FLAGS DCP
INDEX 01 00:00:00
FILE "04 - Express Yourself.wav" WAVE
TRACK 04 AUDIO
TITLE "Express Yourself"
PERFORMER "Charles Wright & The Watts 103Rd Street Rhythm Band"
FLAGS DCP
INDEX 01 00:00:00
FILE "05 - I'm Aware.wav" WAVE
TRACK 05 AUDIO
TITLE "I'm Aware"
PERFORMER "Charles Wright & The Watts 103Rd Street Rhythm Band"
FLAGS DCP
INDEX 01 00:00:00
FILE "06 - Tell Me What You Want Me To Do.wav" WAVE
TRACK 06 AUDIO
TITLE "Tell Me What You Want Me To Do"
PERFORMER "Charles Wright & The Watts 103Rd Street Rhythm Band"
FLAGS DCP
INDEX 01 00:00:00
FILE "07 - High As Apple Pie (Slice 2).wav" WAVE
TRACK 07 AUDIO
TITLE "High As Apple Pie (Slice 2)"
PERFORMER "Charles Wright & The Watts 103Rd Street Rhythm Band"
FLAGS DCP
INDEX 01 00:00:00
 
Лог проверки качества
AUDIOCHECKER v2.0 beta (build 457) - by Dester - opdester@freemail.hu
~~~~~~~~~~~~~~~~~~~~~~~~~~~~~~~~~~
-=== DO NOT EDIT THIS FILE! ===-
Path: ...\CD4
01 -=- 01 - Road Without An End.flac -=- CDDA (100%)
02 -=- 02 - I Got Love.flac -=- CDDA (100%)
03 -=- 03 - High As Apple Pie (Slice 1).flac -=- CDDA (100%)
04 -=- 04 - Express Yourself.flac -=- CDDA (100%)
05 -=- 05 - I'm Aware.flac -=- CDDA (100%)
06 -=- 06 - Tell Me What You Want Me To Do.flac -=- CDDA (100%)
07 -=- 07 - High As Apple Pie (Slice 2).flac -=- CDDA (100%)
Summary 100,00% CDDA
134199764
 
CD5: You're So Beautiful (1971)
Продолжительность: 00:28:30
Треклист:
01. Express Yourself II (05:48)
02. Let's Make Love Not War (01:59)
03. Just To Settle My Nerves (06:17)
04. What Can You Bring Me (02:48)
05. Your Love Means Everything To Me (03:09)
06. You're So Beautiful (04:53)
07. I Got Your Love (03:33)
 
Лог создания рипа
Exact Audio Copy V0.99 prebeta 5 from 4. May 2009
EAC extraction logfile from 14. November 2010, 20:39
Charles Wright & The Watts 103Rd Street Rhythm Band / You're So Beautiful
Used drive : PHILIPS DVDR1628P1 Adapter: 4 ID: 0
Read mode : Secure
Utilize accurate stream : Yes
Defeat audio cache : Yes
Make use of C2 pointers : No
Read offset correction : 618
Overread into Lead-In and Lead-Out : No
Fill up missing offset samples with silence : Yes
Delete leading and trailing silent blocks : No
Null samples used in CRC calculations : Yes
Used interface : Installed external ASPI interface
Gap handling : Appended to previous track
Used output format : User Defined Encoder
Selected bitrate : 128 kBit/s
Quality : High
Add ID3 tag : No
Command line compressor : C:\Program Files\Exact Audio Copy\Flac\flac.exe
Additional command line options : -8 -V -T "ARTIST=%a" -T "TITLE=%t" -T "ALBUM=%g" -T "DATE=%y" -T "TRACKNUMBER=%n" -T "TOTALTRACKS=%x" -T "GENRE=%m" -T "ALBUM ARTIST=%v" -T "ALBUMARTIST=%v" -T "COMMENT=EAC V0.99 prebeta 5, Secure Mode, Test & Copy, Accurat
TOC of the extracted CD
Track | Start | Length | Start sector | End sector
---------------------------------------------------------
1 | 0:00.00 | 5:48.25 | 0 | 26124
2 | 5:48.25 | 1:59.29 | 26125 | 35078
3 | 7:47.54 | 6:17.35 | 35079 | 63388
4 | 14:05.14 | 2:48.23 | 63389 | 76011
5 | 16:53.37 | 3:09.68 | 76012 | 90254
6 | 20:03.30 | 4:53.04 | 90255 | 112233
7 | 24:56.34 | 3:33.58 | 112234 | 128266
Track 1
Filename C:\addis gugsa killed my hdd\01 - Express Yourself II.wav
Pre-gap length 0:00:02.00
Peak level 87.1 %
Track quality 99.9 %
Test CRC 71B3082C
Copy CRC 71B3082C
Track not present in AccurateRip database
Copy OK
Track 2
Filename C:\addis gugsa killed my hdd\02 - Let's Make Love Not War.wav
Peak level 80.8 %
Track quality 100.0 %
Test CRC 57725909
Copy CRC 57725909
Track not present in AccurateRip database
Copy OK
Track 3
Filename C:\addis gugsa killed my hdd\03 - Just To Settle My Nerves.wav
Peak level 78.9 %
Track quality 100.0 %
Test CRC 58CC1856
Copy CRC 58CC1856
Track not present in AccurateRip database
Copy OK
Track 4
Filename C:\addis gugsa killed my hdd\04 - What Can You Bring Me.wav
Peak level 84.4 %
Track quality 100.0 %
Test CRC 1766A2BD
Copy CRC 1766A2BD
Track not present in AccurateRip database
Copy OK
Track 5
Filename C:\addis gugsa killed my hdd\05 - Your Love Means Everything To Me.wav
Peak level 69.8 %
Track quality 99.9 %
Test CRC 2D581936
Copy CRC 2D581936
Track not present in AccurateRip database
Copy OK
Track 6
Filename C:\addis gugsa killed my hdd\06 - You're So Beautiful.wav
Peak level 86.9 %
Track quality 100.0 %
Test CRC FEFC957F
Copy CRC FEFC957F
Track not present in AccurateRip database
Copy OK
Track 7
Filename C:\addis gugsa killed my hdd\07 - I Got Your Love.wav
Peak level 82.7 %
Track quality 100.0 %
Test CRC 1CDF2376
Copy CRC 1CDF2376
Track not present in AccurateRip database
Copy OK
None of the tracks are present in the AccurateRip database
No errors occurred
End of status report
 
Содержание индексной карты (.CUE)
REM GENRE Soul
REM DATE 1971
REM DISCID 5506AE07
REM COMMENT "ExactAudioCopy v0.99pb5"
PERFORMER "Charles Wright & The Watts 103Rd Street Rhythm Band"
TITLE "You're So Beautiful"
FILE "01 - Express Yourself II.wav" WAVE
TRACK 01 AUDIO
TITLE "Express Yourself II"
PERFORMER "Charles Wright & The Watts 103Rd Street Rhythm Band"
FLAGS DCP
INDEX 01 00:00:00
FILE "02 - Let's Make Love Not War.wav" WAVE
TRACK 02 AUDIO
TITLE "Let's Make Love Not War"
PERFORMER "Charles Wright & The Watts 103Rd Street Rhythm Band"
FLAGS DCP
INDEX 01 00:00:00
FILE "03 - Just To Settle My Nerves.wav" WAVE
TRACK 03 AUDIO
TITLE "Just To Settle My Nerves"
PERFORMER "Charles Wright & The Watts 103Rd Street Rhythm Band"
FLAGS DCP
INDEX 01 00:00:00
FILE "04 - What Can You Bring Me.wav" WAVE
TRACK 04 AUDIO
TITLE "What Can You Bring Me"
PERFORMER "Charles Wright & The Watts 103Rd Street Rhythm Band"
FLAGS DCP
INDEX 01 00:00:00
FILE "05 - Your Love Means Everything To Me.wav" WAVE
TRACK 05 AUDIO
TITLE "Your Love Means Everything To Me"
PERFORMER "Charles Wright & The Watts 103Rd Street Rhythm Band"
FLAGS DCP
INDEX 01 00:00:00
FILE "06 - You're So Beautiful.wav" WAVE
TRACK 06 AUDIO
TITLE "You're So Beautiful"
PERFORMER "Charles Wright & The Watts 103Rd Street Rhythm Band"
FLAGS DCP
INDEX 01 00:00:00
FILE "07 - I Got Your Love.wav" WAVE
TRACK 07 AUDIO
TITLE "I Got Your Love"
PERFORMER "Charles Wright & The Watts 103Rd Street Rhythm Band"
FLAGS DCP
INDEX 01 00:00:00
 
Лог проверки качества
AUDIOCHECKER v2.0 beta (build 457) - by Dester - opdester@freemail.hu
~~~~~~~~~~~~~~~~~~~~~~~~~~~~~~~~~~
-=== DO NOT EDIT THIS FILE! ===-
Path: ...\CD5
01 -=- 01 - Express Yourself II.flac -=- CDDA (100%)
02 -=- 02 - Let's Make Love Not War.flac -=- CDDA (100%)
03 -=- 03 - Just To Settle My Nerves.flac -=- CDDA (100%)
04 -=- 04 - What Can You Bring Me.flac -=- CDDA (100%)
05 -=- 05 - Your Love Means Everything To Me.flac -=- CDDA (100%)
06 -=- 06 - You're So Beautiful.flac -=- CDDA (100%)
07 -=- 07 - I Got Your Love.flac -=- CDDA (99%)
Summary 99,86% CDDA
5311300
Доп. информация: В оформлении бокса и в сканах у составителей бокса вкралась ошибка. Они назвали 1-й альбом в боксе The Watts 103Rd Street Rhythm Band. На самом деле - это альбом Hot Heat And Sweet Groove (1967).
С удовольствием отдам эту или любую другую свою раздачу для коллекции или дискографии.
Приватный:
Нет (DHT включён)
Размер:
1.07 Гб (1,151,507,075 байт) » файлов: 87
Участники:
0 раздают, 1 качают (1 участников всего)
Внешние участники:
5 раздают, 2 качают (7 участников всего) [ Обновить ]
Есть вопросы - пишите личное сообщение пользователю M0p94ok.
13:07
81
Нет комментариев. Ваш будет первым!