Поиск

(Soul, R&B) [CD] Shirley Brown - Woman To Woman (1974) - 2001, FLAC (image+.cue), lossless

(Soul, R&B) [CD] Shirley Brown - Woman To Woman (1974) - 2001, FLAC (image+.cue), lossless
Треклист:
Shirley Brown - Woman To Woman (1974)
Жанр: Soul, R&B
Носитель: CD
Год издания: 2001
Издатель (лейбл): Stax Records
Номер по каталогу: SCD24 4135-2
Аудиокодек: FLAC (*.flac)
Тип рипа: image+.cue
Битрейт аудио: lossless
Продолжительность: 37:53
Rip by Bobbit
Наличие сканов в содержимом раздачи: да
Треклист:
01. It Ain't No Fun (5:58)
02. As Long As You Love Me (3:29)
03. Stay With Me Baby (3:17)
04. I've Got To Go On Without You (4:01)
05. Woman To Woman (3:55)
06. So Glad To Have You (3:43)
07. Passion (3:59)
08. I Can't Give You Up (3:38)
09. I Need You Tonight (3:15)
10. Between You And Me (2:39)
 
 
Лог создания рипа
EAC extraction logfile from 24. July 2008, 20:38 for CD
Shirley Brown / Woman To Woman
Used drive : HL-DT-STDVDRAM GSA-H42N Adapter: 2 ID: 1
Read mode : Secure with NO C2, accurate stream, disable cache
Read offset correction : 667
Overread into Lead-In and Lead-Out : No
Used output format : Internal WAV Routines
44.100 Hz; 16 Bit; Stereo
Other options :
Fill up missing offset samples with silence : Yes
Delete leading and trailing silent blocks : No
Installed external ASPI interface
Range status and errors
Selected range
Filename G:\MASSIMILIANO MUSICA\Shirley Brown - Woman To Woman.wav
Peak level 96.6 %
Range quality 100.0 %
CRC 9455344D
Copy OK
No errors occured
End of status report
 
Содержание индексной карты (.CUE)
REM GENRE Soul
REM DATE 1974
REM DISCID 6D08E00A
REM COMMENT "ExactAudioCopy v0.95b4"
PERFORMER "Shirley Brown"
TITLE "Woman To Woman"
FILE "Shirley Brown - Woman To Woman.flac" WAVE
TRACK 01 AUDIO
TITLE "It Ain't No Fun"
PERFORMER "Shirley Brown"
ISRC DEA319906113
INDEX 01 00:00:00
TRACK 02 AUDIO
TITLE "As Long As You Love Me"
PERFORMER "Shirley Brown"
ISRC DEA310102101
INDEX 00 05:56:01
INDEX 01 05:58:01
TRACK 03 AUDIO
TITLE "Stay With Me Baby"
PERFORMER "Shirley Brown"
ISRC DEA319601951
INDEX 00 09:24:64
INDEX 01 09:26:64
TRACK 04 AUDIO
TITLE "I've Got To Go On Without You"
PERFORMER "Shirley Brown"
ISRC DEA310102102
INDEX 00 12:41:44
INDEX 01 12:43:44
TRACK 05 AUDIO
TITLE "Woman To Woman"
PERFORMER "Shirley Brown"
ISRC DEA319905282
INDEX 00 16:42:35
INDEX 01 16:44:35
TRACK 06 AUDIO
TITLE "So Glad To Have You"
PERFORMER "Shirley Brown"
ISRC DEA310102103
INDEX 00 20:37:25
INDEX 01 20:39:25
TRACK 07 AUDIO
TITLE "Passion"
PERFORMER "Shirley Brown"
ISRC DEA310102104
INDEX 00 24:20:05
INDEX 01 24:22:05
TRACK 08 AUDIO
TITLE "I Can't Give You Up"
PERFORMER "Shirley Brown"
ISRC DEA310102105
INDEX 00 28:18:57
INDEX 01 28:20:57
TRACK 09 AUDIO
TITLE "I Need You Tonight"
PERFORMER "Shirley Brown"
ISRC DEA310102106
INDEX 00 31:56:40
INDEX 01 31:58:40
TRACK 10 AUDIO
TITLE "Between You And Me"
PERFORMER "Shirley Brown"
ISRC DEA310102107
INDEX 00 35:11:66
INDEX 01 35:13:66
 
AccurateRip
[CUETools log; Date: 13.01.2015 18:46:20; Version: 2.0.9]
[CTDB TOCID: G_48F0TpDNdnqWcUy_HFE0GrTd4-] found.
[ CTDBID ] Status
[550d27e4] (3/3) Accurately ripped
[AccurateRip ID: 000f55ca-00785c7d-6d08e00a] found.
Track [ CRC ] Status
01 [42612589] (6/6) Accurately ripped
02 [c7f66c0a] (6/6) Accurately ripped
03 [31d4b961] (6/6) Accurately ripped
04 [28c83ee2] (6/6) Accurately ripped
05 [7ab0d492] (6/6) Accurately ripped
06 [e01b357f] (6/6) Accurately ripped
07 [035d8e5c] (6/6) Accurately ripped
08 [3410f102] (6/6) Accurately ripped
09 [44c4c453] (6/6) Accurately ripped
10 [f9c7b848] (6/6) Accurately ripped
Track Peak [ CRC32 ] [W/O NULL] [ LOG ]
-- 96,6 [9455344D] [152CF6E8] CRC32
01 96,6 [CDB311DB] [4161B935]
02 96,6 [4DBA58B0] [9C875A3B]
03 96,6 [6CCAD0DE] [C8FA6085]
04 96,6 [A0E1B24C] [FF129CCE]
05 96,6 [E419D040] [614B9105]
06 96,6 [AE3C0FE8] [DFE8D97A]
07 96,6 [B373A3CA] [4F604F3E]
08 96,6 [716D49F1] [7FB39E6B]
09 96,6 [4C743FBD] [5FFE5D8E]
10 96,6 [38BFCC7B] [A46A060B]
Приватный:
Нет (DHT включён)
Размер:
243.26 Мб (255,081,261 байт) » файлов: 9
Участники:
0 раздают, 0 качают (0 участников всего)
Внешние участники:
2 раздают, 1 качают (3 участников всего) [ Обновить ]
Есть вопросы - пишите личное сообщение пользователю M0p94ok.
03:47
66
Нет комментариев. Ваш будет первым!