Поиск

(Soul, R&B) [CD] Shirley Brown - Diva Of Soul - 1995, FLAC (tracks+.cue), lossless

(Soul, R&B) [CD] Shirley Brown - Diva Of Soul - 1995, FLAC (tracks+.cue), lossless
Треклист:
Shirley Brown - Diva Of Soul
Жанр: Soul, R&B
Носитель: CD
Год издания: 1995
Издатель (лейбл): Dome Records
Номер по каталогу: DOME CD 7
Аудиокодек: FLAC (*.flac)
Тип рипа: tracks+.cue
Битрейт аудио: lossless
Продолжительность: 68:01
Rip by JET 1
Наличие сканов: да
Треклист:
01. You Ain't Got To Hide Your Man (4:23)
02. If You're Weak Enough (4:58)
03. Good Loving Man (4:10)
04. One More Time (5:54)
05. You Ain't Woman Enough To Take My Man (5:11)
06. Put Your Money Where Your Mouth Is (4:20)
07. Talk To Me (5:38)
08. Sprung On His Love (4:20)
09. Better You Go Your Way (5:15)
10. Leftover Love (5:11)
11. Ain't Nothin' Like The Lovin' We Got (4:46)
12. Anticipation (5:20)
13. A Two-Way Thang (5:27)
14. Long On Lovin' (3:08)
 
 
Лог создания рипа
Exact Audio Copy V1.0 beta 3 from 29. August 2011
EAC extraction logfile from 7. January 2015, 10:24
Shirly Brown / Diva of Soul
Used drive : ATAPI DVD A DH16A6L-C Adapter: 2 ID: 0
Read mode : Secure
Utilize accurate stream : Yes
Defeat audio cache : Yes
Make use of C2 pointers : No
Read offset correction : 6
Overread into Lead-In and Lead-Out : No
Fill up missing offset samples with silence : Yes
Delete leading and trailing silent blocks : No
Null samples used in CRC calculations : Yes
Used interface : Native Win32 interface for Win NT & 2000
Gap handling : Appended to previous track
Used output format : User Defined Encoder
Selected bitrate : 1024 kBit/s
Quality : High
Add ID3 tag : No
Command line compressor : C:\Program Files\FLAC\flac.exe
Additional command line options : -8 -V -T "ARTIST=%artist%" -T "TITLE=%title%" -T "ALBUM=%albumtitle%" -T "DATE=%year%" -T "TRACKNUMBER=%tracknr%" -T "GENRE=%genre%" -T "PERFORMER=%albuminterpret%" -T "COMPOSER=%composer%" %haslyrics%--tag-from-file=LYRICS="%lyricsfile%"%haslyrics% -T "ALBUMARTIST=%albumartist%" -T "DISCNUMBER=%cdnumber%" -T "TOTALDISCS=%totalcds%" -T "TOTALTRACKS=%numtracks%" -T "COMMENT=%comment%" %source% -o %dest%
TOC of the extracted CD
Track | Start | Length | Start sector | End sector
---------------------------------------------------------
1 | 0:00.32 | 4:23.35 | 32 | 19791
2 | 4:23.67 | 4:58.23 | 19792 | 42164
3 | 9:22.15 | 4:10.22 | 42165 | 60936
4 | 13:32.37 | 5:54.18 | 60937 | 87504
5 | 19:26.55 | 5:11.05 | 87505 | 110834
6 | 24:37.60 | 4:20.02 | 110835 | 130336
7 | 28:57.62 | 5:37.63 | 130337 | 155674
8 | 34:35.50 | 4:19.55 | 155675 | 175154
9 | 38:55.30 | 5:14.65 | 175155 | 198769
10 | 44:10.20 | 5:10.70 | 198770 | 222089
11 | 49:21.15 | 4:45.45 | 222090 | 243509
12 | 54:06.60 | 5:19.55 | 243510 | 267489
13 | 59:26.40 | 5:27.22 | 267490 | 292036
14 | 64:53.62 | 3:07.40 | 292037 | 306101
Track 1
Filename F:\0\!!!!!POST!!!!\Shirley Brown - Diva of Soul (1995)\01 - You ain't got to hide your man.wav
Pre-gap length 0:00:02.32
Peak level 78.2 %
Extraction speed 3.9 X
Track quality 100.0 %
Test CRC 14495E33
Copy CRC 14495E33
Accurately ripped (confidence 1) [263405BF] (AR v1)
Copy OK
Track 2
Filename F:\0\!!!!!POST!!!!\Shirley Brown - Diva of Soul (1995)\02 - If you're weak enough.wav
Pre-gap length 0:00:02.07
Peak level 76.5 %
Extraction speed 4.5 X
Track quality 100.0 %
Test CRC B0A9E10B
Copy CRC B0A9E10B
Accurately ripped (confidence 1) [53BE4DD7] (AR v1)
Copy OK
Track 3
Filename F:\0\!!!!!POST!!!!\Shirley Brown - Diva of Soul (1995)\03 - Good loving man.wav
Pre-gap length 0:00:02.35
Peak level 75.7 %
Extraction speed 3.9 X
Track quality 99.9 %
Test CRC D6EF165B
Copy CRC D6EF165B
Accurately ripped (confidence 1) [85E8A92B] (AR v1)
Copy OK
Track 4
Filename F:\0\!!!!!POST!!!!\Shirley Brown - Diva of Soul (1995)\04 - One more time.wav
Pre-gap length 0:00:02.30
Peak level 76.1 %
Extraction speed 4.5 X
Track quality 99.9 %
Test CRC F5908427
Copy CRC F5908427
Accurately ripped (confidence 1) [BEA51126] (AR v1)
Copy OK
Track 5
Filename F:\0\!!!!!POST!!!!\Shirley Brown - Diva of Soul (1995)\05 - You ain't woman enough to take my man.wav
Pre-gap length 0:00:02.50
Peak level 77.1 %
Extraction speed 4.7 X
Track quality 99.9 %
Test CRC 2094306D
Copy CRC 2094306D
Accurately ripped (confidence 1) [BF165117] (AR v1)
Copy OK
Track 6
Filename F:\0\!!!!!POST!!!!\Shirley Brown - Diva of Soul (1995)\06 - Put your money where your mouth is.wav
Pre-gap length 0:00:03.35
Peak level 76.4 %
Extraction speed 5.8 X
Track quality 100.0 %
Test CRC 14AA7150
Copy CRC 14AA7150
Accurately ripped (confidence 1) [C1F2FD57] (AR v1)
Copy OK
Track 7
Filename F:\0\!!!!!POST!!!!\Shirley Brown - Diva of Soul (1995)\07 - Talk to me.wav
Pre-gap length 0:00:02.45
Peak level 76.8 %
Extraction speed 6.3 X
Track quality 100.0 %
Test CRC 7AF59EC0
Copy CRC 7AF59EC0
Accurately ripped (confidence 1) [B77067C0] (AR v1)
Copy OK
Track 8
Filename F:\0\!!!!!POST!!!!\Shirley Brown - Diva of Soul (1995)\08 - Sprung on his love.wav
Pre-gap length 0:00:02.48
Peak level 75.8 %
Extraction speed 6.4 X
Track quality 100.0 %
Test CRC 14B1E045
Copy CRC 14B1E045
Accurately ripped (confidence 1) [E7FA1446] (AR v1)
Copy OK
Track 9
Filename F:\0\!!!!!POST!!!!\Shirley Brown - Diva of Soul (1995)\09 - Better go your own way.wav
Pre-gap length 0:00:02.50
Peak level 76.8 %
Extraction speed 6.7 X
Track quality 100.0 %
Test CRC 22583C1C
Copy CRC 22583C1C
Accurately ripped (confidence 1) [29372007] (AR v1)
Copy OK
Track 10
Filename F:\0\!!!!!POST!!!!\Shirley Brown - Diva of Soul (1995)\10 - Leftover love.wav
Pre-gap length 0:00:02.60
Peak level 79.0 %
Extraction speed 7.0 X
Track quality 100.0 %
Test CRC D009A42B
Copy CRC D009A42B
Accurately ripped (confidence 1) [B8F33C16] (AR v1)
Copy OK
Track 11
Filename F:\0\!!!!!POST!!!!\Shirley Brown - Diva of Soul (1995)\11 - Ain't nothjin' like the lovin' we got.wav
Pre-gap length 0:00:03.68
Peak level 77.4 %
Extraction speed 7.2 X
Track quality 100.0 %
Test CRC 689CDEDC
Copy CRC 689CDEDC
Accurately ripped (confidence 1) [3AB75984] (AR v1)
Copy OK
Track 12
Filename F:\0\!!!!!POST!!!!\Shirley Brown - Diva of Soul (1995)\12 - Anticipation.wav
Pre-gap length 0:00:00.63
Peak level 76.6 %
Extraction speed 7.4 X
Track quality 100.0 %
Test CRC CF0DCB6A
Copy CRC CF0DCB6A
Accurately ripped (confidence 1) [363EB5A5] (AR v1)
Copy OK
Track 13
Filename F:\0\!!!!!POST!!!!\Shirley Brown - Diva of Soul (1995)\13 - A two-way thang.wav
Pre-gap length 0:00:03.70
Peak level 77.8 %
Extraction speed 7.4 X
Track quality 100.0 %
Test CRC 2F6E30D6
Copy CRC 2F6E30D6
Accurately ripped (confidence 1) [0BB32367] (AR v1)
Copy OK
Track 14
Filename F:\0\!!!!!POST!!!!\Shirley Brown - Diva of Soul (1995)\14 - Long on lovin'.wav
Pre-gap length 0:00:00.52
Peak level 79.3 %
Extraction speed 7.4 X
Track quality 100.0 %
Test CRC BB48DE8E
Copy CRC BB48DE8E
Accurately ripped (confidence 1) [F8D7BDE9] (AR v1)
Copy OK
All tracks accurately ripped
No errors occurred
End of status report
==== Log checksum 984C6FC3793859F77F43B01527458BC06151D0EB08613DBDD6AB9D39211131B5 ====
 
Содержание индексной карты (.CUE)
REM GENRE Soul
REM DATE 1995
REM DISCID E60FF10E
REM COMMENT "ExactAudioCopy V1.0b3"
PERFORMER "Shirley Brown"
TITLE "Diva Of Soul"
FILE "01. You Ain't Got To Hide Your Man.flac" WAVE
TRACK 01 AUDIO
TITLE "You Ain't Got To Hide Your Man"
PERFORMER "Shirley Brown"
PREGAP 00:00:32
INDEX 01 00:00:00
TRACK 02 AUDIO
TITLE "If You're Weak Enough"
PERFORMER "Shirley Brown"
INDEX 00 04:21:28
FILE "02. If You're Weak Enough.flac" WAVE
INDEX 01 00:00:00
TRACK 03 AUDIO
TITLE "Good Loving Man"
PERFORMER "Shirley Brown"
INDEX 00 04:55:63
FILE "03. Good Loving Man.flac" WAVE
INDEX 01 00:00:00
TRACK 04 AUDIO
TITLE "One More Time"
PERFORMER "Shirley Brown"
INDEX 00 04:07:67
FILE "04. One More Time.flac" WAVE
INDEX 01 00:00:00
TRACK 05 AUDIO
TITLE "You Ain't Woman Enough To Take My Man"
PERFORMER "Shirley Brown"
INDEX 00 05:51:43
FILE "05. You Ain't Woman Enough To Take My Man.flac" WAVE
INDEX 01 00:00:00
TRACK 06 AUDIO
TITLE "Put Your Money Where Your Mouth Is"
PERFORMER "Shirley Brown"
INDEX 00 05:07:45
FILE "06. Put Your Money Where Your Mouth Is.flac" WAVE
INDEX 01 00:00:00
TRACK 07 AUDIO
TITLE "Talk To Me"
PERFORMER "Shirley Brown"
INDEX 00 04:17:32
FILE "07. Talk To Me.flac" WAVE
INDEX 01 00:00:00
TRACK 08 AUDIO
TITLE "Sprung On His Love"
PERFORMER "Shirley Brown"
INDEX 00 05:35:15
FILE "08. Sprung On His Love.flac" WAVE
INDEX 01 00:00:00
TRACK 09 AUDIO
TITLE "Better You Go Your Way"
PERFORMER "Shirley Brown"
INDEX 00 04:17:05
FILE "09. Better You Go Your Way.flac" WAVE
INDEX 01 00:00:00
TRACK 10 AUDIO
TITLE "Leftover Love"
PERFORMER "Shirley Brown"
INDEX 00 05:12:05
FILE "10. Leftover Love.flac" WAVE
INDEX 01 00:00:00
TRACK 11 AUDIO
TITLE "Ain't Nothin' Like The Lovin' We Got"
PERFORMER "Shirley Brown"
INDEX 00 05:07:02
FILE "11. Ain't Nothin' Like The Lovin' We Got.flac" WAVE
INDEX 01 00:00:00
TRACK 12 AUDIO
TITLE "Anticipation"
PERFORMER "Shirley Brown"
INDEX 00 04:44:57
FILE "12. Anticipation.flac" WAVE
INDEX 01 00:00:00
TRACK 13 AUDIO
TITLE "A Two-Way Thang"
PERFORMER "Shirley Brown"
INDEX 00 05:15:60
FILE "13. A Two-Way Thang.flac" WAVE
INDEX 01 00:00:00
TRACK 14 AUDIO
TITLE "Long On Lovin'"
PERFORMER "Shirley Brown"
INDEX 00 05:26:45
FILE "14. Long On Lovin'.flac" WAVE
INDEX 01 00:00:00
Приватный:
Нет (DHT включён)
Размер:
445.57 Мб (467,213,992 байт) » файлов: 23
Участники:
0 раздают, 0 качают (0 участников всего)
Внешние участники:
2 раздают, 1 качают (3 участников всего) [ Обновить ]
Есть вопросы - пишите личное сообщение пользователю M0p94ok.
03:48
96
Нет комментариев. Ваш будет первым!