Поиск

(Jazz-Funk, Fusion) [CD] Noel McGhie & Space Spies - Trapeze - 1975 (2003), FLAC (tracks), lossless

(Jazz-Funk, Fusion) [CD] Noel McGhie & Space Spies - Trapeze - 1975 (2003), FLAC (tracks), lossless
Треклист:
Noel McGhie & Space Spies - Trapeze
Жанр: Jazz-Funk, Fusion
Носитель: CD
Страна-производитель диска (релиза): Франция
Год издания: 1975 (2003)
Издатель (лейбл): Next Music
Номер по каталогу: JICD 13
Аудиокодек: FLAC (*.flac)
Тип рипа: tracks
Битрейт аудио: lossless
Продолжительность: 38:14
Источник (релизер): Franco
Наличие сканов в содержимом раздачи: нет
Треклист:
01. Trapeze (McGhie) - 7:40
02. Dancer (McGhie) - 6:47
03. For Gone Desillusion (McGhie) - 4:26
04. Ubet (McGhie) - 11:54
05. Mademoiselle Tuloch (McGhie) - 7:27
Состав:
Noel McGhie - drums
Jorge Joao - saxophones
Georges Edouard Nouel - electric piano
Itaru Oki - trumpet
Louis Xavier - bass
Remastered at Fun Master, Paris in 2003.
 
Лог создания рипа
Exact Audio Copy V0.99 prebeta 5 from 4. May 2009
EAC extraction logfile from 9. June 2012, 16:41
Noel Mc Ghie / Trapeze
Used drive : TSSTcorpCDRW/DVD TSL462C Adapter: 1 ID: 0
Read mode : Secure
Utilize accurate stream : Yes
Defeat audio cache : Yes
Make use of C2 pointers : Yes
Read offset correction : 6
Overread into Lead-In and Lead-Out : No
Fill up missing offset samples with silence : Yes
Delete leading and trailing silent blocks : No
Null samples used in CRC calculations : No
Used interface : Installed external ASPI interface
Gap handling : Not detected, thus appended to previous track
Used output format : Internal WAV Routines
Sample format : 44.100 Hz; 16 Bit; Stereo
TOC of the extracted CD
Track | Start | Length | Start sector | End sector
---------------------------------------------------------
1 | 0:00.00 | 7:40.27 | 0 | 34526
2 | 7:40.27 | 6:47.03 | 34527 | 65054
3 | 14:27.30 | 4:25.67 | 65055 | 84996
4 | 18:53.22 | 11:53.38 | 84997 | 138509
5 | 30:46.60 | 7:27.20 | 138510 | 172054
Track 1
Filename H:\1 ALL MY CD'S EAC WAV\Noel McGhie And Space Spies - Trapeze\01 - Trapeze (Noel Mc Ghie).wav
Peak level 97.9 %
Track quality 100.0 %
Copy CRC E83C1287
Track not present in AccurateRip database
Copy OK
Track 2
Filename H:\1 ALL MY CD'S EAC WAV\Noel McGhie And Space Spies - Trapeze\02 - Dancer (Noel Mc Ghie).wav
Peak level 97.9 %
Track quality 99.9 %
Copy CRC 8032B901
Track not present in AccurateRip database
Copy OK
Track 3
Filename H:\1 ALL MY CD'S EAC WAV\Noel McGhie And Space Spies - Trapeze\03 - For gone desillusion (Noel Mc Ghie).wav
Peak level 97.9 %
Track quality 100.0 %
Copy CRC B38CD5D8
Track not present in AccurateRip database
Copy OK
Track 4
Filename H:\1 ALL MY CD'S EAC WAV\Noel McGhie And Space Spies - Trapeze\04 - Ubet (Noel Mc Ghie).wav
Peak level 97.9 %
Track quality 100.0 %
Copy CRC DF74BEED
Track not present in AccurateRip database
Copy OK
Track 5
Filename H:\1 ALL MY CD'S EAC WAV\Noel McGhie And Space Spies - Trapeze\05 - Mademoiselle Tuloch (Noel Mc Ghie).wav
Peak level 97.9 %
Track quality 100.0 %
Copy CRC 5BD01939
Track not present in AccurateRip database
Copy OK
None of the tracks are present in the AccurateRip database
No errors occurred
End of status report
 
Лог проверки качества
-----------------------
DON'T MODIFY THIS FILE
-----------------------
PERFORMER: auCDtect Task Manager, ver. 1.6.0 RC1 build 1.6.0.1
Copyright (c) 2008-2010 y-soft. All rights reserved
http://y-soft.org
ANALYZER: auCDtect: CD records authenticity detector, version 0.8.2
Copyright (c) 2004 Oleg Berngardt. All rights reserved.
Copyright (c) 2004 Alexander Djourik. All rights reserved.
FILE: 05 - Mademoiselle Tuloch.flac
Size: 46468759 Hash: A17B5557D0B55C141D6AADC1622409DA Accuracy: -m0
Conclusion: CDDA 100%
Signature: 69F7885527BBE80C7877515CA7DCE971855A0875
FILE: 04 - Ubet.flac
Size: 75905622 Hash: 8D9BC5F09F9F10184C67C2007DB80240 Accuracy: -m0
Conclusion: CDDA 100%
Signature: 7720B8C918F425848D933FC9070017A93C4FE5F6
FILE: 03 - For Gone Desillusion.flac
Size: 27074352 Hash: A62BA32994C38D3ED9F3AF564E0201AA Accuracy: -m0
Conclusion: CDDA 100%
Signature: 17FAFE5213F5FD3E911D2EA666AE8CFFA2FE7E9E
FILE: 02 - Dancer.flac
Size: 40050717 Hash: E0328F3B87C5E9045D82ABB4B81322CA Accuracy: -m0
Conclusion: CDDA 100%
Signature: 302368BC982452BCB03270080723C32D40BA17F5
FILE: 01 - Trapeze.flac
Size: 45841002 Hash: E3C869B3AFF46EC862D680F7F4A68CF1 Accuracy: -m0
Conclusion: CDDA 100%
Signature: B84757CFF415D4DA72EBA2F5AB73B8F3FC865C52
 
Отчет CUETools
[CUETools log; Date: 01.08.2015 16:41:25; Version: 2.1.5]
[CTDB TOCID: p7Nu7xmQ3EELGHC9fJOuFmMOMzc-] disk not present in database.
[AccurateRip ID: 00078e28-00238a00-4408f605] found.
Track [ CRC | V2 ] Status
01 [17509731|cd0cbd22] (1+0/1) Accurately ripped
02 [f5ccc148|2d1e1e88] (1+0/1) Accurately ripped
03 [77b25bda|9df5d7ce] (1+0/1) Accurately ripped
04 [8b18142e|f727b393] (1+0/1) Accurately ripped
05 [d0e73e8f|7aa67ce6] (1+0/1) Accurately ripped
Track Peak [ CRC32 ] [W/O NULL] [ LOG ]
-- 97,9 [1C30921F] [A41E1F66]
01 97,9 [CDAA05F7] [E83C1287] W/O NULL
02 97,9 [EAB09C3F] [8032B901] W/O NULL
03 97,9 [B6A83323] [B38CD5D8] W/O NULL
04 97,9 [E5AE076A] [DF74BEED] W/O NULL
05 97,9 [5C1CADC7] [5BD01939] W/O NULL
 
Об альбоме (сборнике)
A soulful treasure from 70s France – funky fusion at its best, played by drummer Noel McGhie and his legendary Space Spies combo! The group features some sweet electric piano on all the grooves – really skipping out with a light touch that steps around McGhie's tight drum work nicely – while reeds and trumpet blow with a tone that's open and exploratory – never too "out", but reaching for the skies with a real sense of spirit! The tracks are all quite long, and have a quality that's really hard to describe – easily on a par with the best American indie soul jazz of the time, but with a flavor that's also all their own! Titles include "Trapeze", "Dancer", "Ubet", "Mademoiselle Tulloch", and "Foregone Desillusion".
Приватный:
Нет (DHT включён)
Размер:
224.78 Мб (235,696,836 байт) » файлов: 12
Участники:
0 раздают, 0 качают (0 участников всего)
Внешние участники:
2 раздают, 1 качают (3 участников всего) [ Обновить ]
No seeders - write personal message to user M0p94ok. Нет сидеров - пишите личное сообщение пользователю M0p94ok.
03:46
60
Нет комментариев. Ваш будет первым!