Поиск

(Soul, R&B) [CD] Shirley Brown - For The Real Feeling (1979) - 1999, FLAC (tracks+.cue), lossless

(Soul, R&B) [CD] Shirley Brown - For The Real Feeling (1979) - 1999, FLAC (tracks+.cue), lossless
Треклист:
Shirley Brown - For The Real Feeling (1979)
Жанр: Soul, R&B
Носитель: CD
Год издания: 1999
Издатель (лейбл): Stax
Номер по каталогу: SCD-4126-2
Аудиокодек: FLAC (*.flac)
Тип рипа: tracks+.cue
Битрейт аудио: lossless
Продолжительность: 36:47
Rip by JET 1
Наличие сканов в содержимом раздачи: да
Треклист:
01. When, Where And What Time (4:20)
02. Crowding In On My Mind (3:35)
03. After A Night Like This (4:36)
04. Dirty Feelin' (5:21)
05. Hang On Louie (5:35)
06. Eyes Can't See (4:52)
07. Move Me - Move Me (4:15)
08. Love Starved (4:14)
 
 
Лог создания рипа
Exact Audio Copy V1.0 beta 3 from 29. August 2011
EAC extraction logfile from 19. April 2015, 12:25
Brown, Shirley / For The Real Feeling
Used drive : ATAPI DVD A DH16A6L-C Adapter: 2 ID: 0
Read mode : Secure
Utilize accurate stream : Yes
Defeat audio cache : Yes
Make use of C2 pointers : No
Read offset correction : 6
Overread into Lead-In and Lead-Out : No
Fill up missing offset samples with silence : Yes
Delete leading and trailing silent blocks : No
Null samples used in CRC calculations : Yes
Used interface : Native Win32 interface for Win NT & 2000
Gap handling : Appended to previous track
Used output format : User Defined Encoder
Selected bitrate : 1024 kBit/s
Quality : High
Add ID3 tag : No
Command line compressor : C:\Program Files\FLAC\flac.exe
Additional command line options : -8 -V -T "ARTIST=%artist%" -T "TITLE=%title%" -T "ALBUM=%albumtitle%" -T "DATE=%year%" -T "TRACKNUMBER=%tracknr%" -T "GENRE=%genre%" -T "PERFORMER=%albuminterpret%" -T "COMPOSER=%composer%" %haslyrics%--tag-from-file=LYRICS="%lyricsfile%"%haslyrics% -T "ALBUMARTIST=%albumartist%" -T "DISCNUMBER=%cdnumber%" -T "TOTALDISCS=%totalcds%" -T "TOTALTRACKS=%numtracks%" -T "COMMENT=%comment%" %source% -o %dest%
TOC of the extracted CD
Track | Start | Length | Start sector | End sector
---------------------------------------------------------
1 | 0:00.00 | 4:19.67 | 0 | 19491
2 | 4:19.67 | 3:34.68 | 19492 | 35609
3 | 7:54.60 | 4:35.47 | 35610 | 56281
4 | 12:30.32 | 5:21.08 | 56282 | 80364
5 | 17:51.40 | 5:34.42 | 80365 | 105456
6 | 23:26.07 | 4:51.70 | 105457 | 127351
7 | 28:18.02 | 4:15.28 | 127352 | 146504
8 | 32:33.30 | 4:13.65 | 146505 | 165544
Track 1
Filename H:\0\..................00\post\Shirley Brown - For The Real Feeling (1979) [1999]\01 - When, Where And What Time.wav
Pre-gap length 0:00:02.00
Peak level 99.9 %
Extraction speed 3.9 X
Track quality 100.0 %
Test CRC CF91D19D
Copy CRC CF91D19D
Cannot be verified as accurate (confidence 2) [6BCA60BA], AccurateRip returned [5DBD9E24] (AR v2)
Copy OK
Track 2
Filename H:\0\..................00\post\Shirley Brown - For The Real Feeling (1979) [1999]\02 - Crowding In On My Mind.wav
Pre-gap length 0:00:03.37
Peak level 95.5 %
Extraction speed 4.2 X
Track quality 100.0 %
Test CRC F15198F7
Copy CRC F15198F7
Cannot be verified as accurate (confidence 2) [D425AE86], AccurateRip returned [065476A8] (AR v2)
Copy OK
Track 3
Filename H:\0\..................00\post\Shirley Brown - For The Real Feeling (1979) [1999]\03 - After A Night Like This.wav
Pre-gap length 0:00:05.18
Peak level 82.2 %
Extraction speed 4.7 X
Track quality 100.0 %
Test CRC 704F8705
Copy CRC 704F8705
Cannot be verified as accurate (confidence 2) [B1B87908], AccurateRip returned [C667751A] (AR v2)
Copy OK
Track 4
Filename H:\0\..................00\post\Shirley Brown - For The Real Feeling (1979) [1999]\04 - Dirty Feelin'.wav
Pre-gap length 0:00:03.52
Peak level 89.1 %
Extraction speed 5.2 X
Track quality 100.0 %
Test CRC 80B4D2C1
Copy CRC 80B4D2C1
Cannot be verified as accurate (confidence 2) [075739DD], AccurateRip returned [74DC8A2B] (AR v2)
Copy OK
Track 5
Filename H:\0\..................00\post\Shirley Brown - For The Real Feeling (1979) [1999]\05 - Hang On Louie.wav
Pre-gap length 0:00:01.53
Peak level 87.0 %
Extraction speed 5.6 X
Track quality 100.0 %
Test CRC DC6F9C07
Copy CRC DC6F9C07
Cannot be verified as accurate (confidence 2) [F80259D1], AccurateRip returned [13851D7A] (AR v2)
Copy OK
Track 6
Filename H:\0\..................00\post\Shirley Brown - For The Real Feeling (1979) [1999]\06 - Eyes Can't See.wav
Pre-gap length 0:00:02.30
Peak level 95.5 %
Extraction speed 5.9 X
Track quality 100.0 %
Test CRC 916E8930
Copy CRC 916E8930
Cannot be verified as accurate (confidence 2) [40BFF4FE], AccurateRip returned [0B6B83A2] (AR v2)
Copy OK
Track 7
Filename H:\0\..................00\post\Shirley Brown - For The Real Feeling (1979) [1999]\07 - Move Me - Move Me.wav
Pre-gap length 0:00:03.32
Peak level 99.9 %
Extraction speed 6.1 X
Track quality 100.0 %
Test CRC 96AE1A6B
Copy CRC 96AE1A6B
Cannot be verified as accurate (confidence 2) [DF78029E], AccurateRip returned [FEAC7237] (AR v2)
Copy OK
Track 8
Filename H:\0\..................00\post\Shirley Brown - For The Real Feeling (1979) [1999]\08 - Love Starved.wav
Pre-gap length 0:00:03.30
Peak level 83.8 %
Extraction speed 6.3 X
Track quality 100.0 %
Test CRC 31FE4ADD
Copy CRC 31FE4ADD
Cannot be verified as accurate (confidence 2) [EB1ACBAB], AccurateRip returned [3D34F768] (AR v2)
Copy OK
No tracks could be verified as accurate
You may have a different pressing from the one(s) in the database
No errors occurred
End of status report
==== Log checksum ECE35F8A193C50BA70D16AC87F0705A50642588CBA7141CD7F7010951073D000 ====
 
Содержание индексной карты (.CUE)
REM GENRE "Rock / Pop"
REM DATE 1999
REM DISCID 5E089F08
REM COMMENT "ExactAudioCopy v1.0b3"
PERFORMER "Shirley Brown"
TITLE "For The Real Feeling"
FILE "01 - When, Where And What Time.wav" WAVE
TRACK 01 AUDIO
TITLE "When, Where And What Time"
PERFORMER "Shirley Brown"
INDEX 01 00:00:00
TRACK 02 AUDIO
TITLE "Crowding In On My Mind"
PERFORMER "Shirley Brown"
INDEX 00 04:16:30
FILE "02 - Crowding In On My Mind.wav" WAVE
INDEX 01 00:00:00
TRACK 03 AUDIO
TITLE "After A Night Like This"
PERFORMER "Shirley Brown"
INDEX 00 03:29:50
FILE "03 - After A Night Like This.wav" WAVE
INDEX 01 00:00:00
TRACK 04 AUDIO
TITLE "Dirty Feelin'"
PERFORMER "Shirley Brown"
INDEX 00 04:31:70
FILE "04 - Dirty Feelin'.wav" WAVE
INDEX 01 00:00:00
TRACK 05 AUDIO
TITLE "Hang On Louie"
PERFORMER "Shirley Brown"
INDEX 00 05:19:30
FILE "05 - Hang On Louie.wav" WAVE
INDEX 01 00:00:00
TRACK 06 AUDIO
TITLE "Eyes Can't See"
PERFORMER "Shirley Brown"
INDEX 00 05:32:12
FILE "06 - Eyes Can't See.wav" WAVE
INDEX 01 00:00:00
TRACK 07 AUDIO
TITLE "Move Me - Move Me"
PERFORMER "Shirley Brown"
INDEX 00 04:48:38
FILE "07 - Move Me - Move Me.wav" WAVE
INDEX 01 00:00:00
TRACK 08 AUDIO
TITLE "Love Starved"
PERFORMER "Shirley Brown"
INDEX 00 04:11:73
FILE "08 - Love Starved.wav" WAVE
INDEX 01 00:00:00
Приватный:
Нет (DHT включён)
Размер:
251.06 Мб (263,255,818 байт) » файлов: 17
Участники:
0 раздают, 0 качают (0 участников всего)
Внешние участники:
3 раздают, 1 качают (4 участников всего) [ Обновить ]
Есть вопросы - пишите личное сообщение пользователю M0p94ok.
05:33
69
Нет комментариев. Ваш будет первым!