Поиск

(Funk, Soul, Fusion) [CD] Seawind - Window of a Child - 1977 (2009 Japan Edition), FLAC (tracks+.cue), lossless

(Funk, Soul, Fusion) [CD] Seawind - Window of a Child - 1977 (2009 Japan Edition), FLAC (tracks+.cue), lossless
Треклист:
Seawind - Window of a Child
Жанр: Funk, Soul, Fusion
Носитель: CD
Страна-производитель диска (релиза): Япония
Год издания: 1977 (2009)
Издатель (лейбл): Village Records
Номер по каталогу: VRCL20003
Страна исполнителя (группы): США
Аудиокодек: FLAC (*.flac)
Тип рипа: tracks+.cue
Битрейт аудио: lossless
Продолжительность: 48:14
Источник (релизер): coron (what)
Наличие сканов в содержимом раздачи: нет
Треклист:
01. One Sweet Night (Mallah-Patton) - 2:58
02. Wings of Love (Williams) - 5:45
03. Do Listen To (Wilson) - 3:56
04. Campanas de Invierno (Wilson) - 5:56
05. Window of a Child (Wilson) - 5:28
06. Angel of Mercy (Wilson) - 3:22
07. Lovin' You (Wilson) - 4:46
08. Hallelujah (Wilson) - 3:48
09. Countin' the Days (Wilson) - 3:29
10. Take Me in Love (Wild-Williams-Vieha) - 3:40
11. Heaven in Your Eyes (Wilson-Vieha) - 5:06
 
Лог создания рипа
Exact Audio Copy V1.0 beta 3 from 29. August 2011
EAC extraction logfile from 5. April 2015, 0:45
Seawind / Window Of A Child (2009 Remastered)
Used drive : PIONEER BD-RW BDR-XD05 Adapter: 2 ID: 0
Read mode : Secure
Utilize accurate stream : Yes
Defeat audio cache : Yes
Make use of C2 pointers : No
Read offset correction : 667
Overread into Lead-In and Lead-Out : No
Fill up missing offset samples with silence : Yes
Delete leading and trailing silent blocks : No
Null samples used in CRC calculations : Yes
Used interface : Native Win32 interface for Win NT & 2000
Gap handling : Appended to previous track
Used output format : User Defined Encoder
Selected bitrate : 1024 kBit/s
Quality : High
Add ID3 tag : No
Command line compressor : C:\Program Files (x86)\Exact Audio Copy\Flac\flac.exe
Additional command line options : -8 -V -T "ARTIST=%artist%" -T "TITLE=%title%" -T "ALBUM=%albumtitle%" -T "DATE=%year%" -T "TRACKNUMBER=%tracknr%" -T "GENRE=%genre%" -T "PERFORMER=%albuminterpret%" -T "COMPOSER=%composer%" %haslyrics%--tag-from-file=LYRICS="%lyricsfile%"%haslyrics% -T "ALBUMARTIST=%albumartist%" -T "DISCNUMBER=%cdnumber%" -T "TOTALDISCS=%totalcds%" -T "TOTALTRACKS=%numtracks%" -T "COMMENT=%comment%" %source% -o %dest%
TOC of the extracted CD
Track | Start | Length | Start sector | End sector
---------------------------------------------------------
1 | 0:00.00 | 2:57.45 | 0 | 13319
2 | 2:57.45 | 5:45.26 | 13320 | 39220
3 | 8:42.71 | 3:55.38 | 39221 | 56883
4 | 12:38.34 | 5:56.27 | 56884 | 83610
5 | 18:34.61 | 5:27.62 | 83611 | 108197
6 | 24:02.48 | 3:22.31 | 108198 | 123378
7 | 27:25.04 | 4:46.21 | 123379 | 144849
8 | 32:11.25 | 3:47.45 | 144850 | 161919
9 | 35:58.70 | 3:29.26 | 161920 | 177620
10 | 39:28.21 | 3:39.44 | 177621 | 194089
11 | 43:07.65 | 5:05.43 | 194090 | 217007
Track 1
Filename C:\EACRips\01 One Sweet Night.wav
Pre-gap length 0:00:02.00
Peak level 100.0 %
Extraction speed 2.3 X
Track quality 99.9 %
Test CRC 2DDE7B44
Copy CRC 2DDE7B44
Accurately ripped (confidence 3) [DC8C971A] (AR v2)
Copy OK
Track 2
Filename C:\EACRips\02 Wings Of Love.wav
Pre-gap length 0:00:02.61
Peak level 100.0 %
Extraction speed 3.2 X
Track quality 100.0 %
Test CRC CCD16F9A
Copy CRC CCD16F9A
Accurately ripped (confidence 3) [4C5ED9DB] (AR v2)
Copy OK
Track 3
Filename C:\EACRips\03 Do Listen To.wav
Pre-gap length 0:00:02.29
Peak level 100.0 %
Extraction speed 3.4 X
Track quality 100.0 %
Test CRC A00BAE2F
Copy CRC A00BAE2F
Accurately ripped (confidence 3) [C86C632F] (AR v2)
Copy OK
Track 4
Filename C:\EACRips\04 Campanas De Invierno (Bells Of Winter).wav
Pre-gap length 0:00:02.08
Peak level 100.0 %
Extraction speed 3.8 X
Track quality 100.0 %
Test CRC B411DD4F
Copy CRC B411DD4F
Accurately ripped (confidence 3) [6C082C41] (AR v2)
Copy OK
Track 5
Filename C:\EACRips\05 Window Of A Child.wav
Pre-gap length 0:00:03.16
Peak level 100.0 %
Extraction speed 4.1 X
Track quality 100.0 %
Test CRC E48CC24A
Copy CRC E48CC24A
Accurately ripped (confidence 3) [F357E8C7] (AR v2)
Copy OK
Track 6
Filename C:\EACRips\06 Angel Of Mercy.wav
Pre-gap length 0:00:04.06
Peak level 100.0 %
Extraction speed 4.0 X
Track quality 100.0 %
Test CRC 7EE3B8C7
Copy CRC 7EE3B8C7
Accurately ripped (confidence 3) [A1BE478E] (AR v2)
Copy OK
Track 7
Filename C:\EACRips\07 Lovin' You.wav
Pre-gap length 0:00:02.45
Peak level 100.0 %
Extraction speed 4.4 X
Track quality 100.0 %
Test CRC FC2AD66D
Copy CRC FC2AD66D
Accurately ripped (confidence 3) [BC8C98F8] (AR v2)
Copy OK
Track 8
Filename C:\EACRips\08 Hallelujah.wav
Pre-gap length 0:00:03.21
Peak level 100.0 %
Extraction speed 4.4 X
Track quality 100.0 %
Test CRC 407C2587
Copy CRC 407C2587
Accurately ripped (confidence 3) [753DAB7A] (AR v2)
Copy OK
Track 9
Filename C:\EACRips\09 Countin' The Days.wav
Pre-gap length 0:00:02.90
Peak level 100.0 %
Extraction speed 4.5 X
Track quality 100.0 %
Test CRC 97FBEE96
Copy CRC 97FBEE96
Accurately ripped (confidence 3) [AA95F7B3] (AR v2)
Copy OK
Track 10
Filename C:\EACRips\10 Take Me In Love (bonus track).wav
Pre-gap length 0:00:02.66
Peak level 100.0 %
Extraction speed 4.7 X
Track quality 100.0 %
Test CRC CF8E7422
Copy CRC CF8E7422
Accurately ripped (confidence 3) [21C5A83E] (AR v2)
Copy OK
Track 11
Filename C:\EACRips\11 Heaven In Your Eyes (bonus track).wav
Pre-gap length 0:00:02.65
Peak level 100.0 %
Extraction speed 5.1 X
Track quality 100.0 %
Test CRC 520772AA
Copy CRC 520772AA
Accurately ripped (confidence 3) [D40114EA] (AR v2)
Copy OK
All tracks accurately ripped
No errors occurred
End of status report
---- CUETools DB Plugin V2.1.3
[CTDB TOCID: JeK9h33iYrvvV_1c5sh8O034wng-] found, Submit result: JeK9h33iYrvvV_1c5sh8O034wng- has been confirmed
[8538dbbc] (3/3) Accurately ripped
==== Log checksum A88457567072BD26EBF05A0E6C8B1B1ACB594FC28D4065828EA17A81D512DBE1 ====
 
Содержание индексной карты (.CUE)
REM GENRE Jazz
REM DATE 1977
REM DISCID 900B4D0B
REM COMMENT "ExactAudioCopy v1.0b3"
PERFORMER "Seawind"
TITLE "Window of a Child"
FILE "01 - One Sweet Night.wav" WAVE
TRACK 01 AUDIO
TITLE "One Sweet Night"
PERFORMER "Seawind"
INDEX 01 00:00:00
TRACK 02 AUDIO
TITLE "Wings of Love"
PERFORMER "Seawind"
INDEX 00 02:54:74
FILE "02 - Wings of Love.wav" WAVE
INDEX 01 00:00:00
TRACK 03 AUDIO
TITLE "Do Listen To"
PERFORMER "Seawind"
INDEX 00 05:43:04
FILE "03 - Do Listen To.wav" WAVE
INDEX 01 00:00:00
TRACK 04 AUDIO
TITLE "Campanas de Invierno"
PERFORMER "Seawind"
INDEX 00 03:53:32
FILE "04 - Campanas de Invierno.wav" WAVE
INDEX 01 00:00:00
TRACK 05 AUDIO
TITLE "Window of a Child"
PERFORMER "Seawind"
INDEX 00 05:53:15
FILE "05 - Window of a Child.wav" WAVE
INDEX 01 00:00:00
TRACK 06 AUDIO
TITLE "Angel of Mercy"
PERFORMER "Seawind"
INDEX 00 05:23:57
FILE "06 - Angel of Mercy.wav" WAVE
INDEX 01 00:00:00
TRACK 07 AUDIO
TITLE "Lovin' You"
PERFORMER "Seawind"
INDEX 00 03:19:72
FILE "07 - Lovin' You.wav" WAVE
INDEX 01 00:00:00
TRACK 08 AUDIO
TITLE "Hallelujah"
PERFORMER "Seawind"
INDEX 00 04:43:05
FILE "08 - Hallelujah.wav" WAVE
INDEX 01 00:00:00
TRACK 09 AUDIO
TITLE "Countin' the Days"
PERFORMER "Seawind"
INDEX 00 03:44:52
FILE "09 - Countin' the Days.wav" WAVE
INDEX 01 00:00:00
TRACK 10 AUDIO
TITLE "Take Me in Love"
PERFORMER "Seawind"
INDEX 00 03:26:51
FILE "10 - Take Me in Love.wav" WAVE
INDEX 01 00:00:00
TRACK 11 AUDIO
TITLE "Heaven in Your Eyes"
PERFORMER "Seawind"
INDEX 00 03:36:70
FILE "11 - Heaven in Your Eyes.wav" WAVE
INDEX 01 00:00:00
 
Отчет CUETools
[CUETools log; Date: 23.04.2015 15:46:13; Version: 2.1.5]
[CTDB TOCID: JeK9h33iYrvvV_1c5sh8O034wng-] found.
Track | CTDB Status
1 | (4/4) Accurately ripped
2 | (4/4) Accurately ripped
3 | (4/4) Accurately ripped
4 | (4/4) Accurately ripped
5 | (4/4) Accurately ripped
6 | (4/4) Accurately ripped
7 | (4/4) Accurately ripped
8 | (4/4) Accurately ripped
9 | (4/4) Accurately ripped
10 | (4/4) Accurately ripped
11 | (4/4) Accurately ripped
[AccurateRip ID: 001424a6-00ae7880-900b4d0b] found.
Track [ CRC | V2 ] Status
01 [812283b1|dc8c971a] (0+4/4) Accurately ripped
02 [cce0a66f|4c5ed9db] (0+4/4) Accurately ripped
03 [69208a29|c86c632f] (0+4/4) Accurately ripped
04 [93646692|6c082c41] (0+4/4) Accurately ripped
05 [77af4d93|f357e8c7] (0+4/4) Accurately ripped
06 [da9dcbea|a1be478e] (0+4/4) Accurately ripped
07 [55f1628f|bc8c98f8] (0+4/4) Accurately ripped
08 [83f054a5|753dab7a] (0+4/4) Accurately ripped
09 [c63efe2e|aa95f7b3] (0+4/4) Accurately ripped
10 [a2600c78|21c5a83e] (0+4/4) Accurately ripped
11 [703eb5e4|d40114ea] (0+4/4) Accurately ripped
Track Peak [ CRC32 ] [W/O NULL] [ LOG ]
-- 100,0 [EC1B19B1] [814FC46C]
01 100,0 [2DDE7B44] [C7AEB3E8] CRC32
02 100,0 [CCD16F9A] [9AE40474] CRC32
03 100,0 [A00BAE2F] [56AA4F3F] CRC32
04 100,0 [B411DD4F] [0B9CC721] CRC32
05 100,0 [E48CC24A] [FEA85761] CRC32
06 100,0 [7EE3B8C7] [72D2D80F] CRC32
07 100,0 [FC2AD66D] [EA2BB846] CRC32
08 100,0 [407C2587] [AAE844F4] CRC32
09 100,0 [97FBEE96] [5B821A9E] CRC32
10 100,0 [CF8E7422] [5FA1A645] CRC32
11 100,0 [520772AA] [6FEBB5FE] CRC32
 
Review by Alex Henderson
If Seawind's self-titled debut album is its most essential release, the band's excellent follow-up, Window of a Child, runs a close second. It would have been easy for the Hawaiian combo to compromise its creativity -- instead of being so eclectic and unpredictable, it could have focused on one style of music exclusively. But thankfully, Seawind sticks to its guns on this LP, embracing everything from funk and soul to instrumental jazz fusion. Singer Pauline Wilson has many inspired moments; she is as convincing on funk gems ("Angel of Mercy," "Do Listen To") as she is on more jazz-minded tracks like the title song and "Wings of Love," which wouldn't have been out of place on a Return to Forever album -- Larry Williams' keyboard solo certainly shows an awareness of Chick Corea. Wilson doesn't sing on all the tracks; "Campanas de Invierno" is a calm, peaceful jazz fusion instrumental that gives the horn players (including saxman Kim Hutchcroft and trumpeter/flugelhornist Jerry Hey) a chance to stretch out. Like 1976's Seawind, this album fared well on quiet storm formats, although it didn't contain any major R&B or pop hits. But regardless of how it performed commercially, Window of a Child is a consistently rewarding sophomore album.
 
Состав
Pauline Wilson - lead vocals, percussion
Bob Wilson - drums, percussion
Larry Williams - keyboards, woodwinds
Kim Hutchcroft - saxophones, flutes
Jerry Hey - brass
Ken Wild - bass
Bud Nuanez - guitar
Harvey Mason, Bill Sommers - percussion
Ian Underwood - Synthesizer programming
Charles Veal - strings
Bill Reichenbach - trombone (#1,9)
Recorded at Conway Recording Co. & Burbank Studios and Producer's Workshop (#1,9).
(Funk, Soul, Fusion) [LP] [16/44] Seawind - Window of a Child - 1977, FLAC (tracks)
Приватный:
Нет (DHT включён)
Размер:
315.77 Мб (331,114,081 байт) » файлов: 18
Участники:
0 раздают, 0 качают (0 участников всего)
Внешние участники:
5 раздают, 2 качают (7 участников всего) [ Обновить ]
Есть вопросы - пишите личное сообщение пользователю M0p94ok.
05:34
96
Нет комментариев. Ваш будет первым!