Поиск

(Funk, Fusion) [CD] Masato Honda - Solid State Funk - 2009, FLAC (tracks+.cue), lossless

(Funk, Fusion) [CD] Masato Honda - Solid State Funk - 2009, FLAC (tracks+.cue), lossless
Треклист:
Masato Honda - Solid State Funk
Жанр: Funk, Fusion
Носитель: CD
Страна-производитель диска (релиза): Япония
Год издания: 2009
Издатель (лейбл): Sony Music Japan
Номер по каталогу: SICL 224
Аудиокодек: FLAC (*.flac)
Тип рипа: tracks+.cue
Битрейт аудио: lossless
Продолжительность: 58:11
Источник (релизер): starfishing (what)
Наличие сканов в содержимом раздачи: да
Треклист:
01. Funky Monsters (4:58)
02. Portrait of Robert (6:16)
03. Laughter of Dragon (5:47)
04. Sailing of Time (5:25)
05. My Koinobori (6:02)
06. Your Birthday (7:32)
07. A Week (4:50)
08. Triangle Moon (5:24)
09. Walk the Walk (5:49)
10. Angel Smile (6:08)
 
Лог создания рипа
Exact Audio Copy V1.0 beta 3 from 29. August 2011
EAC extraction logfile from 23. April 2015, 11:45
本田雅人 / SOLID STATE FUNK
Used drive : TSSTcorpCDDVDW SH-224DB Adapter: 3 ID: 1
Read mode : Secure
Utilize accurate stream : Yes
Defeat audio cache : Yes
Make use of C2 pointers : No
Read offset correction : 6
Overread into Lead-In and Lead-Out : No
Fill up missing offset samples with silence : Yes
Delete leading and trailing silent blocks : No
Null samples used in CRC calculations : Yes
Used interface : Native Win32 interface for Win NT & 2000
Gap handling : Appended to previous track
Used output format : User Defined Encoder
Selected bitrate : 1024 kBit/s
Quality : High
Add ID3 tag : No
Command line compressor : C:\Program Files (x86)\Exact Audio Copy\Flac\flac.exe
Additional command line options : -8 -V -T "ARTIST=%artist%" -T "TITLE=%title%" -T "ALBUM=%albumtitle%" -T "DATE=%year%" -T "TRACKNUMBER=%tracknr%" -T "GENRE=%genre%" -T "PERFORMER=%albuminterpret%" -T "COMPOSER=%composer%" %haslyrics%--tag-from-file=LYRICS="%lyricsfile%"%haslyrics% -T "ALBUMARTIST=%albumartist%" -T "DISCNUMBER=%cdnumber%" -T "TOTALDISCS=%totalcds%" -T "TOTALTRACKS=%numtracks%" -T "COMMENT=%comment%" %source% -o %dest%
TOC of the extracted CD
Track | Start | Length | Start sector | End sector
---------------------------------------------------------
1 | 0:00.00 | 4:58.32 | 0 | 22381
2 | 4:58.32 | 6:15.55 | 22382 | 50561
3 | 11:14.12 | 5:47.36 | 50562 | 76622
4 | 17:01.48 | 5:25.04 | 76623 | 101001
5 | 22:26.52 | 6:01.61 | 101002 | 128137
6 | 28:28.38 | 7:32.23 | 128138 | 162060
7 | 36:00.61 | 4:50.21 | 162061 | 183831
8 | 40:51.07 | 5:23.61 | 183832 | 208117
9 | 46:14.68 | 5:48.64 | 208118 | 234281
10 | 52:03.57 | 6:07.50 | 234282 | 261856
Track 1
Filename G:\whatcd\本田雅人 - SOLID STATE FUNK [2009] [FLAC]\01 - Funky Monsters.wav
Pre-gap length 0:00:02.00
Peak level 98.1 %
Extraction speed 1.8 X
Track quality 100.0 %
Test CRC 7C2D39B9
Copy CRC 7C2D39B9
Accurately ripped (confidence 3) [AE0DA3F6] (AR v1)
Copy OK
Track 2
Filename G:\whatcd\本田雅人 - SOLID STATE FUNK [2009] [FLAC]\02 - ロバートの肖像.wav
Peak level 98.1 %
Extraction speed 2.1 X
Track quality 100.0 %
Test CRC 20E8298C
Copy CRC 20E8298C
Accurately ripped (confidence 3) [8F0FB7A8] (AR v1)
Copy OK
Track 3
Filename G:\whatcd\本田雅人 - SOLID STATE FUNK [2009] [FLAC]\03 - Laughter Of Dragon.wav
Pre-gap length 0:00:01.01
Peak level 94.8 %
Extraction speed 2.3 X
Track quality 100.0 %
Test CRC 68B8533E
Copy CRC 68B8533E
Accurately ripped (confidence 3) [2A63A2AE] (AR v1)
Copy OK
Track 4
Filename G:\whatcd\本田雅人 - SOLID STATE FUNK [2009] [FLAC]\04 - Sailing of Time.wav
Peak level 98.2 %
Extraction speed 2.2 X
Track quality 99.9 %
Test CRC 8BBF7FDB
Copy CRC 8BBF7FDB
Accurately ripped (confidence 3) [CF2772AF] (AR v1)
Copy OK
Track 5
Filename G:\whatcd\本田雅人 - SOLID STATE FUNK [2009] [FLAC]\05 - 僕のこいのぼり.wav
Peak level 98.2 %
Extraction speed 2.7 X
Track quality 100.0 %
Test CRC 51B353E5
Copy CRC 51B353E5
Accurately ripped (confidence 3) [9AAB98D8] (AR v1)
Copy OK
Track 6
Filename G:\whatcd\本田雅人 - SOLID STATE FUNK [2009] [FLAC]\06 - Your Birthday.wav
Pre-gap length 0:00:02.82
Peak level 98.1 %
Extraction speed 3.0 X
Track quality 100.0 %
Test CRC 5EDE73F3
Copy CRC 5EDE73F3
Accurately ripped (confidence 3) [5814E016] (AR v1)
Copy OK
Track 7
Filename G:\whatcd\本田雅人 - SOLID STATE FUNK [2009] [FLAC]\07 - A Week.wav
Pre-gap length 0:00:00.92
Peak level 98.1 %
Extraction speed 3.1 X
Track quality 100.0 %
Test CRC 2FF82C81
Copy CRC 2FF82C81
Accurately ripped (confidence 3) [CA5C85C8] (AR v1)
Copy OK
Track 8
Filename G:\whatcd\本田雅人 - SOLID STATE FUNK [2009] [FLAC]\08 - Triangle Moon.wav
Pre-gap length 0:00:01.56
Peak level 97.0 %
Extraction speed 3.3 X
Track quality 100.0 %
Test CRC E81A17EF
Copy CRC E81A17EF
Accurately ripped (confidence 3) [0A1CE918] (AR v1)
Copy OK
Track 9
Filename G:\whatcd\本田雅人 - SOLID STATE FUNK [2009] [FLAC]\09 - Walk The Walk.wav
Pre-gap length 0:00:01.37
Peak level 97.0 %
Extraction speed 3.4 X
Track quality 100.0 %
Test CRC 61334DB8
Copy CRC 61334DB8
Accurately ripped (confidence 3) [61BB6D63] (AR v1)
Copy OK
Track 10
Filename G:\whatcd\本田雅人 - SOLID STATE FUNK [2009] [FLAC]\10 - Angel Smile.wav
Pre-gap length 0:00:01.61
Peak level 92.6 %
Extraction speed 3.6 X
Track quality 100.0 %
Test CRC 30A127CB
Copy CRC 30A127CB
Accurately ripped (confidence 3) [24B03CCD] (AR v1)
Copy OK
All tracks accurately ripped
No errors occurred
End of status report
---- CUETools DB Plugin V2.1.3
[CTDB TOCID: i.e9MCLiYOrbNb.UMavhPMq1Wjc-] found, Submit result: i.e9MCLiYOrbNb.UMavhPMq1Wjc- has been confirmed
[b44ea93a] (1/2) Differs in 10 samples @46:12:38-46:12:39
[06710a01] (1/2) Accurately ripped
You can use CUETools to repair this rip.
==== Log checksum B6B8EE4C12DB696F571DCA0C9817B1A6521652BE33CDD51C49E240CF6FB4C63F ====
 
Содержание индексной карты (.CUE)
REM GENRE Jazz
REM DATE 2009
REM DISCID 710DA30A
REM COMMENT "ExactAudioCopy v1.0b3"
PERFORMER "Masato Honda"
TITLE "Solid State Funk"
FILE "01 - Funky Monsters.wav" WAVE
TRACK 01 AUDIO
TITLE "Funky Monsters"
PERFORMER "Masato Honda"
ISRC JPN200901241
INDEX 01 00:00:00
FILE "02 - Portrait of Robert.wav" WAVE
TRACK 02 AUDIO
TITLE "Portrait of Robert"
PERFORMER "Masato Honda"
ISRC JPN200901242
INDEX 01 00:00:00
TRACK 03 AUDIO
TITLE "Laughter of Dragon"
PERFORMER "Masato Honda"
ISRC JPN200901243
INDEX 00 06:14:54
FILE "03 - Laughter of Dragon.wav" WAVE
INDEX 01 00:00:00
FILE "04 - Sailing of Time.wav" WAVE
TRACK 04 AUDIO
TITLE "Sailing of Time"
PERFORMER "Masato Honda"
ISRC JPN200901244
INDEX 01 00:00:00
FILE "05 - My Koinobori.wav" WAVE
TRACK 05 AUDIO
TITLE "My Koinobori"
PERFORMER "Masato Honda"
ISRC JPN200901245
INDEX 01 00:00:00
TRACK 06 AUDIO
TITLE "Your Birthday"
PERFORMER "Masato Honda"
ISRC JPN200901246
INDEX 00 05:58:74
FILE "06 - Your Birthday.wav" WAVE
INDEX 01 00:00:00
TRACK 07 AUDIO
TITLE "A Week"
PERFORMER "Masato Honda"
ISRC JPN200901247
INDEX 00 07:31:29
FILE "07 - A Week.wav" WAVE
INDEX 01 00:00:00
TRACK 08 AUDIO
TITLE "Triangle Moon"
PERFORMER "Masato Honda"
ISRC JPN200901248
INDEX 00 04:48:54
FILE "08 - Triangle Moon.wav" WAVE
INDEX 01 00:00:00
TRACK 09 AUDIO
TITLE "Walk the Walk"
PERFORMER "Masato Honda"
ISRC JPN200901249
INDEX 00 05:22:33
FILE "09 - Walk the Walk.wav" WAVE
INDEX 01 00:00:00
TRACK 10 AUDIO
TITLE "Angel Smile"
PERFORMER "Masato Honda"
ISRC JPN200901250
INDEX 00 05:47:18
FILE "10 - Angel Smile.wav" WAVE
INDEX 01 00:00:00
 
Отчет CUETools
[CUETools log; Date: 23.04.2015 21:18:00; Version: 2.1.5]
[CTDB TOCID: i.e9MCLiYOrbNb.UMavhPMq1Wjc-] found.
Track | CTDB Status
1 | (3/3) Accurately ripped
2 | (3/3) Accurately ripped
3 | (3/3) Accurately ripped
4 | (3/3) Accurately ripped
5 | (3/3) Accurately ripped
6 | (3/3) Accurately ripped
7 | (3/3) Accurately ripped
8 | (2/3) Accurately ripped, or (1/3) differs in 10 samples @05:21:31-05:21:32
9 | (3/3) Accurately ripped
10 | (3/3) Accurately ripped
[AccurateRip ID: 0015cd79-00af249d-710da30a] found.
Track [ CRC | V2 ] Status
01 [ae0da3f6|fae5b111] (3+0/3) Accurately ripped
02 [8f0fb7a8|c4ee6907] (3+0/3) Accurately ripped
03 [2a63a2ae|519a6a8b] (3+0/3) Accurately ripped
04 [cf2772af|0650eade] (3+0/3) Accurately ripped
05 [9aab98d8|decb087a] (3+0/3) Accurately ripped
06 [5814e016|8cf62ef4] (3+0/3) Accurately ripped
07 [ca5c85c8|84a32936] (3+0/3) Accurately ripped
08 [0a1ce918|cc376204] (3+0/3) Accurately ripped
09 [61bb6d63|ec1dc787] (3+0/3) Accurately ripped
10 [24b03ccd|8cc06a84] (3+0/3) Accurately ripped
Track Peak [ CRC32 ] [W/O NULL] [ LOG ]
-- 98,2 [08E837A6] [CCC5A7E4]
01 98,1 [7C2D39B9] [0005E44A] CRC32
02 98,1 [20E8298C] [38034F1E] CRC32
03 94,8 [68B8533E] [A9DCEF44] CRC32
04 98,2 [8BBF7FDB] [19F5FDB4] CRC32
05 98,2 [51B353E5] [71D2BF57] CRC32
06 98,1 [5EDE73F3] [9C274C95] CRC32
07 98,1 [2FF82C81] [9EBAB78D] CRC32
08 97,0 [E81A17EF] [F015E480] CRC32
09 97,0 [61334DB8] [96A03FE2] CRC32
10 92,6 [30A127CB] [EA19FA3E] CRC32
 
Состав
Masato Honda - alto & soprano & tenor & baritone saxophone, flute, clarinet, chorus, electric piano (#1), electric guitar (#8), arranger, synthesizer programming
Jun Kajiwara - acoustic guitar (#10), electric guitar (#3,4,7-9)
Yuji Toriyama - electric guitar (#1,2)
Bob James - acoustic & electric piano (#2,4), synthesizer (#4)
Keiji Matsumoto - acoustic piano (#3,9), electric piano (#5,7,8), organ (#3)
Satoru Shionoya - acoustic piano (#6)
Gregg Lee (#1,2), Tetsuo Sakurai (#3,8,9) - electric bass
Hideo Yamaki (#1,2), Hiroyuki Noritake (#3,5,7,8,9) - drums
Приватный:
Нет (DHT включён)
Размер:
393.89 Мб (413,024,326 байт) » файлов: 24
Участники:
0 раздают, 0 качают (0 участников всего)
Внешние участники:
2 раздают, 1 качают (3 участников всего) [ Обновить ]
Есть вопросы - пишите личное сообщение пользователю M0p94ok.
05:34
135
Нет комментариев. Ваш будет первым!