Поиск

(Funk, Fusion) [CD] Plus - Plus - 1972 (2012 Japan Mini-LP Edition), FLAC (tracks+.cue), lossless

(Funk, Fusion) [CD] Plus - Plus - 1972 (2012 Japan Mini-LP Edition), FLAC (tracks+.cue), lossless
Треклист:
Plus - Plus
Жанр: Funk, Fusion
Носитель: CD
Страна-производитель диска (релиза): Япония
Год издания: 1972 (2012)
Издатель (лейбл): P-Vine Records
Номер по каталогу: PCD 93503
Страна исполнителя (группы): Бельгия
Аудиокодек: FLAC (*.flac)
Тип рипа: tracks+.cue
Битрейт аудио: lossless
Продолжительность: 39:49
Источник (релизер): wikieup (what)
Наличие сканов в содержимом раздачи: нет
Треклист:
01. The Search (Benatar-Lucas) - 4:54
02. Gimme Some More of That (De Souter-Lucas) - 4:33
03. What Did You Do (Weyer-Lucas) - 11:26
04. Open Letter (Kent-Lucas) - 7:00
05. Put Everything Together (Kent-Lucas) - 3:21
06. Enjoy Yourself (Lucas-Lucas) - 8:35
Состав:
Francis Weyer - guitar, vocals
Leslie Kent - guitar, solo vocals
Yvan De Souter - bass
Bruno Castellucci - drums, percussion, vocals
Douglas Lucas - trumpet, flugelhorn
Ralph Benatar - tenor saxophone
Mike Lovell - trombone
 
Лог создания рипа
Exact Audio Copy V1.0 beta 3 from 29. August 2011
EAC extraction logfile from 14. May 2013, 10:57
Plus / Plus [2012 Japanese Reissue]
Used drive : TSSTcorpDVD-ROM TS-U333B Adapter: 0 ID: 1
Read mode : Secure
Utilize accurate stream : Yes
Defeat audio cache : Yes
Make use of C2 pointers : No
Read offset correction : 6
Overread into Lead-In and Lead-Out : No
Fill up missing offset samples with silence : Yes
Delete leading and trailing silent blocks : No
Null samples used in CRC calculations : Yes
Used interface : Native Win32 interface for Win NT & 2000
Gap handling : Appended to previous track
Used output format : User Defined Encoder
Selected bitrate : 1024 kBit/s
Quality : High
Add ID3 tag : No
Command line compressor : C:\Program Files\Exact Audio Copy\Flac\flac.exe
Additional command line options : -8 -V -T "ARTIST=%artist%" -T "TITLE=%title%" -T "ALBUM=%albumtitle%" -T "DATE=%year%" -T "TRACKNUMBER=%tracknr%" -T "GENRE=%genre%" -T "PERFORMER=%albuminterpret%" -T "COMPOSER=%composer%" %haslyrics%--tag-from-file=LYRICS="%lyricsfile%"%haslyrics% -T "ALBUMARTIST=%albumartist%" -T "DISCNUMBER=%cdnumber%" -T "TOTALDISCS=%totalcds%" -T "TOTALTRACKS=%numtracks%" -T "COMMENT=%comment%" %source% -o %dest%
TOC of the extracted CD
Track | Start | Length | Start sector | End sector
---------------------------------------------------------
1 | 0:00.00 | 4:54.03 | 0 | 22052
2 | 4:54.03 | 4:32.70 | 22053 | 42522
3 | 9:26.73 | 11:25.55 | 42523 | 93952
4 | 20:52.53 | 6:59.65 | 93953 | 125442
5 | 27:52.43 | 3:20.54 | 125443 | 140496
6 | 31:13.22 | 8:34.53 | 140497 | 179099
Track 1
Filename C:\EAC Rips\01 - The Search.wav
Pre-gap length 0:00:02.00
Peak level 100.0 %
Extraction speed 2.7 X
Track quality 100.0 %
Test CRC 992AE47C
Copy CRC 992AE47C
Track not present in AccurateRip database
Copy OK
Track 2
Filename C:\EAC Rips\02 - Gimme Some More Of That.wav
Pre-gap length 0:00:02.06
Peak level 100.0 %
Extraction speed 3.0 X
Track quality 100.0 %
Test CRC DF5EDF77
Copy CRC DF5EDF77
Track not present in AccurateRip database
Copy OK
Track 3
Filename C:\EAC Rips\03 - What Did You Do.wav
Pre-gap length 0:00:01.37
Peak level 100.0 %
Extraction speed 3.7 X
Track quality 100.0 %
Test CRC 3E912B34
Copy CRC 3E912B34
Track not present in AccurateRip database
Copy OK
Track 4
Filename C:\EAC Rips\04 - Open Letter.wav
Pre-gap length 0:00:03.25
Peak level 100.0 %
Extraction speed 4.0 X
Track quality 100.0 %
Test CRC FE91C59C
Copy CRC FE91C59C
Track not present in AccurateRip database
Copy OK
Track 5
Filename C:\EAC Rips\05 - Put Everything Together.wav
Pre-gap length 0:00:01.98
Peak level 100.0 %
Extraction speed 3.9 X
Track quality 100.0 %
Test CRC 4640AD41
Copy CRC 4640AD41
Track not present in AccurateRip database
Copy OK
Track 6
Filename C:\EAC Rips\06 - Enjoy Yourself.wav
Pre-gap length 0:00:03.14
Peak level 100.0 %
Extraction speed 4.6 X
Track quality 100.0 %
Test CRC ED3EF2B1
Copy CRC ED3EF2B1
Track not present in AccurateRip database
Copy OK
None of the tracks are present in the AccurateRip database
No errors occurred
End of status report
==== Log checksum 8566B791209FFB84AEECCDF9008BD7F614244B4B29BCD1AB53F8D3755B243828 ====
 
Содержание индексной карты (.CUE)
REM GENRE Jazz
REM DATE 1972
REM DISCID 59095406
REM COMMENT "ExactAudioCopy v1.0b3"
PERFORMER "Plus"
TITLE "Plus"
FILE "01 - The Search.wav" WAVE
TRACK 01 AUDIO
TITLE "The Search"
PERFORMER "Plus"
INDEX 01 00:00:00
TRACK 02 AUDIO
TITLE "Gimme Some More of That"
PERFORMER "Plus"
INDEX 00 04:51:73
FILE "02 - Gimme Some More of That.wav" WAVE
INDEX 01 00:00:00
TRACK 03 AUDIO
TITLE "What Did You Do"
PERFORMER "Plus"
INDEX 00 04:31:42
FILE "03 - What Did You Do.wav" WAVE
INDEX 01 00:00:00
TRACK 04 AUDIO
TITLE "Open Letter"
PERFORMER "Plus"
INDEX 00 11:22:36
FILE "04 - Open Letter.wav" WAVE
INDEX 01 00:00:00
TRACK 05 AUDIO
TITLE "Put Everything Together"
PERFORMER "Plus"
INDEX 00 06:57:66
FILE "05 - Put Everything Together.wav" WAVE
INDEX 01 00:00:00
TRACK 06 AUDIO
TITLE "Enjoy Yourself"
PERFORMER "Plus"
INDEX 00 03:17:43
FILE "06 - Enjoy Yourself.wav" WAVE
INDEX 01 00:00:00
 
Об альбоме (сборнике)
The holy grail of European progressive jazz-funk featuring players from Marc Moulin’s Placebo / Sam Suffy, and El Chicles / Nico Gomez crew.
Приватный:
Нет (DHT включён)
Размер:
261.30 Мб (273,992,450 байт) » файлов: 12
Участники:
0 раздают, 0 качают (0 участников всего)
Внешние участники:
7 раздают, 2 качают (9 участников всего) [ Обновить ]
No seeders - write personal message to user M0p94ok. Нет сидеров - пишите личное сообщение пользователю M0p94ok.
05:35
68
Нет комментариев. Ваш будет первым!