Поиск

(Jazz-Funk, Jazz-Rock) [CD] Takeshi Inomata & Sound Limited - Sounds of Sound L.T.D. - 1970 (2007 Japan Edition), FLAC (tracks+.cue), lossless

(Jazz-Funk, Jazz-Rock) [CD] Takeshi Inomata & Sound Limited - Sounds of Sound L.T.D. - 1970 (2007 Japan Edition), FLAC (tracks+.cue), lossless
Треклист:
Takeshi Inomata & Sound Limited - Sounds of Sound L.T.D.
Жанр: Jazz-Funk, Jazz-Rock
Носитель: CD
Страна-производитель диска (релиза): Япония
Год издания: 2007
Издатель (лейбл): P-Vine Records/Columbia/Universounds
Номер по каталогу: PCD-7284
Аудиокодек: FLAC (*.flac)
Тип рипа: tracks+.cue
Битрейт аудио: lossless
Продолжительность: 33:00
Источник (релизер): wikieup (what)
Наличие сканов в содержимом раздачи: нет
Треклист:
01. Theme (Mustache) (8:02)
02. Tak's Tune (4:23)
03. Joint (4:58)
04. Monster (4:29)
05. Lullaby for Yuh (3:12)
06. Scotland Scene (6:53)
07. Theme (1:03)
Состав:
Takeshi Inomata - drums
Jun Suzuki - bass
Ryo Kawasaki, Shigenori Kamiya - guitar
Yusuke Hoguchi - organ
Toshiaki Yokota - flute
Takao Uematsu - saxophone
Shunzo Ohno, Takashi Kumagai - trumpet
Shigemichi Domoto, Takashi Imai - trombone
Recorded in March 1970.
 
Лог создания рипа
Exact Audio Copy V1.0 beta 3 from 29. August 2011
EAC extraction logfile from 29. November 2012, 11:33
Takeshi Inomata & Sound L.T.D. / Sounds Of Sound L.T.D. [2007 Reissue]
Used drive : TSSTcorpDVD-ROM TS-U333B Adapter: 0 ID: 1
Read mode : Secure
Utilize accurate stream : Yes
Defeat audio cache : Yes
Make use of C2 pointers : No
Read offset correction : 6
Overread into Lead-In and Lead-Out : No
Fill up missing offset samples with silence : Yes
Delete leading and trailing silent blocks : No
Null samples used in CRC calculations : Yes
Used interface : Native Win32 interface for Win NT & 2000
Gap handling : Appended to previous track
Used output format : User Defined Encoder
Selected bitrate : 1024 kBit/s
Quality : High
Add ID3 tag : No
Command line compressor : C:\Program Files\Exact Audio Copy\Flac\flac.exe
Additional command line options : -8 -V -T "ARTIST=%artist%" -T "TITLE=%title%" -T "ALBUM=%albumtitle%" -T "DATE=%year%" -T "TRACKNUMBER=%tracknr%" -T "GENRE=%genre%" -T "PERFORMER=%albuminterpret%" -T "COMPOSER=%composer%" %haslyrics%--tag-from-file=LYRICS="%lyricsfile%"%haslyrics% -T "ALBUMARTIST=%albumartist%" -T "DISCNUMBER=%cdnumber%" -T "TOTALDISCS=%totalcds%" -T "TOTALTRACKS=%numtracks%" -T "COMMENT=%comment%" %source% -o %dest%
TOC of the extracted CD
Track | Start | Length | Start sector | End sector
---------------------------------------------------------
1 | 0:00.00 | 8:01.60 | 0 | 36134
2 | 8:01.60 | 4:22.66 | 36135 | 55850
3 | 12:24.51 | 4:57.54 | 55851 | 78179
4 | 17:22.30 | 4:29.30 | 78180 | 98384
5 | 21:51.60 | 3:11.54 | 98385 | 112763
6 | 25:03.39 | 6:52.57 | 112764 | 143720
7 | 31:56.21 | 1:02.50 | 143721 | 148420
Track 1
Filename C:\EAC Rips\01 - テーマ~ムスターシュ [Theme~Mustache].wav
Pre-gap length 0:00:02.00
Peak level 99.1 %
Extraction speed 2.9 X
Track quality 100.0 %
Test CRC 6AA254D3
Copy CRC 6AA254D3
Cannot be verified as accurate (confidence 1) [2A1BA2FE], AccurateRip returned [0114B4BA] (AR v2)
Copy OK
Track 2
Filename C:\EAC Rips\02 - タクス・テューン [Tak's Tune].wav
Pre-gap length 0:00:05.13
Peak level 99.9 %
Extraction speed 3.1 X
Track quality 100.0 %
Test CRC 4CE82BB8
Copy CRC 4CE82BB8
Cannot be verified as accurate (confidence 2) [619B7D19], AccurateRip returned [80BC6157] (AR v2)
Copy OK
Track 3
Filename C:\EAC Rips\03 - ジョイント [Joint].wav
Pre-gap length 0:00:04.64
Peak level 99.4 %
Extraction speed 3.4 X
Track quality 100.0 %
Test CRC F35F48FD
Copy CRC F35F48FD
Cannot be verified as accurate (confidence 2) [6E57E81B], AccurateRip returned [E407AFD3] (AR v2)
Copy OK
Track 4
Filename C:\EAC Rips\04 - モンスター [Monster].wav
Pre-gap length 0:00:02.49
Peak level 99.9 %
Extraction speed 3.6 X
Track quality 100.0 %
Test CRC 58398099
Copy CRC 58398099
Cannot be verified as accurate (confidence 2) [D3DCE3AA], AccurateRip returned [7E1F05F3] (AR v2)
Copy OK
Track 5
Filename C:\EAC Rips\05 - ララバイ・フォー・ユー [Lullaby For Yuh].wav
Peak level 60.3 %
Extraction speed 3.6 X
Track quality 100.0 %
Test CRC 59745750
Copy CRC 59745750
Cannot be verified as accurate (confidence 1) [69C2A24C], AccurateRip returned [51C700D4] (AR v2)
Copy OK
Track 6
Filename C:\EAC Rips\06 - スコットランド・シーン [Scotland Scene].wav
Pre-gap length 0:00:02.60
Peak level 99.0 %
Extraction speed 4.2 X
Track quality 100.0 %
Test CRC 6774B30C
Copy CRC 6774B30C
Cannot be verified as accurate (confidence 1) [3834732C], AccurateRip returned [9F777E52] (AR v2)
Copy OK
Track 7
Filename C:\EAC Rips\07 - テーマ [Theme].wav
Peak level 98.1 %
Extraction speed 2.9 X
Track quality 100.0 %
Test CRC 11C547E5
Copy CRC 11C547E5
Cannot be verified as accurate (confidence 1) [9CA6AEE3], AccurateRip returned [3963A2AB] (AR v2)
Copy OK
No tracks could be verified as accurate
You may have a different pressing from the one(s) in the database
No errors occurred
End of status report
==== Log checksum 69A41555FB91B3B1255C920EDEB4F1EF926DD7DD4B43EEBB1ABA16E7F5FC2200 ====
 
Содержание индексной карты (.CUE)
REM GENRE Jazz
REM DATE 1970
REM DISCID 5107BA07
REM COMMENT "ExactAudioCopy v1.0b3"
PERFORMER "Takeshi Inomata & Sound Limited"
TITLE "Sounds of Sound L.T.D."
FILE "01 - Theme (Mustache).wav" WAVE
TRACK 01 AUDIO
TITLE "Theme (Mustache)"
PERFORMER "Takeshi Inomata & Sound Limited"
INDEX 01 00:00:00
TRACK 02 AUDIO
TITLE "Tak's Tune"
PERFORMER "Takeshi Inomata & Sound Limited"
INDEX 00 07:56:50
FILE "02 - Tak's Tune.wav" WAVE
INDEX 01 00:00:00
TRACK 03 AUDIO
TITLE "Joint"
PERFORMER "Takeshi Inomata & Sound Limited"
INDEX 00 04:18:18
FILE "03 - Joint.wav" WAVE
INDEX 01 00:00:00
TRACK 04 AUDIO
TITLE "Monster"
PERFORMER "Takeshi Inomata & Sound Limited"
INDEX 00 04:55:17
FILE "04 - Monster.wav" WAVE
INDEX 01 00:00:00
FILE "05 - Lullaby for Yuh.wav" WAVE
TRACK 05 AUDIO
TITLE "Lullaby for Yuh"
PERFORMER "Takeshi Inomata & Sound Limited"
INDEX 01 00:00:00
TRACK 06 AUDIO
TITLE "Scotland Scene"
PERFORMER "Takeshi Inomata & Sound Limited"
INDEX 00 03:09:09
FILE "06 - Scotland Scene.wav" WAVE
INDEX 01 00:00:00
FILE "07 - Theme.wav" WAVE
TRACK 07 AUDIO
TITLE "Theme"
PERFORMER "Takeshi Inomata & Sound Limited"
INDEX 01 00:00:00
 
Отчет CUETools
[CUETools log; Date: 24.04.2015 17:35:51; Version: 2.1.5]
[CTDB TOCID: q6VkE3xj9s03D2riZwR6pLY8t.g-] disk not present in database.
[AccurateRip ID: 000a46b1-003bbae4-5107ba07] found.
Track [ CRC | V2 ] Status
01 [b19bb78a|2a1ba2fe] (0+0/1) No match
02 [46377f51|619b7d19] (0+0/2) No match
03 [92ec2191|6e57e81b] (0+0/2) No match
04 [a44a4652|d3dce3aa] (0+0/2) No match
05 [192ecac3|69c2a24c] (0+0/1) No match
06 [3a9ad4fc|3834732c] (0+0/1) No match
07 [cbdb80ba|9ca6aee3] (0+0/1) No match
Offsetted by 669:
01 [0114b4ba] (1/1) Accurately ripped
02 [80bc6157] (2/2) Accurately ripped
03 [e407afd3] (2/2) Accurately ripped
04 [7e1f05f3] (2/2) Accurately ripped
05 [51c700d4] (1/1) Accurately ripped
06 [9f777e52] (1/1) Accurately ripped
07 [3963a2ab] (1/1) Accurately ripped
Track Peak [ CRC32 ] [W/O NULL] [ LOG ]
-- 99,9 [7BB1169A] [96347C22]
01 99,1 [6AA254D3] [47E3E6F1] CRC32
02 99,9 [4CE82BB8] [C8F03F08] CRC32
03 99,4 [F35F48FD] [06FFEBEA] CRC32
04 99,9 [58398099] [1A270D44] CRC32
05 60,2 [59745750] [89470CD1] CRC32
06 99,0 [6774B30C] [C251791E] CRC32
07 98,1 [11C547E5] [50FE6437] CRC32
 
Об альбоме (сборнике)
A killer funky group from early 70s Japan – a slightly large ensemble, but one with some really heavy drums at the bottom – plus some great use of organ and electric guitar! There's a tight brace of horns at the top – flute, tenor, trumpets, and trombone – but the rhythms are what really drive the record, and give the whole thing a sometimes-funky, always-groovy quality that never lets up! The mode is almost soundtrack funk at times – jazz, but filled with some rich colors and expansive tones too – and there's a sophistication here that really rewards repeated listenings, but never gets in the way of the groovier moments too. Titles include "Theme Mustache", "Tak's Tune", "Joint", "Monster", "Lullaby For Yuh", and "Scotland Scene".
Приватный:
Нет (DHT включён)
Размер:
222.52 Мб (233,331,924 байт) » файлов: 15
Участники:
0 раздают, 1 качают (1 участников всего)
Внешние участники:
8 раздают, 2 качают (10 участников всего) [ Обновить ]
No seeders - write a personal message to user M0p94ok. Нет сидеров - пишите личное сообщение пользователю M0p94ok.
05:36
102
Нет комментариев. Ваш будет первым!