Поиск

(Jazz-Funk, Free Jazz) [CD] Takeshi Inomata & Sound Limited - Innocent Canon - 1971 (2012 Japan Edition), FLAC (tracks+.cue), lossless

(Jazz-Funk, Free Jazz) [CD] Takeshi Inomata & Sound Limited - Innocent Canon - 1971 (2012 Japan Edition), FLAC (tracks+.cue), lossless
Треклист:
Takeshi Inomata & Sound Limited - Innocent Canon
Жанр: Jazz-Funk, Free Jazz
Носитель: CD
Страна-производитель диска (релиза): Япония
Год издания: 2012
Издатель (лейбл): King Records
Номер по каталогу: KICJ-2292
Аудиокодек: FLAC (*.flac)
Тип рипа: tracks+.cue
Битрейт аудио: lossless
Продолжительность: 36:18
Источник (релизер): wikieup (what)
Наличие сканов в содержимом раздачи: нет
Треклист:
01. Introduction (5:57)
02. The Death of Janis (4:00)
03. Go for Nothing (7:32)
04. Child & I (4:03)
05. Blue (5:11)
06. Alone (7:16)
07. Epilog (2:19)
Состав:
Takeshi Inomata - drums
Shunzo Ohno - trumpet, flugelhorn
Shigehito Ohara - electric piano, organ, piano
Jake F. Concepcion - soprano saxophone, alto saxophone, tenor saxophone, flute
Jun Suzuki - electric bass, Fender bass, pianica, whistling
Takehisa Suzuki - trumpet, piccolo trumpet, flugelhorn
Shigemichi Domoto - trombone, vibraphone
Osamu Nakajima - percussion
Kimio Mizutani - electric guitar, folk guitar, sitar
Toshiaki Yokota - bass flute, alto flute, block flute, piccolo flute
Tenmei Kano - narrator
Recorded on February 21, 1971.
 
Лог создания рипа
Exact Audio Copy V1.0 beta 3 from 29. August 2011
EAC extraction logfile from 10. December 2012, 11:04
Takeshi Inomata & Sound Limited / Innocent Canon [2012 Reissue]
Used drive : TSSTcorpDVD-ROM TS-U333B Adapter: 0 ID: 1
Read mode : Secure
Utilize accurate stream : Yes
Defeat audio cache : Yes
Make use of C2 pointers : No
Read offset correction : 6
Overread into Lead-In and Lead-Out : No
Fill up missing offset samples with silence : Yes
Delete leading and trailing silent blocks : No
Null samples used in CRC calculations : Yes
Used interface : Native Win32 interface for Win NT & 2000
Gap handling : Appended to previous track
Used output format : User Defined Encoder
Selected bitrate : 1024 kBit/s
Quality : High
Add ID3 tag : No
Command line compressor : C:\Program Files\Exact Audio Copy\Flac\flac.exe
Additional command line options : -8 -V -T "ARTIST=%artist%" -T "TITLE=%title%" -T "ALBUM=%albumtitle%" -T "DATE=%year%" -T "TRACKNUMBER=%tracknr%" -T "GENRE=%genre%" -T "PERFORMER=%albuminterpret%" -T "COMPOSER=%composer%" %haslyrics%--tag-from-file=LYRICS="%lyricsfile%"%haslyrics% -T "ALBUMARTIST=%albumartist%" -T "DISCNUMBER=%cdnumber%" -T "TOTALDISCS=%totalcds%" -T "TOTALTRACKS=%numtracks%" -T "COMMENT=%comment%" %source% -o %dest%
TOC of the extracted CD
Track | Start | Length | Start sector | End sector
---------------------------------------------------------
1 | 0:00.00 | 5:57.09 | 0 | 26783
2 | 5:57.09 | 3:59.67 | 26784 | 44775
3 | 9:57.01 | 7:31.55 | 44776 | 78655
4 | 17:28.56 | 4:02.64 | 78656 | 96869
5 | 21:31.45 | 5:11.11 | 96870 | 120205
6 | 26:42.56 | 7:15.50 | 120206 | 152880
7 | 33:58.31 | 2:18.61 | 152881 | 163291
Track 1
Filename C:\EAC Rips\01 - Introduction.wav
Pre-gap length 0:00:02.00
Peak level 99.3 %
Extraction speed 2.7 X
Track quality 100.0 %
Test CRC E5B3C21F
Copy CRC E5B3C21F
Track not present in AccurateRip database
Copy OK
Track 2
Filename C:\EAC Rips\02 - The Death Of Janis.wav
Peak level 99.2 %
Extraction speed 2.9 X
Track quality 100.0 %
Test CRC F224651C
Copy CRC F224651C
Track not present in AccurateRip database
Copy OK
Track 3
Filename C:\EAC Rips\03 - Go For Nothing.wav
Peak level 99.3 %
Extraction speed 3.5 X
Track quality 100.0 %
Test CRC DA73B74A
Copy CRC DA73B74A
Track not present in AccurateRip database
Copy OK
Track 4
Filename C:\EAC Rips\04 - Child & I.wav
Pre-gap length 0:00:03.66
Peak level 99.3 %
Extraction speed 3.5 X
Track quality 100.0 %
Test CRC 395A1610
Copy CRC 395A1610
Track not present in AccurateRip database
Copy OK
Track 5
Filename C:\EAC Rips\05 - Blue.wav
Peak level 99.3 %
Extraction speed 3.9 X
Track quality 100.0 %
Test CRC F0504949
Copy CRC F0504949
Track not present in AccurateRip database
Copy OK
Track 6
Filename C:\EAC Rips\06 - Alone.wav
Peak level 99.4 %
Extraction speed 4.3 X
Track quality 100.0 %
Test CRC 8127AC78
Copy CRC 8127AC78
Track not present in AccurateRip database
Copy OK
Track 7
Filename C:\EAC Rips\07 - Epilog.wav
Peak level 99.3 %
Extraction speed 2.8 X
Track quality 99.9 %
Test CRC 70D5BBD1
Copy CRC 70D5BBD1
Track not present in AccurateRip database
Copy OK
None of the tracks are present in the AccurateRip database
No errors occurred
End of status report
==== Log checksum 06F407ABE7CF8EE6638BF12C459911491FA63BF29715F7265FD66A685E36BD16 ====
 
Содержание индексной карты (.CUE)
REM GENRE Jazz
REM DATE 1971
REM DISCID 50088107
REM COMMENT "ExactAudioCopy v1.0b3"
PERFORMER "Takeshi Inomata & Sound Limited"
TITLE "Innocent Canon"
FILE "01 - Introduction.wav" WAVE
TRACK 01 AUDIO
TITLE "Introduction"
PERFORMER "Takeshi Inomata & Sound Limited"
INDEX 01 00:00:00
FILE "02 - The Death of Janis.wav" WAVE
TRACK 02 AUDIO
TITLE "The Death of Janis"
PERFORMER "Takeshi Inomata & Sound Limited"
INDEX 01 00:00:00
FILE "03 - Go for Nothing.wav" WAVE
TRACK 03 AUDIO
TITLE "Go for Nothing"
PERFORMER "Takeshi Inomata & Sound Limited"
INDEX 01 00:00:00
TRACK 04 AUDIO
TITLE "Child & I"
PERFORMER "Takeshi Inomata & Sound Limited"
INDEX 00 07:28:05
FILE "04 - Child & I.wav" WAVE
INDEX 01 00:00:00
FILE "05 - Blue.wav" WAVE
TRACK 05 AUDIO
TITLE "Blue"
PERFORMER "Takeshi Inomata & Sound Limited"
INDEX 01 00:00:00
FILE "06 - Alone.wav" WAVE
TRACK 06 AUDIO
TITLE "Alone"
PERFORMER "Takeshi Inomata & Sound Limited"
INDEX 01 00:00:00
FILE "07 - Epilog.wav" WAVE
TRACK 07 AUDIO
TITLE "Epilog"
PERFORMER "Takeshi Inomata & Sound Limited"
INDEX 01 00:00:00
 
Об альбоме (сборнике)
Nothing innocent about this record – because the groove is hard and heavy, wild and trippy – a really heady brew of funky jazz and more psychedelic influences – all recorded with some weird sounds in the background too! The album's a great one from Japanese groove pioneer Takeshi Inomata – and it's almost a fusion of earlier 60s funky band jazz with some of the more tripped-out modes of the jazz rock era. Vamping rhythms and full-on organs are undercut by wiggy guitar parts and soaring organ lines – all augmented by spoken Japanese passages, sound effects, and production styles that abstract out some instruments into very unusual modes. There's plenty of soulful and funky moments throughout – and titles include "The Death Of Janis", "Child & I", "Blue", "Alone", and "Go For Nothing".
Приватный:
Нет (DHT включён)
Размер:
242.42 Мб (254,199,865 байт) » файлов: 13
Участники:
0 раздают, 0 качают (0 участников всего)
Внешние участники:
5 раздают, 1 качают (6 участников всего) [ Обновить ]
No seeders - write personal message to user M0p94ok. Нет сидеров - пишите личное сообщение пользователю M0p94ok.
05:36
89
Нет комментариев. Ваш будет первым!