Поиск

(Jazz-Funk) [CD] Jiro Inagaki & Soul Media feat. Sammy - Wandering Birds - 1971 (2013 Japan Edition), FLAC (tracks+.cue), lossless

(Jazz-Funk) [CD] Jiro Inagaki & Soul Media feat. Sammy - Wandering Birds - 1971 (2013 Japan Edition), FLAC (tracks+.cue), lossless
Треклист:
Jiro Inagaki & Soul Media feat. Sammy - Wandering Birds
Жанр: Jazz-Funk
Носитель: CD
Страна-производитель диска (релиза): Япония
Год издания: 1971 (2013)
Издатель (лейбл): Think! Records
Номер по каталогу: THCD-212
Аудиокодек: FLAC (*.flac)
Тип рипа: tracks+.cue
Битрейт аудио: lossless
Продолжительность: 38:06
Источник (релизер): wikieup (what)
Наличие сканов в содержимом раздачи: нет
Треклист:
01. Wandering Birds (Interlude) (6:41)
02. After Noon (6:06)
03. Parajika (5:31)
04. Do It! (7:29)
05. On the Grass (3:35)
06. Hyakunen Tattara (3:05)
07. Wandering Birds (5:39)
 
Лог создания рипа
Exact Audio Copy V1.0 beta 3 from 29. August 2011
EAC extraction logfile from 14. May 2013, 16:01
Sammy & Jiro Inagaki & Soul Media / Wandering Birds
Used drive : TSSTcorpDVD-ROM TS-U333B Adapter: 0 ID: 1
Read mode : Secure
Utilize accurate stream : Yes
Defeat audio cache : Yes
Make use of C2 pointers : No
Read offset correction : 6
Overread into Lead-In and Lead-Out : No
Fill up missing offset samples with silence : Yes
Delete leading and trailing silent blocks : No
Null samples used in CRC calculations : Yes
Used interface : Native Win32 interface for Win NT & 2000
Gap handling : Appended to previous track
Used output format : User Defined Encoder
Selected bitrate : 1024 kBit/s
Quality : High
Add ID3 tag : No
Command line compressor : C:\Program Files\Exact Audio Copy\Flac\flac.exe
Additional command line options : -8 -V -T "ARTIST=%artist%" -T "TITLE=%title%" -T "ALBUM=%albumtitle%" -T "DATE=%year%" -T "TRACKNUMBER=%tracknr%" -T "GENRE=%genre%" -T "PERFORMER=%albuminterpret%" -T "COMPOSER=%composer%" %haslyrics%--tag-from-file=LYRICS="%lyricsfile%"%haslyrics% -T "ALBUMARTIST=%albumartist%" -T "DISCNUMBER=%cdnumber%" -T "TOTALDISCS=%totalcds%" -T "TOTALTRACKS=%numtracks%" -T "COMMENT=%comment%" %source% -o %dest%
TOC of the extracted CD
Track | Start | Length | Start sector | End sector
---------------------------------------------------------
1 | 0:00.00 | 6:41.10 | 0 | 30084
2 | 6:41.10 | 6:06.25 | 30085 | 57559
3 | 12:47.35 | 5:31.21 | 57560 | 82405
4 | 18:18.56 | 7:28.72 | 82406 | 116077
5 | 25:47.53 | 3:35.30 | 116078 | 132232
6 | 29:23.08 | 3:04.46 | 132233 | 146078
7 | 32:27.54 | 5:38.54 | 146079 | 171482
Track 1
Filename C:\EAC Rips\01 - 女友達 ~インタールード.wav
Pre-gap length 0:00:02.00
Peak level 98.8 %
Extraction speed 1.2 X
Track quality 100.0 %
Test CRC 8F76A7A1
Copy CRC 8F76A7A1
Track not present in AccurateRip database
Copy OK
Track 2
Filename C:\EAC Rips\02 - アフタヌーン.wav
Peak level 98.8 %
Extraction speed 1.4 X
Track quality 100.0 %
Test CRC 0C741C6C
Copy CRC 0C741C6C
Track not present in AccurateRip database
Copy OK
Track 3
Filename C:\EAC Rips\03 - パラジカ.wav
Peak level 98.8 %
Extraction speed 1.5 X
Track quality 100.0 %
Test CRC EF72F973
Copy CRC EF72F973
Track not present in AccurateRip database
Copy OK
Track 4
Filename C:\EAC Rips\04 - ドゥ・イット.wav
Pre-gap length 0:00:02.77
Peak level 98.8 %
Extraction speed 1.7 X
Track quality 100.0 %
Test CRC F125C5F8
Copy CRC F125C5F8
Track not present in AccurateRip database
Copy OK
Track 5
Filename C:\EAC Rips\05 - オン・ザ・グラス.wav
Pre-gap length 0:00:01.82
Peak level 98.8 %
Extraction speed 1.7 X
Track quality 100.0 %
Test CRC 28831250
Copy CRC 28831250
Track not present in AccurateRip database
Copy OK
Track 6
Filename C:\EAC Rips\06 - 百年たったら.wav
Pre-gap length 0:00:01.74
Peak level 98.8 %
Extraction speed 1.5 X
Track quality 99.9 %
Test CRC 9DCE65C1
Copy CRC 9DCE65C1
Track not present in AccurateRip database
Copy OK
Track 7
Filename C:\EAC Rips\07 - 女友達.wav
Pre-gap length 0:00:01.45
Peak level 98.8 %
Extraction speed 2.0 X
Track quality 100.0 %
Test CRC 8569BD7D
Copy CRC 8569BD7D
Track not present in AccurateRip database
Copy OK
None of the tracks are present in the AccurateRip database
No errors occurred
End of status report
==== Log checksum 77180B885EE78A4FBF8B869FC26C4763F0E98FDD6DE6A8FD0D08E3C551C39BE2 ====
 
Содержание индексной карты (.CUE)
REM GENRE Jazz
REM DATE 1971
REM DISCID 5E08EE07
REM COMMENT "ExactAudioCopy v1.0b3"
PERFORMER "Jiro Inagaki & Soul Media feat. Sammy"
TITLE "Wandering Birds"
FILE "01 - Wandering Birds (Interlude).wav" WAVE
TRACK 01 AUDIO
TITLE "Wandering Birds (Interlude)"
PERFORMER "Jiro Inagaki & Soul Media feat. Sammy"
INDEX 01 00:00:00
FILE "02 - After Noon.wav" WAVE
TRACK 02 AUDIO
TITLE "After Noon"
PERFORMER "Jiro Inagaki & Soul Media feat. Sammy"
INDEX 01 00:00:00
FILE "03 - Parajika.wav" WAVE
TRACK 03 AUDIO
TITLE "Parajika"
PERFORMER "Jiro Inagaki & Soul Media feat. Sammy"
INDEX 01 00:00:00
TRACK 04 AUDIO
TITLE "Do It!"
PERFORMER "Jiro Inagaki & Soul Media feat. Sammy"
INDEX 00 05:28:38
FILE "04 - Do It!.wav" WAVE
INDEX 01 00:00:00
TRACK 05 AUDIO
TITLE "On the Grass"
PERFORMER "Jiro Inagaki & Soul Media feat. Sammy"
INDEX 00 07:27:10
FILE "05 - On the Grass.wav" WAVE
INDEX 01 00:00:00
TRACK 06 AUDIO
TITLE "Hyakunen Tattara"
PERFORMER "Jiro Inagaki & Soul Media feat. Sammy"
INDEX 00 03:33:49
FILE "06 - Hyakunen Tattara.wav" WAVE
INDEX 01 00:00:00
TRACK 07 AUDIO
TITLE "Wandering Birds"
PERFORMER "Jiro Inagaki & Soul Media feat. Sammy"
INDEX 00 03:03:12
FILE "07 - Wandering Birds.wav" WAVE
INDEX 01 00:00:00
 
Об альбоме (сборнике)
Heavy funk from Japan's Soul Media combo – and one of the group's great 70s outings with the engimatic Sammy on vocals! Sammy's got this raw, raspy style that might owe a bit to Janis Joplin at times – but also nods strongly to the work of the American underground at others – more than able to stretch out with the fierce sounds of the group on the record, especially when they take on some trippy or more freaked-out styles! The drums are often nice and bold, and the electric instrumentation is very well integrated with a tight horn section that gives the tunes plenty of punch – and titles include "After Noon", "On The Grass", "Wandering Birds", "Parajika", and "Hyakunen Tattara".
Приватный:
Нет (DHT включён)
Размер:
245.25 Мб (257,162,466 байт) » файлов: 14
Участники:
0 раздают, 0 качают (0 участников всего)
Внешние участники:
3 раздают, 1 качают (4 участников всего) [ Обновить ]
No seeders - write a personal message to user M0p94ok. Нет сидеров - пишите личное сообщение пользователю M0p94ok.
05:37
76
Нет комментариев. Ваш будет первым!