Поиск

(R&B / Soul) [CD] Barbara Mason - Lady Love - 1973, FLAC (tracks+.cue), lossless

(R&B / Soul) [CD] Barbara Mason - Lady Love - 1973, FLAC (tracks+.cue), lossless
Треклист:
Barbara Mason / Lady Love (1973)
Жанр: R&B / Soul
Носитель: CD
Страна-производитель диска (релиза): USA
Год издания: 2009
Издатель (лейбл): Soul Brother Records
Номер по каталогу: CD SBCS 32
Страна исполнителя (группы): USA
Аудиокодек: FLAC (*.flac)
Тип рипа: tracks+.cue
Битрейт аудио: lossless
Продолжительность: 00:48:27
Источник (релизер): найдено в интеренете
Наличие сканов в содержимом раздачи: да
Треклист:
01 Me And Mrs. Jones
02 Bed And Board (Extended Version)
03 Who'd Ever Think
04 World War Three
05 Caught In The Middle
06 I Miss You Gordon
07 All In Love Is Fair
08 Child Of Tomorrow (bonus track)
 
Лог создания рипа
Exact Audio Copy V0.99 prebeta 5 from 4. May 2009
EAC extraction logfile from 17. June 2010, 20:56
Barbara Mason / Lady Love
Used drive : TSSTcorpCDDVDW SH-S223F Adapter: 3 ID: 0
Read mode : Secure
Utilize accurate stream : Yes
Defeat audio cache : Yes
Make use of C2 pointers : No
Read offset correction : 6
Overread into Lead-In and Lead-Out : No
Fill up missing offset samples with silence : Yes
Delete leading and trailing silent blocks : No
Null samples used in CRC calculations : Yes
Used interface : Native Win32 interface for Win NT & 2000
Gap handling : Appended to previous track
Used output format : User Defined Encoder
Selected bitrate : 192 kBit/s
Quality : High
Add ID3 tag : No
Command line compressor : D:\Program Files\Exact Audio Copy\flac-1.1.4-win\bin\flac.exe
Additional command line options : -V -8 -T "artist=%a" -T "title=%t" -T "album=%g" -T "date=%y" -T "tracknumber=%n" -T "genre=%m" %s
TOC of the extracted CD
Track | Start | Length | Start sector | End sector
---------------------------------------------------------
1 | 0:00.00 | 8:56.15 | 0 | 40214
2 | 8:56.15 | 8:14.65 | 40215 | 77329
3 | 17:11.05 | 5:02.47 | 77330 | 100026
4 | 22:13.52 | 10:02.70 | 100027 | 145246
5 | 32:16.47 | 4:33.29 | 145247 | 165750
6 | 36:50.01 | 3:56.72 | 165751 | 183522
7 | 40:46.73 | 3:53.32 | 183523 | 201029
8 | 44:40.30 | 3:46.19 | 201030 | 217998
Track 1
Filename E:\EAC\Barbara Mason - Lady Love - CD - 1973 (2009Re) - FLAC\01. Barbara Mason - Me And Mrs. Jones.wav
Pre-gap length 0:00:02.00
Peak level 89.1 %
Track quality 100.0 %
Test CRC A494CB53
Copy CRC A494CB53
Track not present in AccurateRip database
Copy OK
Track 2
Filename E:\EAC\Barbara Mason - Lady Love - CD - 1973 (2009Re) - FLAC\02. Barbara Mason - Bed And Board (Extended Version).wav
Pre-gap length 0:00:00.50
Peak level 97.1 %
Track quality 100.0 %
Test CRC 9595FB0D
Copy CRC 9595FB0D
Track not present in AccurateRip database
Copy OK
Track 3
Filename E:\EAC\Barbara Mason - Lady Love - CD - 1973 (2009Re) - FLAC\03. Barbara Mason - Who'd Ever Think.wav
Pre-gap length 0:00:01.06
Peak level 100.0 %
Track quality 100.0 %
Test CRC B15749D6
Copy CRC B15749D6
Track not present in AccurateRip database
Copy OK
Track 4
Filename E:\EAC\Barbara Mason - Lady Love - CD - 1973 (2009Re) - FLAC\04. Barbara Mason - World War Three.wav
Pre-gap length 0:00:00.72
Peak level 84.1 %
Track quality 100.0 %
Test CRC 31F27852
Copy CRC 31F27852
Track not present in AccurateRip database
Copy OK
Track 5
Filename E:\EAC\Barbara Mason - Lady Love - CD - 1973 (2009Re) - FLAC\05. Barbara Mason - Caught In The Middle.wav
Pre-gap length 0:00:00.54
Peak level 89.1 %
Track quality 100.0 %
Test CRC DDC7B5A7
Copy CRC DDC7B5A7
Track not present in AccurateRip database
Copy OK
Track 6
Filename E:\EAC\Barbara Mason - Lady Love - CD - 1973 (2009Re) - FLAC\06. Barbara Mason - I Miss You Gordon.wav
Pre-gap length 0:00:00.78
Peak level 91.2 %
Track quality 100.0 %
Test CRC A1FCE263
Copy CRC A1FCE263
Track not present in AccurateRip database
Copy OK
Track 7
Filename E:\EAC\Barbara Mason - Lady Love - CD - 1973 (2009Re) - FLAC\07. Barbara Mason - All In Love Is Fair.wav
Pre-gap length 0:00:01.18
Peak level 100.0 %
Track quality 99.9 %
Test CRC 136635EE
Copy CRC 136635EE
Track not present in AccurateRip database
Copy OK
Track 8
Filename E:\EAC\Barbara Mason - Lady Love - CD - 1973 (2009Re) - FLAC\08. Barbara Mason - Child Of Tomorrow.wav
Pre-gap length 0:00:00.86
Peak level 96.0 %
Track quality 100.0 %
Test CRC 6D99EA0A
Copy CRC 6D99EA0A
Track not present in AccurateRip database
Copy OK
None of the tracks are present in the AccurateRip database
No errors occurred
End of status report
 
Содержание индексной карты (.CUE)
REM GENRE Soul
REM DATE 1973
REM DISCID 650B5A08
REM COMMENT "ExactAudioCopy v0.99pb5"
FILE "01 Me And Mrs. Jones.wav" WAVE
TRACK 01 AUDIO
INDEX 01 00:00:00
TRACK 02 AUDIO
INDEX 00 08:55:52
FILE "02 Bed And Board (Extended Version).wav" WAVE
INDEX 01 00:00:00
TRACK 03 AUDIO
INDEX 00 08:13:60
FILE "03 Who'd Ever Think.wav" WAVE
INDEX 01 00:00:00
TRACK 04 AUDIO
INDEX 00 05:01:68
FILE "04 World War Three.wav" WAVE
INDEX 01 00:00:00
TRACK 05 AUDIO
INDEX 00 10:02:29
FILE "05 Caught In The Middle.wav" WAVE
INDEX 01 00:00:00
TRACK 06 AUDIO
INDEX 00 04:32:45
FILE "06 I Miss You Gordon.wav" WAVE
INDEX 01 00:00:00
TRACK 07 AUDIO
INDEX 00 03:55:58
FILE "07 All In Love Is Fair.wav" WAVE
INDEX 01 00:00:00
TRACK 08 AUDIO
INDEX 00 03:52:42
FILE "08 Child Of Tomorrow.wav" WAVE
INDEX 01 00:00:00
Приватный:
Нет (DHT включён)
Размер:
293.31 Мб (307,559,231 байт) » файлов: 17
Участники:
0 раздают, 0 качают (0 участников всего)
Внешние участники:
--- [ Обновить ]
Есть вопросы - пишите личное сообщение пользователю M0p94ok.
05:38
81
Нет комментариев. Ваш будет первым!