Поиск

(Soul) [CD] Barbara McNair - The Ultimate Motown Collection - 2003[1966-69], FLAC (tracks+.cue), lossless

(Soul) [CD] Barbara McNair - The Ultimate Motown Collection - 2003[1966-69], FLAC (tracks+.cue), lossless
Треклист:
Barbara McNair / The Ultimate Motown Collection
Жанр: Soul
Носитель: CD
Страна-производитель диска (релиза): USA
Год издания: 2003[1966-69]
Издатель (лейбл): Motown
Номер по каталогу: 017554-2
Страна исполнителя (группы): USA
Аудиокодек: FLAC (*.flac)
Тип рипа: tracks+.cue
Битрейт аудио: lossless
Продолжительность: 02:18:20
Источник (релизер): Свой диск
Наличие сканов в содержимом раздачи: да
Треклист:
 
CD1
CD1:
Here I Am'- 1966
01. - My World Is Empty Without You - 03:06
02. - Message To Michael - 02:51
03. - Everything Is Good About You - 03:28
04. - Here I Am Baby - 02:49
05. - Steal Away Tonight - 02:58
06. - For Once In My Life - 02:58
07. - The Shadow Of Your Smile - 03:03
08. - I Will Wait For You - 03:13
09. - The Sweetheart Tree - 02:21
10. - What A Day - 02:47
11. - Strangers In The Night - 02:58
12. - Fancy Passes - 03:27
The Real Barbara McNair - 1969
13. - Where Would I Be Without You - 02:54
14. - You Could Never Love Him - 02:42
15. - Who Invented Heartache - 02:43
16. - The Hunter Gets Captured By The Game - 03:29
17. - You've Lost That Loving Feeling - 03:18
18. - Forget You Ever Met Me Baby - 02:55
19. - I Hear A Symphony - 02:44
20. - When I'm Gone - 02:13
21. - What Now My Love - 03:02
22. - It Happens Every Time - 02:22
23. - Just One Teardrop - 02:44
24. - If You Can Want - 03:01
Non-LP singles - 1966
25. - You're Gonna Love My Baby - 02:56
26. - The Touch Of Time - 03:08
 
CD2
CD2:
Barbara McNair Sings Smokey - 1968
01. - As Long As There Is L-O-V-E - 03:05
02. - I Second That Emotion - 02:16
03. - My Guy - 02:43
04. - You Beat Me To The Punch - 02:44
05. - I'll Try Something New - 02:15
06. - More Love - 02:29
07. - Oh Be My Love - 03:03
08. - All That's Good - 02:48
09. - The One Who Really Loves You - 02:32
10. - Love Has A Reason For Neglecting Me - 03:02
11. - Don't Mess With Bill - 02:50
12. - You've Really Got A Hold On Me - 03:32
13. - What Love Has Joined Together - 03:48
More From The Vault - 1965-66
14. - The Wheels Of The City - 03:19
15. - I Don't Wanna Lose What I Got - 02:45
16. - Lone Lonely Town - 02:58
17. - I Know Better - 02:30
18. - Into My Empty Arms - 02:31
19. - The Harder You Fall - 02:55
20. - Rain Sometimes - 02:11
21. - Anonymous - 02:16
22. - Baby A Go-Go - 03:11
["Countin' On You,Babe"]alternate vocal
 
Лог создания рипа
 
CD1
Exact Audio Copy V1.0 beta 3 from 29. August 2011
Отчёт EAC об извлечении, выполненном 10. апреля 2015, 20:34
Barbara McNair / The Ultimate Motown Collection[CD1]
Дисковод: ATAPI iHAS124 W Adapter: 2 ID: 0
Режим чтения : Достоверность
Использование точного потока : Да
Отключение кэша аудио : Да
Использование указателей C2 : Нет
Коррекция смещения при чтении : 48
Способность читать области Lead-in и Lead-out : Нет
Заполнение пропущенных сэмплов тишиной : Да
Удаление блоков с тишиной в начале и конце : Нет
При вычислениях CRC использовались нулевые сэмплы : Да
Интерфейс : Встроенный Win32-интерфейс для Win NT/2000
Обработка зазоров : Добавлено к предыдущему треку
Выходной формат : Пользовательский кодировщик
Выбранный битрейт : 128 kBit/s
Качество : Высокий
Добавление ID3-тега : Нет
Утилита сжатия : C:\Program Files\Exact Audio Copy\Flac\flac.exe
Дополнительные параметры : -V -8 -T "Genre=%genre%" -T "Artist=%artist%" -T "Title=%title%" -T "Album=%albumtitle%" -T "Date=%year%" -T "Tracknumber=%tracknr%" -T "Comment=%comment%" %source%
TOC извлечённого CD
Трек | Старт | Длительность | Начальный сектор | Конечный сектор
---------------------------------------------------------------------
1 | 0:00.00 | 3:06.31 | 0 | 13980
2 | 3:06.31 | 2:51.38 | 13981 | 26843
3 | 5:57.69 | 3:28.28 | 26844 | 42471
4 | 9:26.22 | 2:49.34 | 42472 | 55180
5 | 12:15.56 | 2:58.74 | 55181 | 68604
6 | 15:14.55 | 2:58.66 | 68605 | 82020
7 | 18:13.46 | 3:03.27 | 82021 | 95772
8 | 21:16.73 | 3:13.41 | 95773 | 110288
9 | 24:30.39 | 2:21.37 | 110289 | 120900
10 | 26:52.01 | 2:47.17 | 120901 | 133442
11 | 29:39.18 | 2:58.71 | 133443 | 146863
12 | 32:38.14 | 3:27.54 | 146864 | 162442
13 | 36:05.68 | 2:54.32 | 162443 | 175524
14 | 39:00.25 | 2:42.40 | 175525 | 187714
15 | 41:42.65 | 2:43.41 | 187715 | 199980
16 | 44:26.31 | 3:29.33 | 199981 | 215688
17 | 47:55.64 | 3:18.39 | 215689 | 230577
18 | 51:14.28 | 2:55.58 | 230578 | 243760
19 | 54:10.11 | 2:44.39 | 243761 | 256099
20 | 56:54.50 | 2:13.66 | 256100 | 266140
21 | 59:08.41 | 3:02.50 | 266141 | 279840
22 | 62:11.16 | 2:22.55 | 279841 | 290545
23 | 64:33.71 | 2:44.26 | 290546 | 302871
24 | 67:18.22 | 3:01.14 | 302872 | 316460
25 | 70:19.36 | 2:56.71 | 316461 | 329731
26 | 73:16.32 | 3:08.56 | 329732 | 343887
Трек 1
Имя файла C:\Users\Сергей\Desktop\EAC\01. My World Is Empty Without You.wav
Длина предзазора 0:00:02.00
Пиковый уровень 83.1 %
Скорость извлечения 2.4 X
Качество трека 100.0 %
CRC теста 6AB7AAA8
CRC копии 6AB7AAA8
Точное извлечение (достоверность 2) [CF116C09] (AR v2)
Копирование... OK
Трек 2
Имя файла C:\Users\Сергей\Desktop\EAC\02. Message To Michael.wav
Пиковый уровень 87.3 %
Скорость извлечения 2.6 X
Качество трека 100.0 %
CRC теста 7A8A609C
CRC копии 7A8A609C
Точное извлечение (достоверность 2) [2EC5D2CE] (AR v2)
Копирование... OK
Трек 3
Имя файла C:\Users\Сергей\Desktop\EAC\03. Everything Is Good About You.wav
Пиковый уровень 74.3 %
Скорость извлечения 2.8 X
Качество трека 100.0 %
CRC теста E7847F86
CRC копии E7847F86
Точное извлечение (достоверность 2) [5A529DEF] (AR v2)
Копирование... OK
Трек 4
Имя файла C:\Users\Сергей\Desktop\EAC\04. Here I Am Baby.wav
Пиковый уровень 83.2 %
Скорость извлечения 2.9 X
Качество трека 100.0 %
CRC теста DFFD087E
CRC копии DFFD087E
Точное извлечение (достоверность 2) [3DE70440] (AR v2)
Копирование... OK
Трек 5
Имя файла C:\Users\Сергей\Desktop\EAC\05. Steal Away Tonight.wav
Пиковый уровень 74.5 %
Скорость извлечения 3.1 X
Качество трека 100.0 %
CRC теста 4BFD3990
CRC копии 4BFD3990
Точное извлечение (достоверность 2) [888D77F0] (AR v2)
Копирование... OK
Трек 6
Имя файла C:\Users\Сергей\Desktop\EAC\06. For Once In My Life.wav
Пиковый уровень 64.6 %
Скорость извлечения 3.2 X
Качество трека 100.0 %
CRC теста 8A91075B
CRC копии 8A91075B
Точное извлечение (достоверность 2) [C987A053] (AR v2)
Копирование... OK
Трек 7
Имя файла C:\Users\Сергей\Desktop\EAC\07. The Shadow Of Your Smile.wav
Пиковый уровень 91.8 %
Скорость извлечения 3.4 X
Качество трека 100.0 %
CRC теста A0F8BC83
CRC копии A0F8BC83
Точное извлечение (достоверность 2) [0B684BB1] (AR v2)
Копирование... OK
Трек 8
Имя файла C:\Users\Сергей\Desktop\EAC\08. I Will Wait For You.wav
Пиковый уровень 80.5 %
Скорость извлечения 2.9 X
Качество трека 99.9 %
CRC теста EBC3612C
CRC копии EBC3612C
Точное извлечение (достоверность 2) [DA0A90B3] (AR v2)
Копирование... OK
Трек 9
Имя файла C:\Users\Сергей\Desktop\EAC\09. The Sweetheart Tree.wav
Пиковый уровень 69.6 %
Скорость извлечения 3.5 X
Качество трека 100.0 %
CRC теста D9A14C6B
CRC копии D9A14C6B
Точное извлечение (достоверность 2) [AF083F58] (AR v2)
Копирование... OK
Трек 10
Имя файла C:\Users\Сергей\Desktop\EAC\10. What A Day.wav
Пиковый уровень 72.5 %
Скорость извлечения 3.7 X
Качество трека 100.0 %
CRC теста 46DC0C92
CRC копии 46DC0C92
Точное извлечение (достоверность 2) [4C360138] (AR v2)
Копирование... OK
Трек 11
Имя файла C:\Users\Сергей\Desktop\EAC\11. Strangers In The Night.wav
Пиковый уровень 74.0 %
Скорость извлечения 3.1 X
Качество трека 99.9 %
CRC теста 841C08EC
CRC копии 841C08EC
Точное извлечение (достоверность 2) [A95DE2AD] (AR v2)
Копирование... OK
Трек 12
Имя файла C:\Users\Сергей\Desktop\EAC\12. Fancy Passes.wav
Пиковый уровень 93.1 %
Скорость извлечения 4.0 X
Качество трека 100.0 %
CRC теста 090707BB
CRC копии 090707BB
Точное извлечение (достоверность 2) [6A7CB619] (AR v2)
Копирование... OK
Трек 13
Имя файла C:\Users\Сергей\Desktop\EAC\13. Where Would I Be Without You.wav
Пиковый уровень 80.1 %
Скорость извлечения 4.1 X
Качество трека 100.0 %
CRC теста C76F1234
CRC копии C76F1234
Точное извлечение (достоверность 2) [74189206] (AR v2)
Копирование... OK
Трек 14
Имя файла C:\Users\Сергей\Desktop\EAC\14. You Could Never Love Him.wav
Пиковый уровень 97.0 %
Скорость извлечения 4.1 X
Качество трека 100.0 %
CRC теста 95AEC4EC
CRC копии 95AEC4EC
Точное извлечение (достоверность 2) [CD640087] (AR v2)
Копирование... OK
Трек 15
Имя файла C:\Users\Сергей\Desktop\EAC\15. Who Invented Heartache.wav
Пиковый уровень 74.5 %
Скорость извлечения 4.2 X
Качество трека 100.0 %
CRC теста 91767F4F
CRC копии 91767F4F
Точное извлечение (достоверность 2) [2C33B0FB] (AR v2)
Копирование... OK
Трек 16
Имя файла C:\Users\Сергей\Desktop\EAC\16. The Hunter Gets Captured By The Game.wav
Пиковый уровень 94.0 %
Скорость извлечения 4.5 X
Качество трека 100.0 %
CRC теста FBBE8E37
CRC копии FBBE8E37
Точное извлечение (достоверность 2) [034A0A34] (AR v2)
Копирование... OK
Трек 17
Имя файла C:\Users\Сергей\Desktop\EAC\17. You've Lost That Loving Feeling.wav
Пиковый уровень 76.6 %
Скорость извлечения 3.8 X
Качество трека 99.9 %
CRC теста 0AB7BE3E
CRC копии 0AB7BE3E
Точное извлечение (достоверность 2) [BEE7CC22] (AR v2)
Копирование... OK
Трек 18
Имя файла C:\Users\Сергей\Desktop\EAC\18. Forget You Ever Met Me Baby.wav
Пиковый уровень 100.0 %
Скорость извлечения 4.6 X
Качество трека 100.0 %
CRC теста F77918F2
CRC копии F77918F2
Точное извлечение (достоверность 2) [D99836BB] (AR v2)
Копирование... OK
Трек 19
Имя файла C:\Users\Сергей\Desktop\EAC\19. I Hear A Symphony.wav
Пиковый уровень 80.7 %
Скорость извлечения 4.6 X
Качество трека 100.0 %
CRC теста 1B671AF1
CRC копии 1B671AF1
Точное извлечение (достоверность 2) [2485CF92] (AR v2)
Копирование... OK
Трек 20
Имя файла C:\Users\Сергей\Desktop\EAC\20. When I'm Gone.wav
Пиковый уровень 88.8 %
Скорость извлечения 4.4 X
Качество трека 100.0 %
CRC теста D34DB218
CRC копии D34DB218
Точное извлечение (достоверность 2) [1DCC757C] (AR v2)
Копирование... OK
Трек 21
Имя файла C:\Users\Сергей\Desktop\EAC\21. What Now My Love.wav
Пиковый уровень 84.4 %
Скорость извлечения 4.8 X
Качество трека 100.0 %
CRC теста 83BF42F5
CRC копии 83BF42F5
Точное извлечение (достоверность 2) [C77F4B02] (AR v2)
Копирование... OK
Трек 22
Имя файла C:\Users\Сергей\Desktop\EAC\22. It Happens Every Time.wav
Пиковый уровень 82.4 %
Скорость извлечения 3.6 X
Качество трека 99.9 %
CRC теста 7E954C9C
CRC копии 7E954C9C
Точное извлечение (достоверность 2) [E4405EFD] (AR v2)
Копирование... OK
Трек 23
Имя файла C:\Users\Сергей\Desktop\EAC\23. Just One Teardrop.wav
Пиковый уровень 78.8 %
Скорость извлечения 3.9 X
Качество трека 99.9 %
CRC теста E691FD57
CRC копии E691FD57
Точное извлечение (достоверность 2) [9E4A1EA5] (AR v2)
Копирование... OK
Трек 24
Имя файла C:\Users\Сергей\Desktop\EAC\24. If You Can Want.wav
Пиковый уровень 79.9 %
Скорость извлечения 5.0 X
Качество трека 100.0 %
CRC теста AD67E8B8
CRC копии AD67E8B8
Точное извлечение (достоверность 2) [7DAFD229] (AR v2)
Копирование... OK
Трек 25
Имя файла C:\Users\Сергей\Desktop\EAC\25. You're Gonna Love My Baby.wav
Пиковый уровень 80.5 %
Скорость извлечения 4.1 X
Качество трека 99.9 %
CRC теста 65BFDED0
CRC копии 65BFDED0
Точное извлечение (достоверность 2) [0FE5A7EA] (AR v2)
Копирование... OK
Трек 26
Имя файла C:\Users\Сергей\Desktop\EAC\26. The Touch Of Time.wav
Пиковый уровень 87.5 %
Скорость извлечения 5.2 X
Качество трека 100.0 %
CRC теста 8F4956B6
CRC копии 8F4956B6
Точное извлечение (достоверность 2) [9562DF6F] (AR v2)
Копирование... OK
Все треки извлечены точно
Ошибок не произошло
Конец отчёта
==== Контрольная сумма отчёта 876DF5E9568EEBD6FB91299340E222CEE2C1BD67DF481E616F280FE36EE84AA7 ====
 
CD2
Exact Audio Copy V1.0 beta 3 from 29. August 2011
Отчёт EAC об извлечении, выполненном 10. апреля 2015, 21:06
Barbara McNair / The Ultimate Motown Collection[CD2]
Дисковод: ATAPI iHAS124 W Adapter: 2 ID: 0
Режим чтения : Достоверность
Использование точного потока : Да
Отключение кэша аудио : Да
Использование указателей C2 : Нет
Коррекция смещения при чтении : 48
Способность читать области Lead-in и Lead-out : Нет
Заполнение пропущенных сэмплов тишиной : Да
Удаление блоков с тишиной в начале и конце : Нет
При вычислениях CRC использовались нулевые сэмплы : Да
Интерфейс : Встроенный Win32-интерфейс для Win NT/2000
Обработка зазоров : Добавлено к предыдущему треку
Выходной формат : Пользовательский кодировщик
Выбранный битрейт : 128 kBit/s
Качество : Высокий
Добавление ID3-тега : Нет
Утилита сжатия : C:\Program Files\Exact Audio Copy\Flac\flac.exe
Дополнительные параметры : -V -8 -T "Genre=%genre%" -T "Artist=%artist%" -T "Title=%title%" -T "Album=%albumtitle%" -T "Date=%year%" -T "Tracknumber=%tracknr%" -T "Comment=%comment%" %source%
TOC извлечённого CD
Трек | Старт | Длительность | Начальный сектор | Конечный сектор
---------------------------------------------------------------------
1 | 0:00.00 | 3:05.66 | 0 | 13940
2 | 3:05.66 | 2:16.48 | 13941 | 24188
3 | 5:22.39 | 2:43.23 | 24189 | 36436
4 | 8:05.62 | 2:44.26 | 36437 | 48762
5 | 10:50.13 | 2:15.74 | 48763 | 58961
6 | 13:06.12 | 2:29.06 | 58962 | 70142
7 | 15:35.18 | 3:03.45 | 70143 | 83912
8 | 18:38.63 | 2:48.25 | 83913 | 96537
9 | 21:27.13 | 2:32.19 | 96538 | 107956
10 | 23:59.32 | 3:02.25 | 107957 | 121631
11 | 27:01.57 | 2:50.69 | 121632 | 134450
12 | 29:52.51 | 3:32.53 | 134451 | 150403
13 | 33:25.29 | 3:48.46 | 150404 | 167549
14 | 37:14.00 | 3:19.63 | 167550 | 182537
15 | 40:33.63 | 2:45.16 | 182538 | 194928
16 | 43:19.04 | 2:58.42 | 194929 | 208320
17 | 46:17.46 | 2:30.73 | 208321 | 219643
18 | 48:48.44 | 2:31.61 | 219644 | 231029
19 | 51:20.30 | 2:55.34 | 231030 | 244188
20 | 54:15.64 | 2:11.25 | 244189 | 254038
21 | 56:27.14 | 2:16.61 | 254039 | 264299
22 | 58:44.00 | 3:11.25 | 264300 | 278649
Трек 1
Имя файла C:\Users\Сергей\Desktop\EAC\01. As Long As There Is L-O-V-E.wav
Длина предзазора 0:00:02.00
Пиковый уровень 85.7 %
Скорость извлечения 4.2 X
Качество трека 100.0 %
CRC теста 2DFDC1F2
CRC копии 2DFDC1F2
Точное извлечение (достоверность 2) [66BB13C1] (AR v2)
Копирование... OK
Трек 2
Имя файла C:\Users\Сергей\Desktop\EAC\02. I Second That Emotion.wav
Пиковый уровень 86.0 %
Скорость извлечения 4.3 X
Качество трека 100.0 %
CRC теста 9A17BC23
CRC копии 9A17BC23
Точное извлечение (достоверность 2) [A29010A6] (AR v2)
Копирование... OK
Трек 3
Имя файла C:\Users\Сергей\Desktop\EAC\03. My Guy.wav
Пиковый уровень 88.9 %
Скорость извлечения 2.9 X
Качество трека 99.9 %
CRC теста 7BD017EE
CRC копии 7BD017EE
Точное извлечение (достоверность 2) [C8E32BE7] (AR v2)
Копирование... OK
Трек 4
Имя файла C:\Users\Сергей\Desktop\EAC\04. You Beat Me To The Punch.wav
Пиковый уровень 84.9 %
Скорость извлечения 3.1 X
Качество трека 99.9 %
CRC теста 219D5B2B
CRC копии 219D5B2B
Точное извлечение (достоверность 2) [54ED1BD5] (AR v2)
Копирование... OK
Трек 5
Имя файла C:\Users\Сергей\Desktop\EAC\05. I'll Try Something New.wav
Пиковый уровень 87.7 %
Скорость извлечения 5.0 X
Качество трека 100.0 %
CRC теста 82C34DA0
CRC копии 82C34DA0
Точное извлечение (достоверность 2) [EA3B2DCB] (AR v2)
Копирование... OK
Трек 6
Имя файла C:\Users\Сергей\Desktop\EAC\06. More Love.wav
Пиковый уровень 86.7 %
Скорость извлечения 3.2 X
Качество трека 99.9 %
CRC теста 6D819199
CRC копии 6D819199
Точное извлечение (достоверность 2) [4FE48C4F] (AR v2)
Копирование... OK
Трек 7
Имя файла C:\Users\Сергей\Desktop\EAC\07. Oh Be My Love.wav
Пиковый уровень 85.5 %
Скорость извлечения 3.7 X
Качество трека 99.9 %
CRC теста D61D5FEA
CRC копии D61D5FEA
Точное извлечение (достоверность 2) [34887ADE] (AR v2)
Копирование... OK
Трек 8
Имя файла C:\Users\Сергей\Desktop\EAC\08. All That's Good.wav
Пиковый уровень 82.7 %
Скорость извлечения 3.7 X
Качество трека 99.9 %
CRC теста A24F76A2
CRC копии A24F76A2
Точное извлечение (достоверность 2) [D8C9DF75] (AR v2)
Копирование... OK
Трек 9
Имя файла C:\Users\Сергей\Desktop\EAC\09. The One Who Really Loves You.wav
Пиковый уровень 86.0 %
Скорость извлечения 6.1 X
Качество трека 100.0 %
CRC теста 01D424AD
CRC копии 01D424AD
Точное извлечение (достоверность 2) [B7C28257] (AR v2)
Копирование... OK
Трек 10
Имя файла C:\Users\Сергей\Desktop\EAC\10. Love Has A Reason For Neglecting Me.wav
Пиковый уровень 82.2 %
Скорость извлечения 6.5 X
Качество трека 100.0 %
CRC теста 9E202A74
CRC копии 9E202A74
Точное извлечение (достоверность 2) [5C65B18B] (AR v2)
Копирование... OK
Трек 11
Имя файла C:\Users\Сергей\Desktop\EAC\11. Don't Mess With Bill.wav
Пиковый уровень 86.5 %
Скорость извлечения 6.6 X
Качество трека 100.0 %
CRC теста DEC904C7
CRC копии DEC904C7
Точное извлечение (достоверность 2) [ABC08533] (AR v2)
Копирование... OK
Трек 12
Имя файла C:\Users\Сергей\Desktop\EAC\12. You've Really Got A Hold On Me.wav
Пиковый уровень 87.1 %
Скорость извлечения 7.1 X
Качество трека 100.0 %
CRC теста 6F8DE198
CRC копии 6F8DE198
Точное извлечение (достоверность 2) [3CB62D17] (AR v2)
Копирование... OK
Трек 13
Имя файла C:\Users\Сергей\Desktop\EAC\13. What Love Has Joined Together.wav
Пиковый уровень 84.4 %
Скорость извлечения 7.4 X
Качество трека 100.0 %
CRC теста 60CBF5AE
CRC копии 60CBF5AE
Точное извлечение (достоверность 2) [664617B2] (AR v2)
Копирование... OK
Трек 14
Имя файла C:\Users\Сергей\Desktop\EAC\14. The Wheels Of The City.wav
Пиковый уровень 82.0 %
Скорость извлечения 4.9 X
Качество трека 99.9 %
CRC теста 17480945
CRC копии 17480945
Точное извлечение (достоверность 2) [467AAF35] (AR v2)
Копирование... OK
Трек 15
Имя файла C:\Users\Сергей\Desktop\EAC\15. I Don't Wanna Lose What I Got.wav
Пиковый уровень 76.2 %
Скорость извлечения 7.5 X
Качество трека 100.0 %
CRC теста 79C8DFC6
CRC копии 79C8DFC6
Точное извлечение (достоверность 2) [DF7BF692] (AR v2)
Копирование... OK
Трек 16
Имя файла C:\Users\Сергей\Desktop\EAC\16. Lone Lonely Town.wav
Пиковый уровень 81.9 %
Скорость извлечения 7.7 X
Качество трека 100.0 %
CRC теста D1503DA2
CRC копии D1503DA2
Точное извлечение (достоверность 2) [F1786375] (AR v2)
Копирование... OK
Трек 17
Имя файла C:\Users\Сергей\Desktop\EAC\17. I Know Better.wav
Пиковый уровень 81.7 %
Скорость извлечения 7.5 X
Качество трека 100.0 %
CRC теста 40CB16D2
CRC копии 40CB16D2
Точное извлечение (достоверность 2) [59DA94E8] (AR v2)
Копирование... OK
Трек 18
Имя файла C:\Users\Сергей\Desktop\EAC\18. Into My Empty Arms.wav
Пиковый уровень 87.2 %
Скорость извлечения 7.7 X
Качество трека 100.0 %
CRC теста 87567B12
CRC копии 87567B12
Точное извлечение (достоверность 2) [C409FDFC] (AR v2)
Копирование... OK
Трек 19
Имя файла C:\Users\Сергей\Desktop\EAC\19. The Harder You Fall.wav
Пиковый уровень 86.3 %
Скорость извлечения 8.0 X
Качество трека 100.0 %
CRC теста 56EDA34E
CRC копии 56EDA34E
Точное извлечение (достоверность 2) [0D8E9AB8] (AR v2)
Копирование... OK
Трек 20
Имя файла C:\Users\Сергей\Desktop\EAC\20. Rain Sometimes.wav
Пиковый уровень 79.0 %
Скорость извлечения 7.7 X
Качество трека 100.0 %
CRC теста 59998AA9
CRC копии 59998AA9
Точное извлечение (достоверность 2) [7ED1AD77] (AR v2)
Копирование... OK
Трек 21
Имя файла C:\Users\Сергей\Desktop\EAC\21. Anonymous.wav
Пиковый уровень 80.0 %
Скорость извлечения 7.8 X
Качество трека 100.0 %
CRC теста 6AC4A0BE
CRC копии 6AC4A0BE
Точное извлечение (достоверность 2) [1117AB9D] (AR v2)
Копирование... OK
Трек 22
Имя файла C:\Users\Сергей\Desktop\EAC\22. Baby A Go-Go.wav
Пиковый уровень 86.3 %
Скорость извлечения 8.5 X
Качество трека 100.0 %
CRC теста BFA545B1
CRC копии BFA545B1
Точное извлечение (достоверность 2) [E458AF5A] (AR v2)
Копирование... OK
Все треки извлечены точно
Ошибок не произошло
Конец отчёта
==== Контрольная сумма отчёта E8A5B61025279A1A9BABBAC884831796E09645A471851785E2142C19955B2473 ====
 
Содержание индексной карты (.CUE)
 
CD1
REM GENRE Misc
REM DATE 2003
REM DISCID 9011E91A
REM COMMENT "ExactAudioCopy v1.0b3"
PERFORMER "Barbara McNair"
TITLE " The Ultimate Motown Collection[CD1]"
FILE "01. My World Is Empty Without You.wav" WAVE
TRACK 01 AUDIO
TITLE "My World Is Empty Without You"
PERFORMER "Barbara McNair"
INDEX 01 00:00:00
FILE "02. Message To Michael.wav" WAVE
TRACK 02 AUDIO
TITLE "Message To Michael"
PERFORMER "Barbara McNair"
INDEX 01 00:00:00
FILE "03. Everything Is Good About You.wav" WAVE
TRACK 03 AUDIO
TITLE "Everything Is Good About You"
PERFORMER "Barbara McNair"
INDEX 01 00:00:00
FILE "04. Here I Am Baby.wav" WAVE
TRACK 04 AUDIO
TITLE "Here I Am Baby"
PERFORMER "Barbara McNair"
INDEX 01 00:00:00
FILE "05. Steal Away Tonight.wav" WAVE
TRACK 05 AUDIO
TITLE "Steal Away Tonight"
PERFORMER "Barbara McNair"
INDEX 01 00:00:00
FILE "06. For Once In My Life.wav" WAVE
TRACK 06 AUDIO
TITLE "For Once In My Life"
PERFORMER "Barbara McNair"
INDEX 01 00:00:00
FILE "07. The Shadow Of Your Smile.wav" WAVE
TRACK 07 AUDIO
TITLE "The Shadow Of Your Smile"
PERFORMER "Barbara McNair"
INDEX 01 00:00:00
FILE "08. I Will Wait For You.wav" WAVE
TRACK 08 AUDIO
TITLE "I Will Wait For You"
PERFORMER "Barbara McNair"
INDEX 01 00:00:00
FILE "09. The Sweetheart Tree.wav" WAVE
TRACK 09 AUDIO
TITLE "The Sweetheart Tree"
PERFORMER "Barbara McNair"
INDEX 01 00:00:00
FILE "10. What A Day.wav" WAVE
TRACK 10 AUDIO
TITLE "What A Day"
PERFORMER "Barbara McNair"
INDEX 01 00:00:00
FILE "11. Strangers In The Night.wav" WAVE
TRACK 11 AUDIO
TITLE "Strangers In The Night"
PERFORMER "Barbara McNair"
INDEX 01 00:00:00
FILE "12. Fancy Passes.wav" WAVE
TRACK 12 AUDIO
TITLE "Fancy Passes"
PERFORMER "Barbara McNair"
INDEX 01 00:00:00
FILE "13. Where Would I Be Without You.wav" WAVE
TRACK 13 AUDIO
TITLE "Where Would I Be Without You"
PERFORMER "Barbara McNair"
INDEX 01 00:00:00
FILE "14. You Could Never Love Him.wav" WAVE
TRACK 14 AUDIO
TITLE "You Could Never Love Him"
PERFORMER "Barbara McNair"
INDEX 01 00:00:00
FILE "15. Who Invented Heartache.wav" WAVE
TRACK 15 AUDIO
TITLE "Who Invented Heartache"
PERFORMER "Barbara McNair"
INDEX 01 00:00:00
FILE "16. The Hunter Gets Captured By The Game.wav" WAVE
TRACK 16 AUDIO
TITLE "The Hunter Gets Captured By The Game"
PERFORMER "Barbara McNair"
INDEX 01 00:00:00
FILE "17. You've Lost That Loving Feeling.wav" WAVE
TRACK 17 AUDIO
TITLE "You've Lost That Loving Feeling"
PERFORMER "Barbara McNair"
INDEX 01 00:00:00
FILE "18. Forget You Ever Met Me Baby.wav" WAVE
TRACK 18 AUDIO
TITLE "Forget You Ever Met Me Baby"
PERFORMER "Barbara McNair"
INDEX 01 00:00:00
FILE "19. I Hear A Symphony.wav" WAVE
TRACK 19 AUDIO
TITLE "I Hear A Symphony"
PERFORMER "Barbara McNair"
INDEX 01 00:00:00
FILE "20. When I'm Gone.wav" WAVE
TRACK 20 AUDIO
TITLE "When I'm Gone"
PERFORMER "Barbara McNair"
INDEX 01 00:00:00
FILE "21. What Now My Love.wav" WAVE
TRACK 21 AUDIO
TITLE "What Now My Love"
PERFORMER "Barbara McNair"
INDEX 01 00:00:00
FILE "22. It Happens Every Time.wav" WAVE
TRACK 22 AUDIO
TITLE "It Happens Every Time"
PERFORMER "Barbara McNair"
INDEX 01 00:00:00
FILE "23. Just One Teardrop.wav" WAVE
TRACK 23 AUDIO
TITLE "Just One Teardrop"
PERFORMER "Barbara McNair"
INDEX 01 00:00:00
FILE "24. If You Can Want.wav" WAVE
TRACK 24 AUDIO
TITLE "If You Can Want"
PERFORMER "Barbara McNair"
INDEX 01 00:00:00
FILE "25. You're Gonna Love My Baby.wav" WAVE
TRACK 25 AUDIO
TITLE "You're Gonna Love My Baby"
PERFORMER "Barbara McNair"
INDEX 01 00:00:00
FILE "26. The Touch Of Time.wav" WAVE
TRACK 26 AUDIO
TITLE "The Touch Of Time"
PERFORMER "Barbara McNair"
INDEX 01 00:00:00
 
CD2
REM GENRE Misc
REM DATE 2003
REM DISCID 420E8316
REM COMMENT "ExactAudioCopy v1.0b3"
PERFORMER "Barbara McNair"
TITLE "The Ultimate Motown Collection[CD2]"
FILE "01. As Long As There Is L-O-V-E.wav" WAVE
TRACK 01 AUDIO
TITLE "As Long As There Is L-O-V-E"
PERFORMER "Barbara McNair"
INDEX 01 00:00:00
FILE "02. I Second That Emotion.wav" WAVE
TRACK 02 AUDIO
TITLE "I Second That Emotion"
PERFORMER "Barbara McNair"
INDEX 01 00:00:00
FILE "03. My Guy.wav" WAVE
TRACK 03 AUDIO
TITLE "My Guy"
PERFORMER "Barbara McNair"
INDEX 01 00:00:00
FILE "04. You Beat Me To The Punch.wav" WAVE
TRACK 04 AUDIO
TITLE "You Beat Me To The Punch"
PERFORMER "Barbara McNair"
INDEX 01 00:00:00
FILE "05. I'll Try Something New.wav" WAVE
TRACK 05 AUDIO
TITLE "I'll Try Something New"
PERFORMER "Barbara McNair"
INDEX 01 00:00:00
FILE "06. More Love.wav" WAVE
TRACK 06 AUDIO
TITLE "More Love"
PERFORMER "Barbara McNair"
INDEX 01 00:00:00
FILE "07. Oh Be My Love.wav" WAVE
TRACK 07 AUDIO
TITLE "Oh Be My Love"
PERFORMER "Barbara McNair"
INDEX 01 00:00:00
FILE "08. All That's Good.wav" WAVE
TRACK 08 AUDIO
TITLE "All That's Good"
PERFORMER "Barbara McNair"
INDEX 01 00:00:00
FILE "09. The One Who Really Loves You.wav" WAVE
TRACK 09 AUDIO
TITLE "The One Who Really Loves You"
PERFORMER "Barbara McNair"
INDEX 01 00:00:00
FILE "10. Love Has A Reason For Neglecting Me.wav" WAVE
TRACK 10 AUDIO
TITLE "Love Has A Reason For Neglecting Me"
PERFORMER "Barbara McNair"
INDEX 01 00:00:00
FILE "11. Don't Mess With Bill.wav" WAVE
TRACK 11 AUDIO
TITLE "Don't Mess With Bill"
PERFORMER "Barbara McNair"
INDEX 01 00:00:00
FILE "12. You've Really Got A Hold On Me.wav" WAVE
TRACK 12 AUDIO
TITLE "You've Really Got A Hold On Me"
PERFORMER "Barbara McNair"
INDEX 01 00:00:00
FILE "13. What Love Has Joined Together.wav" WAVE
TRACK 13 AUDIO
TITLE "What Love Has Joined Together"
PERFORMER "Barbara McNair"
INDEX 01 00:00:00
FILE "14. The Wheels Of The City.wav" WAVE
TRACK 14 AUDIO
TITLE "The Wheels Of The City"
PERFORMER "Barbara McNair"
INDEX 01 00:00:00
FILE "15. I Don't Wanna Lose What I Got.wav" WAVE
TRACK 15 AUDIO
TITLE "I Don't Wanna Lose What I Got"
PERFORMER "Barbara McNair"
INDEX 01 00:00:00
FILE "16. Lone Lonely Town.wav" WAVE
TRACK 16 AUDIO
TITLE "Lone Lonely Town"
PERFORMER "Barbara McNair"
INDEX 01 00:00:00
FILE "17. I Know Better.wav" WAVE
TRACK 17 AUDIO
TITLE "I Know Better"
PERFORMER "Barbara McNair"
INDEX 01 00:00:00
FILE "18. Into My Empty Arms.wav" WAVE
TRACK 18 AUDIO
TITLE "Into My Empty Arms"
PERFORMER "Barbara McNair"
INDEX 01 00:00:00
FILE "19. The Harder You Fall.wav" WAVE
TRACK 19 AUDIO
TITLE "The Harder You Fall"
PERFORMER "Barbara McNair"
INDEX 01 00:00:00
FILE "20. Rain Sometimes.wav" WAVE
TRACK 20 AUDIO
TITLE "Rain Sometimes"
PERFORMER "Barbara McNair"
INDEX 01 00:00:00
FILE "21. Anonymous.wav" WAVE
TRACK 21 AUDIO
TITLE "Anonymous"
PERFORMER "Barbara McNair"
INDEX 01 00:00:00
FILE "22. Baby A Go-Go.wav" WAVE
TRACK 22 AUDIO
TITLE "Baby A Go-Go"
PERFORMER "Barbara McNair"
INDEX 01 00:00:00
Доп. информация: http://rateyourmusic.com/artist/barbara_mcnair
Приватный:
Нет (DHT включён)
Размер:
919.03 Мб (963,667,966 байт) » файлов: 67
Участники:
0 раздают, 0 качают (0 участников всего)
Внешние участники:
3 раздают, 1 качают (4 участников всего) [ Обновить ]
No seeders - write personal message to user M0p94ok. Нет сидеров - пишите личное сообщение пользователю M0p94ok.
05:32
80
Нет комментариев. Ваш будет первым!