Поиск

(Soul, R&B) [CD] Sam Cooke - 8 Classic Albums Plus Bonus Singles (4CD) - 2013, FLAC (tracks+.cue), lossless

(Soul, R&B) [CD] Sam Cooke - 8 Classic Albums Plus Bonus Singles (4CD) - 2013, FLAC (tracks+.cue), lossless
Треклист:
Sam Cooke - 8 Classic Albums Plus Bonus Singles (4CD)

Жанр: Soul, R&B
Носитель: CD
Год издания: 2013
Издатель (лейбл): Real Gone Music
Номер по каталогу: RGRNBCD001
Аудиокодек: FLAC (*.flac)
Тип рипа: tracks+.cue
Битрейт аудио: lossless
Продолжительность: 04:20:15
Источник (релизер): ruskaval
Наличие сканов в содержимом раздачи: да 
 
 
Disc One
Продолжительность: 71:33
Треклист:
01. You Send Me (2:46)
02. The Lonesome Road (2:32)
03. Tammy (3:35)
04. Ol' Man River (2:36)
05. Moonlight In Vermont (2:41)
06. Canadian Sunset (2:55)
07. Summertime (2:25)
08. Around The World (1:59)
09. Ain't Misbehavin' (2:01)
10. The Bells Of St. Mary's (2:17)
11. So Long (2:40)
12. Danny Boy (2:48)
13. That Lucky Old Sun (2:19)
14. I'll Come Running Back To You (2:13)
15. Forever (2:20)
16. Desire Me (2:26)
17. Oh Look At Me Now (1:54)
18. Someday (2:16)
19. Along The Navajo Trail (3:05)
20. Running Wild (1:26)
21. Accentuate The Positive (3:22)
22. Mary, Mary Lou (2:49)
23. When I Fall In Love (2:43)
24. I Cover The Waterfront (2:13)
25. My Foolish Heart (2:18)
26. Today I Sing The Blues (3:19)
27. The Gypsy (2:32)
28. It's The Talk Of The Town (3:06)
 
 
Лог создания рипа
Exact Audio Copy V1.0 beta 3 from 29. August 2011
EAC extraction logfile from 16. April 2015, 15:03
Sam Cooke / Eight Classic Albums Plus Bonus Singles CD1
Used drive : ASUS SDRW-08D2S-U Adapter: 1 ID: 0
Read mode : Secure
Utilize accurate stream : Yes
Defeat audio cache : Yes
Make use of C2 pointers : No
Read offset correction : 6
Overread into Lead-In and Lead-Out : No
Fill up missing offset samples with silence : Yes
Delete leading and trailing silent blocks : No
Null samples used in CRC calculations : Yes
Used interface : Native Win32 interface for Win NT & 2000
Gap handling : Appended to previous track
Used output format : User Defined Encoder
Selected bitrate : 128 kBit/s
Quality : High
Add ID3 tag : No
Command line compressor : C:\Program Files (x86)\Exact Audio Copy\Flac\flac.exe
Additional command line options : -8 -V -T "ARTIST=%artist%" -T "TITLE=%title%" -T "ALBUM=%albumtitle%" -T "DATE=%year%" -T "TRACKNUMBER=%tracknr%" -T "TOTALTRACKS=%numtracks%" -T "GENRE=%genre%" -T "ALBUMARTIST=%albumartist%" -T "ALBUM ARTIST=%albumartist%" -T "COMMENT=EAC Secure Mode, Test & Copy, AccurateRip, FLAC -8" %source%
TOC of the extracted CD
Track | Start | Length | Start sector | End sector
---------------------------------------------------------
1 | 0:00.00 | 2:45.52 | 0 | 12426
2 | 2:45.52 | 2:31.47 | 12427 | 23798
3 | 5:17.24 | 3:34.59 | 23799 | 39907
4 | 8:52.08 | 2:35.60 | 39908 | 51592
5 | 11:27.68 | 2:40.68 | 51593 | 63660
6 | 14:08.61 | 2:54.74 | 63661 | 76784
7 | 17:03.60 | 2:24.72 | 76785 | 87656
8 | 19:28.57 | 1:58.42 | 87657 | 96548
9 | 21:27.24 | 2:00.61 | 96549 | 105609
10 | 23:28.10 | 2:16.61 | 105610 | 115870
11 | 25:44.71 | 2:39.63 | 115871 | 127858
12 | 28:24.59 | 2:48.08 | 127859 | 140466
13 | 31:12.67 | 2:19.34 | 140467 | 150925
14 | 33:32.26 | 2:12.47 | 150926 | 160872
15 | 35:44.73 | 2:20.19 | 160873 | 171391
16 | 38:05.17 | 2:25.58 | 171392 | 182324
17 | 40:31.00 | 1:54.23 | 182325 | 190897
18 | 42:25.23 | 2:15.56 | 190898 | 201078
19 | 44:41.04 | 3:05.25 | 201079 | 214978
20 | 47:46.29 | 1:26.21 | 214979 | 221449
21 | 49:12.50 | 3:21.58 | 221450 | 236582
22 | 52:34.33 | 2:49.13 | 236583 | 249270
23 | 55:23.46 | 2:42.72 | 249271 | 261492
24 | 58:06.43 | 2:12.47 | 261493 | 271439
25 | 60:19.15 | 2:17.64 | 271440 | 281778
26 | 62:37.04 | 3:18.50 | 281779 | 296678
27 | 65:55.54 | 2:31.73 | 296679 | 308076
28 | 68:27.52 | 3:05.43 | 308077 | 321994
Track 1
Filename D:\Subir\01 - You Send Me.wav
Pre-gap length 0:00:02.00
Peak level 93.1 %
Extraction speed 2.1 X
Track quality 99.9 %
Test CRC 80E6851E
Copy CRC 80E6851E
Accurately ripped (confidence 12) [9E8D9C47] (AR v2)
Copy OK
Track 2
Filename D:\Subir\02 - The Lonesome Road.wav
Peak level 93.1 %
Extraction speed 2.8 X
Track quality 100.0 %
Test CRC 14EEB1E7
Copy CRC 14EEB1E7
Accurately ripped (confidence 12) [20DDE2FA] (AR v2)
Copy OK
Track 3
Filename D:\Subir\03 - Tammy.wav
Peak level 93.1 %
Extraction speed 2.6 X
Track quality 99.9 %
Test CRC A2C8B51A
Copy CRC A2C8B51A
Accurately ripped (confidence 12) [5E02E2EB] (AR v2)
Copy OK
Track 4
Filename D:\Subir\04 - Ol' Man River.wav
Peak level 93.1 %
Extraction speed 3.2 X
Track quality 100.0 %
Test CRC 64F55F99
Copy CRC 64F55F99
Accurately ripped (confidence 12) [008CB232] (AR v2)
Copy OK
Track 5
Filename D:\Subir\05 - Moonlight In Vermont.wav
Peak level 93.1 %
Extraction speed 3.4 X
Track quality 100.0 %
Test CRC 49785C2E
Copy CRC 49785C2E
Accurately ripped (confidence 12) [46761741] (AR v2)
Copy OK
Track 6
Filename D:\Subir\06 - Canadian Sunset.wav
Peak level 93.1 %
Extraction speed 3.6 X
Track quality 100.0 %
Test CRC 02FA8A86
Copy CRC 02FA8A86
Accurately ripped (confidence 12) [D888D4A4] (AR v2)
Copy OK
Track 7
Filename D:\Subir\07 - Summertime.wav
Peak level 93.1 %
Extraction speed 3.6 X
Track quality 100.0 %
Test CRC F7063878
Copy CRC F7063878
Accurately ripped (confidence 12) [606FCAEB] (AR v2)
Copy OK
Track 8
Filename D:\Subir\08 - Around The World.wav
Peak level 93.1 %
Extraction speed 3.5 X
Track quality 100.0 %
Test CRC 6B8BDEDB
Copy CRC 6B8BDEDB
Accurately ripped (confidence 12) [DB991A7C] (AR v2)
Copy OK
Track 9
Filename D:\Subir\09 - Ain't Misbehavin'.wav
Peak level 93.1 %
Extraction speed 2.6 X
Track quality 99.9 %
Test CRC 62CA2476
Copy CRC 62CA2476
Accurately ripped (confidence 11) [E524F729] (AR v2)
Copy OK
Track 10
Filename D:\Subir\10 - The Bells Of St. Mary's.wav
Peak level 93.1 %
Extraction speed 3.8 X
Track quality 100.0 %
Test CRC 64CBD98C
Copy CRC 64CBD98C
Accurately ripped (confidence 12) [6BC42393] (AR v2)
Copy OK
Track 11
Filename D:\Subir\11 - So Long.wav
Peak level 93.1 %
Extraction speed 4.1 X
Track quality 100.0 %
Test CRC 5D098805
Copy CRC 5D098805
Accurately ripped (confidence 12) [ECCDA45B] (AR v2)
Copy OK
Track 12
Filename D:\Subir\12 - Danny Boy.wav
Peak level 93.1 %
Extraction speed 4.2 X
Track quality 100.0 %
Test CRC 06D79178
Copy CRC 06D79178
Accurately ripped (confidence 12) [DD132DD5] (AR v2)
Copy OK
Track 13
Filename D:\Subir\13 - That Lucky Old Sun.wav
Peak level 93.1 %
Extraction speed 3.0 X
Track quality 99.9 %
Test CRC 541B32EC
Copy CRC 541B32EC
Accurately ripped (confidence 12) [0DFA4EE7] (AR v2)
Copy OK
Track 14
Filename D:\Subir\14 - I'll Come Running Back To You.wav
Peak level 93.1 %
Extraction speed 4.3 X
Track quality 100.0 %
Test CRC 70C92B1B
Copy CRC 70C92B1B
Accurately ripped (confidence 12) [F2EE1365] (AR v2)
Copy OK
Track 15
Filename D:\Subir\15 - Forever.wav
Peak level 90.6 %
Extraction speed 4.3 X
Track quality 100.0 %
Test CRC 1940F2F3
Copy CRC 1940F2F3
Accurately ripped (confidence 12) [10EF1259] (AR v2)
Copy OK
Track 16
Filename D:\Subir\16 - Desire Me.wav
Peak level 98.0 %
Extraction speed 3.3 X
Track quality 99.9 %
Test CRC 78942C40
Copy CRC 78942C40
Accurately ripped (confidence 12) [01DD8F56] (AR v2)
Copy OK
Track 17
Filename D:\Subir\17 - Oh Look At Me Now.wav
Peak level 93.1 %
Extraction speed 4.3 X
Track quality 100.0 %
Test CRC 662C036C
Copy CRC 662C036C
Accurately ripped (confidence 12) [D2BF6B2F] (AR v2)
Copy OK
Track 18
Filename D:\Subir\18 - Someday.wav
Peak level 93.1 %
Extraction speed 3.3 X
Track quality 99.9 %
Test CRC 68074F27
Copy CRC 68074F27
Accurately ripped (confidence 12) [A1A0EEAE] (AR v2)
Copy OK
Track 19
Filename D:\Subir\19 - Along The Navajo Trail.wav
Peak level 93.1 %
Extraction speed 5.0 X
Track quality 100.0 %
Test CRC EEB90A36
Copy CRC EEB90A36
Accurately ripped (confidence 12) [6EB5BAF3] (AR v2)
Copy OK
Track 20
Filename D:\Subir\20 - Running Wild.wav
Peak level 93.1 %
Extraction speed 4.2 X
Track quality 100.0 %
Test CRC 92489823
Copy CRC 92489823
Accurately ripped (confidence 12) [B8ACDC12] (AR v2)
Copy OK
Track 21
Filename D:\Subir\21 - Accentuate The Positive.wav
Peak level 93.1 %
Extraction speed 5.2 X
Track quality 100.0 %
Test CRC DFD597CB
Copy CRC DFD597CB
Accurately ripped (confidence 12) [7E23A6CF] (AR v2)
Copy OK
Track 22
Filename D:\Subir\22 - Mary, Mary Lou.wav
Peak level 93.1 %
Extraction speed 5.1 X
Track quality 100.0 %
Test CRC 40715DCF
Copy CRC 40715DCF
Accurately ripped (confidence 12) [1A5A9321] (AR v2)
Copy OK
Track 23
Filename D:\Subir\23 - When I Fall In Love.wav
Peak level 93.1 %
Extraction speed 5.2 X
Track quality 100.0 %
Test CRC 41C419A1
Copy CRC 41C419A1
Accurately ripped (confidence 12) [A5EF9A84] (AR v2)
Copy OK
Track 24
Filename D:\Subir\24 - I Cover The Waterfront.wav
Peak level 93.1 %
Extraction speed 5.1 X
Track quality 100.0 %
Test CRC F457044B
Copy CRC F457044B
Accurately ripped (confidence 12) [096BC092] (AR v2)
Copy OK
Track 25
Filename D:\Subir\25 - My Foolish Heart.wav
Peak level 93.1 %
Extraction speed 5.1 X
Track quality 100.0 %
Test CRC 3DBDB550
Copy CRC 3DBDB550
Accurately ripped (confidence 12) [A892EE55] (AR v2)
Copy OK
Track 26
Filename D:\Subir\26 - Today I Sing The Blues.wav
Peak level 93.1 %
Extraction speed 5.7 X
Track quality 100.0 %
Test CRC 41744081
Copy CRC 41744081
Accurately ripped (confidence 12) [5D9011BE] (AR v2)
Copy OK
Track 27
Filename D:\Subir\27 - The Gypsy.wav
Peak level 93.1 %
Extraction speed 5.4 X
Track quality 100.0 %
Test CRC D62D1057
Copy CRC D62D1057
Accurately ripped (confidence 12) [4FD7BC13] (AR v2)
Copy OK
Track 28
Filename D:\Subir\28 - It's The Talk Of The Town.wav
Peak level 93.1 %
Extraction speed 4.3 X
Track quality 99.9 %
Test CRC 7B5E6A0E
Copy CRC 7B5E6A0E
Accurately ripped (confidence 12) [D1EC5B36] (AR v2)
Copy OK
All tracks accurately ripped
No errors occurred
End of status report
---- CUETools DB Plugin V2.1.3
[CTDB TOCID: IeszekkfMBTYvqdHOkmxSWXHGog-] found, Submit result: IeszekkfMBTYvqdHOkmxSWXHGog- has been confirmed
[d2c25965] (10/11) Accurately ripped
[1fcd1846] (01/11) No match
==== Log checksum B4228602E6D6660CB602AD5F995971E6D85D38B470F45830361521315A73A04C ====
 
Содержание индексной карты (.CUE)
REM GENRE R&B
REM DATE 2013
REM DISCID AC10C51C
REM COMMENT "ExactAudioCopy v1.0b3"
PERFORMER "Sam Cooke"
TITLE "Eight Classic Albums Plus Bonus Singles CD1"
FILE "01 - You Send Me.wav" WAVE
TRACK 01 AUDIO
TITLE "You Send Me"
PERFORMER "Sam Cooke"
FLAGS DCP
INDEX 01 00:00:00
FILE "02 - The Lonesome Road.wav" WAVE
TRACK 02 AUDIO
TITLE "The Lonesome Road"
PERFORMER "Sam Cooke"
FLAGS DCP
INDEX 01 00:00:00
FILE "03 - Tammy.wav" WAVE
TRACK 03 AUDIO
TITLE "Tammy"
PERFORMER "Sam Cooke"
FLAGS DCP
INDEX 01 00:00:00
FILE "04 - Ol' Man River.wav" WAVE
TRACK 04 AUDIO
TITLE "Ol' Man River"
PERFORMER "Sam Cooke"
FLAGS DCP
INDEX 01 00:00:00
FILE "05 - Moonlight In Vermont.wav" WAVE
TRACK 05 AUDIO
TITLE "Moonlight In Vermont"
PERFORMER "Sam Cooke"
FLAGS DCP
INDEX 01 00:00:00
FILE "06 - Canadian Sunset.wav" WAVE
TRACK 06 AUDIO
TITLE "Canadian Sunset"
PERFORMER "Sam Cooke"
FLAGS DCP
INDEX 01 00:00:00
FILE "07 - Summertime.wav" WAVE
TRACK 07 AUDIO
TITLE "Summertime"
PERFORMER "Sam Cooke"
FLAGS DCP
INDEX 01 00:00:00
FILE "08 - Around The World.wav" WAVE
TRACK 08 AUDIO
TITLE "Around The World"
PERFORMER "Sam Cooke"
FLAGS DCP
INDEX 01 00:00:00
FILE "09 - Ain't Misbehavin'.wav" WAVE
TRACK 09 AUDIO
TITLE "Ain't Misbehavin'"
PERFORMER "Sam Cooke"
FLAGS DCP
INDEX 01 00:00:00
FILE "10 - The Bells Of St. Mary's.wav" WAVE
TRACK 10 AUDIO
TITLE "The Bells Of St. Mary's"
PERFORMER "Sam Cooke"
FLAGS DCP
INDEX 01 00:00:00
FILE "11 - So Long.wav" WAVE
TRACK 11 AUDIO
TITLE "So Long"
PERFORMER "Sam Cooke"
FLAGS DCP
INDEX 01 00:00:00
FILE "12 - Danny Boy.wav" WAVE
TRACK 12 AUDIO
TITLE "Danny Boy"
PERFORMER "Sam Cooke"
FLAGS DCP
INDEX 01 00:00:00
FILE "13 - That Lucky Old Sun.wav" WAVE
TRACK 13 AUDIO
TITLE "That Lucky Old Sun"
PERFORMER "Sam Cooke"
FLAGS DCP
INDEX 01 00:00:00
FILE "14 - I'll Come Running Back To You.wav" WAVE
TRACK 14 AUDIO
TITLE "I'll Come Running Back To You"
PERFORMER "Sam Cooke"
FLAGS DCP
INDEX 01 00:00:00
FILE "15 - Forever.wav" WAVE
TRACK 15 AUDIO
TITLE "Forever"
PERFORMER "Sam Cooke"
FLAGS DCP
INDEX 01 00:00:00
FILE "16 - Desire Me.wav" WAVE
TRACK 16 AUDIO
TITLE "Desire Me"
PERFORMER "Sam Cooke"
FLAGS DCP
INDEX 01 00:00:00
FILE "17 - Oh Look At Me Now.wav" WAVE
TRACK 17 AUDIO
TITLE "Oh Look At Me Now"
PERFORMER "Sam Cooke"
FLAGS DCP
INDEX 01 00:00:00
FILE "18 - Someday.wav" WAVE
TRACK 18 AUDIO
TITLE "Someday"
PERFORMER "Sam Cooke"
FLAGS DCP
INDEX 01 00:00:00
FILE "19 - Along The Navajo Trail.wav" WAVE
TRACK 19 AUDIO
TITLE "Along The Navajo Trail"
PERFORMER "Sam Cooke"
FLAGS DCP
INDEX 01 00:00:00
FILE "20 - Running Wild.wav" WAVE
TRACK 20 AUDIO
TITLE "Running Wild"
PERFORMER "Sam Cooke"
FLAGS DCP
INDEX 01 00:00:00
FILE "21 - Accentuate The Positive.wav" WAVE
TRACK 21 AUDIO
TITLE "Accentuate The Positive"
PERFORMER "Sam Cooke"
FLAGS DCP
INDEX 01 00:00:00
FILE "22 - Mary, Mary Lou.wav" WAVE
TRACK 22 AUDIO
TITLE "Mary, Mary Lou"
PERFORMER "Sam Cooke"
FLAGS DCP
INDEX 01 00:00:00
FILE "23 - When I Fall In Love.wav" WAVE
TRACK 23 AUDIO
TITLE "When I Fall In Love"
PERFORMER "Sam Cooke"
FLAGS DCP
INDEX 01 00:00:00
FILE "24 - I Cover The Waterfront.wav" WAVE
TRACK 24 AUDIO
TITLE "I Cover The Waterfront"
PERFORMER "Sam Cooke"
FLAGS DCP
INDEX 01 00:00:00
FILE "25 - My Foolish Heart.wav" WAVE
TRACK 25 AUDIO
TITLE "My Foolish Heart"
PERFORMER "Sam Cooke"
FLAGS DCP
INDEX 01 00:00:00
FILE "26 - Today I Sing The Blues.wav" WAVE
TRACK 26 AUDIO
TITLE "Today I Sing The Blues"
PERFORMER "Sam Cooke"
FLAGS DCP
INDEX 01 00:00:00
FILE "27 - The Gypsy.wav" WAVE
TRACK 27 AUDIO
TITLE "The Gypsy"
PERFORMER "Sam Cooke"
FLAGS DCP
INDEX 01 00:00:00
FILE "28 - It's The Talk Of The Town.wav" WAVE
TRACK 28 AUDIO
TITLE "It's The Talk Of The Town"
PERFORMER "Sam Cooke"
FLAGS DCP
INDEX 01 00:00:00
 
Disc Two
Продолжительность: 63:10
Треклист:
01. God Bless The Child (2:31)
02. She's Funny That Way (1:51)
03. I've Got A Right To Sing The Blues (2:34)
04. Good Morning, Heartache (2:06)
05. Ain't Nobody's Bizness (If I Do) (2:27)
06. Comes Love (2:24)
07. Lover Girl (2:28)
08. Let's Call The Whole Thing Off (2:21)
09. Lover Come Back To Me (2:12)
10. Solitude (2:19)
11. They Can't Take That Away From Me (2:32)
12. Crazy In Love With You (2:36)
13. Only Sixteen (1:55)
14. All Of My Life (2:23)
15. Everybody Loves To Cha Cha Cha (2:36)
16. Blue Moon (2:49)
17. Win Your Love For Me (2:52)
18. Lonely Island (2:30)
19. You Send Me (2:46)
20. Love You Most Of All (2:18)
21. (I Love You) For Sentimental Reasons (2:38)
22. The Little Things You Do (2:15)
23. Let's Go Steady Again (2:32)
24. You Were Made For Me (2:55)
25. Summertime - Part 2 (2:22)
26. There I've Said It Again (1:58)
 
 
Лог создания рипа
Exact Audio Copy V1.0 beta 3 from 29. August 2011
EAC extraction logfile from 16. April 2015, 15:50
Sam Cooke / Eight Classic Albums Plus Bonus Singles CD2
Used drive : ASUS SDRW-08D2S-U Adapter: 1 ID: 0
Read mode : Secure
Utilize accurate stream : Yes
Defeat audio cache : Yes
Make use of C2 pointers : No
Read offset correction : 6
Overread into Lead-In and Lead-Out : No
Fill up missing offset samples with silence : Yes
Delete leading and trailing silent blocks : No
Null samples used in CRC calculations : Yes
Used interface : Native Win32 interface for Win NT & 2000
Gap handling : Appended to previous track
Used output format : User Defined Encoder
Selected bitrate : 128 kBit/s
Quality : High
Add ID3 tag : No
Command line compressor : C:\Program Files (x86)\Exact Audio Copy\Flac\flac.exe
Additional command line options : -8 -V -T "ARTIST=%artist%" -T "TITLE=%title%" -T "ALBUM=%albumtitle%" -T "DATE=%year%" -T "TRACKNUMBER=%tracknr%" -T "TOTALTRACKS=%numtracks%" -T "GENRE=%genre%" -T "ALBUMARTIST=%albumartist%" -T "ALBUM ARTIST=%albumartist%" -T "COMMENT=EAC Secure Mode, Test & Copy, AccurateRip, FLAC -8" %source%
TOC of the extracted CD
Track | Start | Length | Start sector | End sector
---------------------------------------------------------
1 | 0:00.00 | 2:30.66 | 0 | 11315
2 | 2:30.66 | 1:51.06 | 11316 | 19646
3 | 4:21.72 | 2:33.40 | 19647 | 31161
4 | 6:55.37 | 2:05.38 | 31162 | 40574
5 | 9:01.00 | 2:26.73 | 40575 | 51597
6 | 11:27.73 | 2:24.11 | 51598 | 62408
7 | 13:52.09 | 2:28.17 | 62409 | 73525
8 | 16:20.26 | 2:21.34 | 73526 | 84134
9 | 18:41.60 | 2:11.67 | 84135 | 94026
10 | 20:53.52 | 2:18.73 | 94027 | 104449
11 | 23:12.50 | 2:31.47 | 104450 | 115821
12 | 25:44.22 | 2:36.06 | 115822 | 127527
13 | 28:20.28 | 1:54.70 | 127528 | 136147
14 | 30:15.23 | 2:23.16 | 136148 | 146888
15 | 32:38.39 | 2:35.67 | 146889 | 158580
16 | 35:14.31 | 2:49.01 | 158581 | 171256
17 | 38:03.32 | 2:52.20 | 171257 | 184176
18 | 40:55.52 | 2:29.40 | 184177 | 195391
19 | 43:25.17 | 2:46.36 | 195392 | 207877
20 | 46:11.53 | 2:18.15 | 207878 | 218242
21 | 48:29.68 | 2:38.35 | 218243 | 230127
22 | 51:08.28 | 2:15.24 | 230128 | 240276
23 | 53:23.52 | 2:31.40 | 240277 | 251641
24 | 55:55.17 | 2:54.42 | 251642 | 264733
25 | 58:49.59 | 2:21.65 | 264734 | 275373
26 | 61:11.49 | 1:58.31 | 275374 | 284254
Track 1
Filename D:\Subir\01 - God Bless The Child.wav
Pre-gap length 0:00:02.00
Peak level 93.1 %
Extraction speed 2.3 X
Track quality 100.0 %
Test CRC C1AB21D5
Copy CRC C1AB21D5
Accurately ripped (confidence 3) [6724DF0D] (AR v2)
Copy OK
Track 2
Filename D:\Subir\02 - She's Funny That Way.wav
Peak level 93.1 %
Extraction speed 2.4 X
Track quality 100.0 %
Test CRC D991A42F
Copy CRC D991A42F
Accurately ripped (confidence 3) [AA92457B] (AR v2)
Copy OK
Track 3
Filename D:\Subir\03 - I've Got A Right To Sing The Blues.wav
Peak level 93.1 %
Extraction speed 2.7 X
Track quality 100.0 %
Test CRC DF9A55B1
Copy CRC DF9A55B1
Accurately ripped (confidence 3) [4B3A23CD] (AR v2)
Copy OK
Track 4
Filename D:\Subir\04 - Good Morning, Heartache.wav
Peak level 93.1 %
Extraction speed 2.0 X
Track quality 99.9 %
Test CRC 33848957
Copy CRC 33848957
Accurately ripped (confidence 3) [43404C7F] (AR v2)
Copy OK
Track 5
Filename D:\Subir\05 - Ain't Nobody's Bizness (If I Do).wav
Peak level 93.1 %
Extraction speed 2.9 X
Track quality 100.0 %
Test CRC 2D0B90FC
Copy CRC 2D0B90FC
Accurately ripped (confidence 3) [FA3CB427] (AR v2)
Copy OK
Track 6
Filename D:\Subir\06 - Comes Love.wav
Peak level 93.1 %
Extraction speed 3.1 X
Track quality 100.0 %
Test CRC FFDA7306
Copy CRC FFDA7306
Accurately ripped (confidence 3) [71E0F4EF] (AR v2)
Copy OK
Track 7
Filename D:\Subir\07 - Lover Girl.wav
Peak level 93.1 %
Extraction speed 3.2 X
Track quality 100.0 %
Test CRC B8611832
Copy CRC B8611832
Accurately ripped (confidence 3) [91A04903] (AR v2)
Copy OK
Track 8
Filename D:\Subir\08 - Let's Call The Whole Thing Off.wav
Peak level 93.1 %
Extraction speed 3.3 X
Track quality 100.0 %
Test CRC 11699EFA
Copy CRC 11699EFA
Accurately ripped (confidence 3) [843D2039] (AR v2)
Copy OK
Track 9
Filename D:\Subir\09 - Lover Come Back To Me.wav
Peak level 93.1 %
Extraction speed 3.4 X
Track quality 100.0 %
Test CRC BBC4277F
Copy CRC BBC4277F
Accurately ripped (confidence 3) [A1289BAC] (AR v2)
Copy OK
Track 10
Filename D:\Subir\10 - Solitude.wav
Peak level 93.1 %
Extraction speed 3.5 X
Track quality 100.0 %
Test CRC C5FFAC3C
Copy CRC C5FFAC3C
Accurately ripped (confidence 3) [B6393E20] (AR v2)
Copy OK
Track 11
Filename D:\Subir\11 - They Can't Take That Away From Me.wav
Peak level 93.1 %
Extraction speed 3.7 X
Track quality 100.0 %
Test CRC CF7064DB
Copy CRC CF7064DB
Accurately ripped (confidence 3) [EFC8C9F2] (AR v2)
Copy OK
Track 12
Filename D:\Subir\12 - Crazy In Love With You.wav
Peak level 98.3 %
Extraction speed 3.8 X
Track quality 100.0 %
Test CRC 3DCE77F9
Copy CRC 3DCE77F9
Accurately ripped (confidence 3) [AB8DD183] (AR v2)
Copy OK
Track 13
Filename D:\Subir\13 - Only Sixteen.wav
Peak level 93.1 %
Extraction speed 3.6 X
Track quality 100.0 %
Test CRC 1D6FCA87
Copy CRC 1D6FCA87
Accurately ripped (confidence 3) [6BD125C8] (AR v2)
Copy OK
Track 14
Filename D:\Subir\14 - All Of My Life.wav
Peak level 93.1 %
Extraction speed 3.9 X
Track quality 100.0 %
Test CRC 71A0CC9C
Copy CRC 71A0CC9C
Accurately ripped (confidence 3) [08D8AD11] (AR v2)
Copy OK
Track 15
Filename D:\Subir\15 - Everybody Loves To Cha Cha Cha.wav
Peak level 93.1 %
Extraction speed 4.1 X
Track quality 100.0 %
Test CRC 25E51620
Copy CRC 25E51620
Accurately ripped (confidence 3) [95A6F5A5] (AR v2)
Copy OK
Track 16
Filename D:\Subir\16 - Blue Moon.wav
Peak level 93.1 %
Extraction speed 4.2 X
Track quality 100.0 %
Test CRC 4BCAD2AF
Copy CRC 4BCAD2AF
Accurately ripped (confidence 3) [7A976CDC] (AR v2)
Copy OK
Track 17
Filename D:\Subir\17 - Win Your Love For Me.wav
Peak level 93.1 %
Extraction speed 4.4 X
Track quality 100.0 %
Test CRC 9339E5F9
Copy CRC 9339E5F9
Accurately ripped (confidence 3) [5E8C0EE6] (AR v2)
Copy OK
Track 18
Filename D:\Subir\18 - Lonely Island.wav
Peak level 93.1 %
Extraction speed 4.3 X
Track quality 100.0 %
Test CRC 5E6011AF
Copy CRC 5E6011AF
Accurately ripped (confidence 3) [30A6A060] (AR v2)
Copy OK
Track 19
Filename D:\Subir\19 - You Send Me.wav
Peak level 93.1 %
Extraction speed 4.5 X
Track quality 100.0 %
Test CRC D055B922
Copy CRC D055B922
Accurately ripped (confidence 3) [349348C5] (AR v2)
Copy OK
Track 20
Filename D:\Subir\20 - Love You Most Of All.wav
Peak level 93.1 %
Extraction speed 4.5 X
Track quality 100.0 %
Test CRC 0875C011
Copy CRC 0875C011
Accurately ripped (confidence 3) [A4718997] (AR v2)
Copy OK
Track 21
Filename D:\Subir\21 - (I Love You) For Sentimental Reasons.wav
Peak level 93.1 %
Extraction speed 4.7 X
Track quality 100.0 %
Test CRC B4F8BE21
Copy CRC B4F8BE21
Accurately ripped (confidence 3) [6EB031A2] (AR v2)
Copy OK
Track 22
Filename D:\Subir\22 - The Little Things You Do.wav
Peak level 93.1 %
Extraction speed 4.6 X
Track quality 100.0 %
Test CRC C6B27AC7
Copy CRC C6B27AC7
Accurately ripped (confidence 3) [B5B63338] (AR v2)
Copy OK
Track 23
Filename D:\Subir\23 - Let's Go Steady Again.wav
Peak level 93.1 %
Extraction speed 4.8 X
Track quality 100.0 %
Test CRC B2F46258
Copy CRC B2F46258
Accurately ripped (confidence 3) [2D07D7F7] (AR v2)
Copy OK
Track 24
Filename D:\Subir\24 - You Were Made For Me.wav
Peak level 93.1 %
Extraction speed 4.9 X
Track quality 100.0 %
Test CRC B2908488
Copy CRC B2908488
Accurately ripped (confidence 3) [11EB1747] (AR v2)
Copy OK
Track 25
Filename D:\Subir\25 - Summertime - Part 2.wav
Peak level 93.1 %
Extraction speed 4.8 X
Track quality 100.0 %
Test CRC BD8A85EF
Copy CRC BD8A85EF
Accurately ripped (confidence 3) [BE3B82C7] (AR v2)
Copy OK
Track 26
Filename D:\Subir\26 - There I've Said It Again.wav
Peak level 99.8 %
Extraction speed 4.7 X
Track quality 100.0 %
Test CRC 475E1487
Copy CRC 475E1487
Accurately ripped (confidence 3) [86B7D92B] (AR v2)
Copy OK
All tracks accurately ripped
No errors occurred
End of status report
---- CUETools DB Plugin V2.1.3
[CTDB TOCID: 2XKjLTlIbetDo4bueYHl0hwrj_k-] found, Submit result: 2XKjLTlIbetDo4bueYHl0hwrj_k- has been confirmed
[2f8aa8eb] (11/12) Accurately ripped
[da9e86d6] (01/12) No match
==== Log checksum 369A12F600E2980D173015C5AB6DA7E5F5BCE6944922E0834E68740D335AA2E8 ====
 
Содержание индексной карты (.CUE)
REM GENRE R&B
REM DATE 2013
REM DISCID 680ECE1A
REM COMMENT "ExactAudioCopy v1.0b3"
PERFORMER "Sam Cooke"
TITLE "Eight Classic Albums Plus Bonus Singles CD2"
FILE "01 - God Bless The Child.wav" WAVE
TRACK 01 AUDIO
TITLE "God Bless The Child"
PERFORMER "Sam Cooke"
FLAGS DCP
INDEX 01 00:00:00
FILE "02 - She's Funny That Way.wav" WAVE
TRACK 02 AUDIO
TITLE "She's Funny That Way"
PERFORMER "Sam Cooke"
FLAGS DCP
INDEX 01 00:00:00
FILE "03 - I've Got A Right To Sing The Blues.wav" WAVE
TRACK 03 AUDIO
TITLE "I've Got A Right To Sing The Blues"
PERFORMER "Sam Cooke"
FLAGS DCP
INDEX 01 00:00:00
FILE "04 - Good Morning, Heartache.wav" WAVE
TRACK 04 AUDIO
TITLE "Good Morning, Heartache"
PERFORMER "Sam Cooke"
FLAGS DCP
INDEX 01 00:00:00
FILE "05 - Ain't Nobody's Bizness (If I Do).wav" WAVE
TRACK 05 AUDIO
TITLE "Ain't Nobody's Bizness (If I Do)"
PERFORMER "Sam Cooke"
FLAGS DCP
INDEX 01 00:00:00
FILE "06 - Comes Love.wav" WAVE
TRACK 06 AUDIO
TITLE "Comes Love"
PERFORMER "Sam Cooke"
FLAGS DCP
INDEX 01 00:00:00
FILE "07 - Lover Girl.wav" WAVE
TRACK 07 AUDIO
TITLE "Lover Girl"
PERFORMER "Sam Cooke"
FLAGS DCP
INDEX 01 00:00:00
FILE "08 - Let's Call The Whole Thing Off.wav" WAVE
TRACK 08 AUDIO
TITLE "Let's Call The Whole Thing Off"
PERFORMER "Sam Cooke"
FLAGS DCP
INDEX 01 00:00:00
FILE "09 - Lover Come Back To Me.wav" WAVE
TRACK 09 AUDIO
TITLE "Lover Come Back To Me"
PERFORMER "Sam Cooke"
FLAGS DCP
INDEX 01 00:00:00
FILE "10 - Solitude.wav" WAVE
TRACK 10 AUDIO
TITLE "Solitude"
PERFORMER "Sam Cooke"
FLAGS DCP
INDEX 01 00:00:00
FILE "11 - They Can't Take That Away From Me.wav" WAVE
TRACK 11 AUDIO
TITLE "They Can't Take That Away From Me"
PERFORMER "Sam Cooke"
FLAGS DCP
INDEX 01 00:00:00
FILE "12 - Crazy In Love With You.wav" WAVE
TRACK 12 AUDIO
TITLE "Crazy In Love With You"
PERFORMER "Sam Cooke"
FLAGS DCP
INDEX 01 00:00:00
FILE "13 - Only Sixteen.wav" WAVE
TRACK 13 AUDIO
TITLE "Only Sixteen"
PERFORMER "Sam Cooke"
FLAGS DCP
INDEX 01 00:00:00
FILE "14 - All Of My Life.wav" WAVE
TRACK 14 AUDIO
TITLE "All Of My Life"
PERFORMER "Sam Cooke"
FLAGS DCP
INDEX 01 00:00:00
FILE "15 - Everybody Loves To Cha Cha Cha.wav" WAVE
TRACK 15 AUDIO
TITLE "Everybody Loves To Cha Cha Cha"
PERFORMER "Sam Cooke"
FLAGS DCP
INDEX 01 00:00:00
FILE "16 - Blue Moon.wav" WAVE
TRACK 16 AUDIO
TITLE "Blue Moon"
PERFORMER "Sam Cooke"
FLAGS DCP
INDEX 01 00:00:00
FILE "17 - Win Your Love For Me.wav" WAVE
TRACK 17 AUDIO
TITLE "Win Your Love For Me"
PERFORMER "Sam Cooke"
FLAGS DCP
INDEX 01 00:00:00
FILE "18 - Lonely Island.wav" WAVE
TRACK 18 AUDIO
TITLE "Lonely Island"
PERFORMER "Sam Cooke"
FLAGS DCP
INDEX 01 00:00:00
FILE "19 - You Send Me.wav" WAVE
TRACK 19 AUDIO
TITLE "You Send Me"
PERFORMER "Sam Cooke"
FLAGS DCP
INDEX 01 00:00:00
FILE "20 - Love You Most Of All.wav" WAVE
TRACK 20 AUDIO
TITLE "Love You Most Of All"
PERFORMER "Sam Cooke"
FLAGS DCP
INDEX 01 00:00:00
FILE "21 - (I Love You) For Sentimental Reasons.wav" WAVE
TRACK 21 AUDIO
TITLE "(I Love You) For Sentimental Reasons"
PERFORMER "Sam Cooke"
FLAGS DCP
INDEX 01 00:00:00
FILE "22 - The Little Things You Do.wav" WAVE
TRACK 22 AUDIO
TITLE "The Little Things You Do"
PERFORMER "Sam Cooke"
FLAGS DCP
INDEX 01 00:00:00
FILE "23 - Let's Go Steady Again.wav" WAVE
TRACK 23 AUDIO
TITLE "Let's Go Steady Again"
PERFORMER "Sam Cooke"
FLAGS DCP
INDEX 01 00:00:00
FILE "24 - You Were Made For Me.wav" WAVE
TRACK 24 AUDIO
TITLE "You Were Made For Me"
PERFORMER "Sam Cooke"
FLAGS DCP
INDEX 01 00:00:00
FILE "25 - Summertime - Part 2.wav" WAVE
TRACK 25 AUDIO
TITLE "Summertime - Part 2"
PERFORMER "Sam Cooke"
FLAGS DCP
INDEX 01 00:00:00
FILE "26 - There I've Said It Again.wav" WAVE
TRACK 26 AUDIO
TITLE "There I've Said It Again"
PERFORMER "Sam Cooke"
FLAGS DCP
INDEX 01 00:00:00
 
Disc Three
Продолжительность: 56:20
Треклист:
01. I Thank God (3:02)
02. That's Heaven To Me (2:03)
03. Steal Away (2:33)
04. Deep River (2:50)
05. Far Away Places (3:27)
06. Under Paris Skies (3:11)
07. South Of The Border (3:10)
08. Bali Ha'i (3:17)
09. The Coffee Song (2:04)
10. Arrivederci, Roma (2:48)
11. London By Night (3:33)
12. Jamaica Farewell (2:33)
13. Galway Bay (2:59)
14. Sweet Leilani (2:48)
15. Japanese Farewell Song (2:56)
16. The House I Live In (3:20)
17. No One (Can Ever Take Your Place) (2:21)
18. Teenage Sonata (2:40)
19. Wonderful World (2:07)
20. Sad Mood (2:37)
 
 
Лог создания рипа
Exact Audio Copy V1.0 beta 3 from 29. August 2011
EAC extraction logfile from 16. April 2015, 16:32
Sam Cooke / Eight Classic Albums Plus Bonus Singles CD3
Used drive : ASUS SDRW-08D2S-U Adapter: 1 ID: 0
Read mode : Secure
Utilize accurate stream : Yes
Defeat audio cache : Yes
Make use of C2 pointers : No
Read offset correction : 6
Overread into Lead-In and Lead-Out : No
Fill up missing offset samples with silence : Yes
Delete leading and trailing silent blocks : No
Null samples used in CRC calculations : Yes
Used interface : Native Win32 interface for Win NT & 2000
Gap handling : Appended to previous track
Used output format : User Defined Encoder
Selected bitrate : 128 kBit/s
Quality : High
Add ID3 tag : No
Command line compressor : C:\Program Files (x86)\Exact Audio Copy\Flac\flac.exe
Additional command line options : -8 -V -T "ARTIST=%artist%" -T "TITLE=%title%" -T "ALBUM=%albumtitle%" -T "DATE=%year%" -T "TRACKNUMBER=%tracknr%" -T "TOTALTRACKS=%numtracks%" -T "GENRE=%genre%" -T "ALBUMARTIST=%albumartist%" -T "ALBUM ARTIST=%albumartist%" -T "COMMENT=EAC Secure Mode, Test & Copy, AccurateRip, FLAC -8" %source%
TOC of the extracted CD
Track | Start | Length | Start sector | End sector
---------------------------------------------------------
1 | 0:00.00 | 3:01.41 | 0 | 13615
2 | 3:01.41 | 2:02.38 | 13616 | 22803
3 | 5:04.04 | 2:32.45 | 22804 | 34248
4 | 7:36.49 | 2:49.66 | 34249 | 46989
5 | 10:26.40 | 3:27.33 | 46990 | 62547
6 | 13:53.73 | 3:11.00 | 62548 | 76872
7 | 17:04.73 | 3:10.13 | 76873 | 91135
8 | 20:15.11 | 3:17.31 | 91136 | 105941
9 | 23:32.42 | 2:04.08 | 105942 | 115249
10 | 25:36.50 | 2:47.59 | 115250 | 127833
11 | 28:24.34 | 3:33.29 | 127834 | 143837
12 | 31:57.63 | 2:33.01 | 143838 | 155313
13 | 34:30.64 | 2:59.16 | 155314 | 168754
14 | 37:30.05 | 2:48.26 | 168755 | 181380
15 | 40:18.31 | 2:56.11 | 181381 | 194591
16 | 43:14.42 | 3:20.01 | 194592 | 209592
17 | 46:34.43 | 2:21.23 | 209593 | 220190
18 | 48:55.66 | 2:40.33 | 220191 | 232223
19 | 51:36.24 | 2:06.51 | 232224 | 241724
20 | 53:43.00 | 2:37.11 | 241725 | 253510
Track 1
Filename D:\Subir\01 - I Thank God.wav
Pre-gap length 0:00:02.00
Peak level 90.5 %
Extraction speed 2.2 X
Track quality 100.0 %
Test CRC F0570ED1
Copy CRC F0570ED1
Accurately ripped (confidence 8) [4E24E186] (AR v2)
Copy OK
Track 2
Filename D:\Subir\02 - That's Heaven To Me.wav
Peak level 93.1 %
Extraction speed 1.7 X
Track quality 99.9 %
Test CRC F09FB9BF
Copy CRC F09FB9BF
Accurately ripped (confidence 8) [58C05CF1] (AR v2)
Copy OK
Track 3
Filename D:\Subir\03 - Steal Away.wav
Peak level 91.3 %
Extraction speed 2.6 X
Track quality 100.0 %
Test CRC CDD51DAD
Copy CRC CDD51DAD
Accurately ripped (confidence 8) [B5843756] (AR v2)
Copy OK
Track 4
Filename D:\Subir\04 - Deep River.wav
Peak level 95.5 %
Extraction speed 2.8 X
Track quality 100.0 %
Test CRC F3B90373
Copy CRC F3B90373
Accurately ripped (confidence 8) [3145531E] (AR v2)
Copy OK
Track 5
Filename D:\Subir\05 - Far Away Places.wav
Peak level 94.6 %
Extraction speed 3.1 X
Track quality 100.0 %
Test CRC CBB94180
Copy CRC CBB94180
Accurately ripped (confidence 8) [5A46E929] (AR v2)
Copy OK
Track 6
Filename D:\Subir\06 - Under Paris Skies.wav
Peak level 94.6 %
Extraction speed 3.3 X
Track quality 100.0 %
Test CRC 670B87AB
Copy CRC 670B87AB
Accurately ripped (confidence 8) [C3578212] (AR v2)
Copy OK
Track 7
Filename D:\Subir\07 - South Of The Border.wav
Peak level 94.6 %
Extraction speed 3.4 X
Track quality 100.0 %
Test CRC A04470EC
Copy CRC A04470EC
Accurately ripped (confidence 8) [5BE067B9] (AR v2)
Copy OK
Track 8
Filename D:\Subir\08 - Bali Ha'i.wav
Peak level 94.6 %
Extraction speed 3.6 X
Track quality 100.0 %
Test CRC 3035F206
Copy CRC 3035F206
Accurately ripped (confidence 8) [0859965B] (AR v2)
Copy OK
Track 9
Filename D:\Subir\09 - The Coffee Song.wav
Peak level 94.6 %
Extraction speed 3.3 X
Track quality 100.0 %
Test CRC 6B225247
Copy CRC 6B225247
Accurately ripped (confidence 8) [152AAB0B] (AR v2)
Copy OK
Track 10
Filename D:\Subir\10 - Arrivederci, Roma.wav
Peak level 94.6 %
Extraction speed 3.7 X
Track quality 100.0 %
Test CRC 18ED347E
Copy CRC 18ED347E
Accurately ripped (confidence 8) [040C172B] (AR v2)
Copy OK
Track 11
Filename D:\Subir\11 - London By Night.wav
Peak level 94.6 %
Extraction speed 3.9 X
Track quality 100.0 %
Test CRC A4461734
Copy CRC A4461734
Accurately ripped (confidence 8) [6836E27E] (AR v2)
Copy OK
Track 12
Filename D:\Subir\12 - Jamaica Farewell.wav
Peak level 94.6 %
Extraction speed 3.9 X
Track quality 100.0 %
Test CRC 74C9E366
Copy CRC 74C9E366
Accurately ripped (confidence 8) [2CDD8D5E] (AR v2)
Copy OK
Track 13
Filename D:\Subir\13 - Galway Bay.wav
Peak level 94.6 %
Extraction speed 4.1 X
Track quality 100.0 %
Test CRC B505F7B6
Copy CRC B505F7B6
Accurately ripped (confidence 8) [B85BD193] (AR v2)
Copy OK
Track 14
Filename D:\Subir\14 - Sweet Leilani.wav
Peak level 94.6 %
Extraction speed 4.1 X
Track quality 100.0 %
Test CRC A45A6B8F
Copy CRC A45A6B8F
Accurately ripped (confidence 8) [AC32D7F6] (AR v2)
Copy OK
Track 15
Filename D:\Subir\15 - Japanese Farewell Song.wav
Peak level 94.6 %
Extraction speed 3.3 X
Track quality 100.0 %
Test CRC 29DC34DB
Copy CRC 29DC34DB
Accurately ripped (confidence 8) [5AB518F3] (AR v2)
Copy OK
Track 16
Filename D:\Subir\16 - The House I Live In.wav
Peak level 94.6 %
Extraction speed 4.5 X
Track quality 100.0 %
Test CRC F548B711
Copy CRC F548B711
Accurately ripped (confidence 8) [EFADE88A] (AR v2)
Copy OK
Track 17
Filename D:\Subir\17 - No One (Can Ever Take Your Place).wav
Peak level 99.2 %
Extraction speed 4.3 X
Track quality 100.0 %
Test CRC 47F9EFA1
Copy CRC 47F9EFA1
Accurately ripped (confidence 8) [EACE5220] (AR v2)
Copy OK
Track 18
Filename D:\Subir\18 - Teenage Sonata.wav
Peak level 100.0 %
Extraction speed 4.5 X
Track quality 100.0 %
Test CRC 45243AC0
Copy CRC 45243AC0
Accurately ripped (confidence 8) [63E6E7FB] (AR v2)
Copy OK
Track 19
Filename D:\Subir\19 - Wonderful World.wav
Peak level 95.3 %
Extraction speed 4.3 X
Track quality 100.0 %
Test CRC 521BD622
Copy CRC 521BD622
Accurately ripped (confidence 8) [FF9D32CA] (AR v2)
Copy OK
Track 20
Filename D:\Subir\20 - Sad Mood.wav
Peak level 95.9 %
Extraction speed 4.6 X
Track quality 100.0 %
Test CRC 464CEE3F
Copy CRC 464CEE3F
Accurately ripped (confidence 8) [0CA5D7AC] (AR v2)
Copy OK
All tracks accurately ripped
No errors occurred
End of status report
---- CUETools DB Plugin V2.1.3
[CTDB TOCID: xq1HyZInEQ02UOW4xlbOnNqX2kk-] found, Submit result: xq1HyZInEQ02UOW4xlbOnNqX2kk- has been confirmed
[0427d55d] (11/11) Accurately ripped
==== Log checksum 2295F6CF1D02614A5CE225C74BD9875A6748DE14744AE2803D4A5CC1625A8A8C ====
 
Содержание индексной карты (.CUE)
REM GENRE Soul
REM DATE 2013
REM DISCID 1B0D3414
REM COMMENT "ExactAudioCopy v1.0b3"
PERFORMER "Sam Cooke"
TITLE "Eight Classic Albums Plus Bonus Singles CD3"
FILE "01 - I Thank God.wav" WAVE
TRACK 01 AUDIO
TITLE "I Thank God"
PERFORMER "Sam Cooke"
FLAGS DCP
INDEX 01 00:00:00
FILE "02 - That's Heaven To Me.wav" WAVE
TRACK 02 AUDIO
TITLE "That's Heaven To Me"
PERFORMER "Sam Cooke"
FLAGS DCP
INDEX 01 00:00:00
FILE "03 - Steal Away.wav" WAVE
TRACK 03 AUDIO
TITLE "Steal Away"
PERFORMER "Sam Cooke"
FLAGS DCP
INDEX 01 00:00:00
FILE "04 - Deep River.wav" WAVE
TRACK 04 AUDIO
TITLE "Deep River"
PERFORMER "Sam Cooke"
FLAGS DCP
INDEX 01 00:00:00
FILE "05 - Far Away Places.wav" WAVE
TRACK 05 AUDIO
TITLE "Far Away Places"
PERFORMER "Sam Cooke"
FLAGS DCP
INDEX 01 00:00:00
FILE "06 - Under Paris Skies.wav" WAVE
TRACK 06 AUDIO
TITLE "Under Paris Skies"
PERFORMER "Sam Cooke"
FLAGS DCP
INDEX 01 00:00:00
FILE "07 - South Of The Border.wav" WAVE
TRACK 07 AUDIO
TITLE "South Of The Border"
PERFORMER "Sam Cooke"
FLAGS DCP
INDEX 01 00:00:00
FILE "08 - Bali Ha'i.wav" WAVE
TRACK 08 AUDIO
TITLE "Bali Ha'i"
PERFORMER "Sam Cooke"
FLAGS DCP
INDEX 01 00:00:00
FILE "09 - The Coffee Song.wav" WAVE
TRACK 09 AUDIO
TITLE "The Coffee Song"
PERFORMER "Sam Cooke"
FLAGS DCP
INDEX 01 00:00:00
FILE "10 - Arrivederci, Roma.wav" WAVE
TRACK 10 AUDIO
TITLE "Arrivederci, Roma"
PERFORMER "Sam Cooke"
FLAGS DCP
INDEX 01 00:00:00
FILE "11 - London By Night.wav" WAVE
TRACK 11 AUDIO
TITLE "London By Night"
PERFORMER "Sam Cooke"
FLAGS DCP
INDEX 01 00:00:00
FILE "12 - Jamaica Farewell.wav" WAVE
TRACK 12 AUDIO
TITLE "Jamaica Farewell"
PERFORMER "Sam Cooke"
FLAGS DCP
INDEX 01 00:00:00
FILE "13 - Galway Bay.wav" WAVE
TRACK 13 AUDIO
TITLE "Galway Bay"
PERFORMER "Sam Cooke"
FLAGS DCP
INDEX 01 00:00:00
FILE "14 - Sweet Leilani.wav" WAVE
TRACK 14 AUDIO
TITLE "Sweet Leilani"
PERFORMER "Sam Cooke"
FLAGS DCP
INDEX 01 00:00:00
FILE "15 - Japanese Farewell Song.wav" WAVE
TRACK 15 AUDIO
TITLE "Japanese Farewell Song"
PERFORMER "Sam Cooke"
FLAGS DCP
INDEX 01 00:00:00
FILE "16 - The House I Live In.wav" WAVE
TRACK 16 AUDIO
TITLE "The House I Live In"
PERFORMER "Sam Cooke"
FLAGS DCP
INDEX 01 00:00:00
FILE "17 - No One (Can Ever Take Your Place).wav" WAVE
TRACK 17 AUDIO
TITLE "No One (Can Ever Take Your Place)"
PERFORMER "Sam Cooke"
FLAGS DCP
INDEX 01 00:00:00
FILE "18 - Teenage Sonata.wav" WAVE
TRACK 18 AUDIO
TITLE "Teenage Sonata"
PERFORMER "Sam Cooke"
FLAGS DCP
INDEX 01 00:00:00
FILE "19 - Wonderful World.wav" WAVE
TRACK 19 AUDIO
TITLE "Wonderful World"
PERFORMER "Sam Cooke"
FLAGS DCP
INDEX 01 00:00:00
FILE "20 - Sad Mood.wav" WAVE
TRACK 20 AUDIO
TITLE "Sad Mood"
PERFORMER "Sam Cooke"
FLAGS DCP
INDEX 01 00:00:00
 
Disc Four
Продолжительность: 69:11
Треклист:
01. Hey There (2:35)
02. Mona Lisa (2:37)
03. Too Young (2:13)
04. The Grat Pretender (3:06)
05. You You You (2:53)
06. Unchained melody (3:30)
07. The Wayward Wind (3:14)
08. Secret Love (2:49)
09. The Song From The Moulin Rouge (2:41)
10. I'm Walking Behind You (2:48)
11. Cry (2:18)
12. Venus (2:57)
13. Swing Low, Sweet Charriot (3:00)
14. I'm Just A Country Boy (4:03)
15. The Call The Wind Mariah (2:53)
16. Twilight On The Trail (3:07)
17. If I Had You (2:14)
18. Chain Gang (2:35)
19. Grandfathers Clock (3:09)
20. I Dream of Jeanie With The Light Brown Hair (3:41)
21. Pray (2:10)
22. Long, Long Ago (2:54)
23. You Belong To Me (2:42)
24. Goin' Home (3:00)
 
 
Лог создания рипа
Exact Audio Copy V1.0 beta 3 from 29. August 2011
EAC extraction logfile from 16. April 2015, 17:22
Sam Cooke / Eight Classic Albums Plus Bonus Singles CD4
Used drive : ASUS SDRW-08D2S-U Adapter: 1 ID: 0
Read mode : Secure
Utilize accurate stream : Yes
Defeat audio cache : Yes
Make use of C2 pointers : No
Read offset correction : 6
Overread into Lead-In and Lead-Out : No
Fill up missing offset samples with silence : Yes
Delete leading and trailing silent blocks : No
Null samples used in CRC calculations : Yes
Used interface : Native Win32 interface for Win NT & 2000
Gap handling : Appended to previous track
Used output format : User Defined Encoder
Selected bitrate : 128 kBit/s
Quality : High
Add ID3 tag : No
Command line compressor : C:\Program Files (x86)\Exact Audio Copy\Flac\flac.exe
Additional command line options : -8 -V -T "ARTIST=%artist%" -T "TITLE=%title%" -T "ALBUM=%albumtitle%" -T "DATE=%year%" -T "TRACKNUMBER=%tracknr%" -T "TOTALTRACKS=%numtracks%" -T "GENRE=%genre%" -T "ALBUMARTIST=%albumartist%" -T "ALBUM ARTIST=%albumartist%" -T "COMMENT=EAC Secure Mode, Test & Copy, AccurateRip, FLAC -8" %source%
TOC of the extracted CD
Track | Start | Length | Start sector | End sector
---------------------------------------------------------
1 | 0:00.00 | 2:35.29 | 0 | 11653
2 | 2:35.29 | 2:37.04 | 11654 | 23432
3 | 5:12.33 | 2:12.58 | 23433 | 33390
4 | 7:25.16 | 3:06.10 | 33391 | 47350
5 | 10:31.26 | 2:53.09 | 47351 | 60334
6 | 13:24.35 | 3:29.68 | 60335 | 76077
7 | 16:54.28 | 3:14.17 | 76078 | 90644
8 | 20:08.45 | 2:49.12 | 90645 | 103331
9 | 22:57.57 | 2:41.30 | 103332 | 115436
10 | 25:39.12 | 2:48.19 | 115437 | 128055
11 | 28:27.31 | 2:17.74 | 128056 | 138404
12 | 30:45.30 | 2:56.46 | 138405 | 151650
13 | 33:42.01 | 3:00.11 | 151651 | 165161
14 | 36:42.12 | 4:02.59 | 165162 | 183370
15 | 40:44.71 | 2:53.27 | 183371 | 196372
16 | 43:38.23 | 3:06.58 | 196373 | 210380
17 | 46:45.06 | 2:13.40 | 210381 | 220395
18 | 48:58.46 | 2:35.18 | 220396 | 232038
19 | 51:33.64 | 3:09.14 | 232039 | 246227
20 | 54:43.03 | 3:41.26 | 246228 | 262828
21 | 58:24.29 | 2:09.72 | 262829 | 272575
22 | 60:34.26 | 2:54.01 | 272576 | 285626
23 | 63:28.27 | 2:42.37 | 285627 | 297813
24 | 66:10.64 | 3:00.34 | 297814 | 311347
Track 1
Filename D:\Subir\01 - Hey There.wav
Pre-gap length 0:00:02.00
Peak level 93.1 %
Extraction speed 1.9 X
Track quality 99.9 %
Test CRC 79E89B38
Copy CRC 79E89B38
Accurately ripped (confidence 2) [8076231E] (AR v2)
Copy OK
Track 2
Filename D:\Subir\02 - Mona Lisa.wav
Peak level 93.1 %
Extraction speed 2.0 X
Track quality 99.9 %
Test CRC 40804DBF
Copy CRC 40804DBF
Accurately ripped (confidence 2) [9B7FA121] (AR v2)
Copy OK
Track 3
Filename D:\Subir\03 - Too Young.wav
Peak level 93.1 %
Extraction speed 2.0 X
Track quality 99.9 %
Test CRC 859C8078
Copy CRC 859C8078
Accurately ripped (confidence 2) [8AB2A6A9] (AR v2)
Copy OK
Track 4
Filename D:\Subir\04 - The Grat Pretender.wav
Peak level 93.1 %
Extraction speed 3.1 X
Track quality 100.0 %
Test CRC 2CABF7FD
Copy CRC 2CABF7FD
Accurately ripped (confidence 2) [E9E76FAA] (AR v2)
Copy OK
Track 5
Filename D:\Subir\05 - You You You.wav
Peak level 93.1 %
Extraction speed 3.2 X
Track quality 100.0 %
Test CRC DC8B1EAC
Copy CRC DC8B1EAC
Accurately ripped (confidence 2) [1459016D] (AR v2)
Copy OK
Track 6
Filename D:\Subir\06 - Unchained melody.wav
Peak level 93.1 %
Extraction speed 3.5 X
Track quality 100.0 %
Test CRC 99EA78E3
Copy CRC 99EA78E3
Accurately ripped (confidence 2) [0AD3CE89] (AR v2)
Copy OK
Track 7
Filename D:\Subir\07 - The Wayward Wind.wav
Peak level 93.1 %
Extraction speed 2.8 X
Track quality 99.9 %
Test CRC 1BF2E0BA
Copy CRC 1BF2E0BA
Accurately ripped (confidence 2) [5D581F1E] (AR v2)
Copy OK
Track 8
Filename D:\Subir\08 - Secret Love.wav
Peak level 93.1 %
Extraction speed 3.6 X
Track quality 100.0 %
Test CRC 49A45B80
Copy CRC 49A45B80
Accurately ripped (confidence 2) [BAD6B875] (AR v2)
Copy OK
Track 9
Filename D:\Subir\09 - The Song From The Moulin Rouge.wav
Peak level 93.1 %
Extraction speed 3.7 X
Track quality 100.0 %
Test CRC F99BC276
Copy CRC F99BC276
Accurately ripped (confidence 2) [D18670C6] (AR v2)
Copy OK
Track 10
Filename D:\Subir\10 - I'm Walking Behind You.wav
Peak level 93.1 %
Extraction speed 3.8 X
Track quality 100.0 %
Test CRC 99A0A99F
Copy CRC 99A0A99F
Accurately ripped (confidence 2) [4100107B] (AR v2)
Copy OK
Track 11
Filename D:\Subir\11 - Cry.wav
Peak level 93.1 %
Extraction speed 3.8 X
Track quality 100.0 %
Test CRC 2FE2974A
Copy CRC 2FE2974A
Accurately ripped (confidence 2) [7511AE42] (AR v2)
Copy OK
Track 12
Filename D:\Subir\12 - Venus.wav
Peak level 93.1 %
Extraction speed 3.1 X
Track quality 99.9 %
Test CRC C45F1D2A
Copy CRC C45F1D2A
Accurately ripped (confidence 2) [ECA9C3F9] (AR v2)
Copy OK
Track 13
Filename D:\Subir\13 - Swing Low, Sweet Charriot.wav
Peak level 94.6 %
Extraction speed 4.2 X
Track quality 100.0 %
Test CRC 21FB2872
Copy CRC 21FB2872
Accurately ripped (confidence 2) [C0AC3AB0] (AR v2)
Copy OK
Track 14
Filename D:\Subir\14 - I'm Just A Country Boy.wav
Peak level 94.6 %
Extraction speed 4.5 X
Track quality 100.0 %
Test CRC 438A4667
Copy CRC 438A4667
Accurately ripped (confidence 2) [C084EA90] (AR v2)
Copy OK
Track 15
Filename D:\Subir\15 - The Call The Wind Mariah.wav
Peak level 94.6 %
Extraction speed 4.4 X
Track quality 100.0 %
Test CRC 4CDB6C1C
Copy CRC 4CDB6C1C
Accurately ripped (confidence 2) [DCE23E37] (AR v2)
Copy OK
Track 16
Filename D:\Subir\16 - Twilight On The Trail.wav
Peak level 94.6 %
Extraction speed 4.6 X
Track quality 100.0 %
Test CRC 11DFE46D
Copy CRC 11DFE46D
Accurately ripped (confidence 2) [B4B3BDB0] (AR v2)
Copy OK
Track 17
Filename D:\Subir\17 - If I Had You.wav
Peak level 94.6 %
Extraction speed 4.4 X
Track quality 100.0 %
Test CRC 900F442D
Copy CRC 900F442D
Accurately ripped (confidence 2) [293C6CF7] (AR v2)
Copy OK
Track 18
Filename D:\Subir\18 - Chain Gang.wav
Peak level 100.0 %
Extraction speed 4.6 X
Track quality 100.0 %
Test CRC EE813026
Copy CRC EE813026
Accurately ripped (confidence 2) [2D49C484] (AR v2)
Copy OK
Track 19
Filename D:\Subir\19 - Grandfathers Clock.wav
Peak level 94.6 %
Extraction speed 4.8 X
Track quality 100.0 %
Test CRC 1D5BD49F
Copy CRC 1D5BD49F
Accurately ripped (confidence 2) [FBECD95A] (AR v2)
Copy OK
Track 20
Filename D:\Subir\20 - I Dream of Jeanie With The Light Brown Hair.wav
Peak level 100.0 %
Extraction speed 5.1 X
Track quality 100.0 %
Test CRC 523B2175
Copy CRC 523B2175
Accurately ripped (confidence 2) [A78665B0] (AR v2)
Copy OK
Track 21
Filename D:\Subir\21 - Pray.wav
Peak level 94.6 %
Extraction speed 4.7 X
Track quality 100.0 %
Test CRC A23F24E4
Copy CRC A23F24E4
Accurately ripped (confidence 2) [25192F51] (AR v2)
Copy OK
Track 22
Filename D:\Subir\22 - Long, Long Ago.wav
Peak level 94.6 %
Extraction speed 5.0 X
Track quality 100.0 %
Test CRC A6FA7C12
Copy CRC A6FA7C12
Accurately ripped (confidence 2) [54A2C6F3] (AR v2)
Copy OK
Track 23
Filename D:\Subir\23 - You Belong To Me.wav
Peak level 94.6 %
Extraction speed 5.0 X
Track quality 100.0 %
Test CRC DEE08FEC
Copy CRC DEE08FEC
Accurately ripped (confidence 2) [F9DD36CA] (AR v2)
Copy OK
Track 24
Filename D:\Subir\24 - Goin' Home.wav
Peak level 100.0 %
Extraction speed 5.2 X
Track quality 100.0 %
Test CRC 94BFA5A2
Copy CRC 94BFA5A2
Accurately ripped (confidence 2) [989E560D] (AR v2)
Copy OK
All tracks accurately ripped
No errors occurred
End of status report
---- CUETools DB Plugin V2.1.3
[CTDB TOCID: Y3tNKjzV2Yt9U0EN_LrAh5Ld8_k-] found, Submit result: Y3tNKjzV2Yt9U0EN_LrAh5Ld8_k- has been confirmed
[50fae5a3] (09/11) Accurately ripped
[61a479ba] (01/11) No match
[e4aab3eb] (01/11) No match
==== Log checksum A2550144B143F60836A51916072FD128DA182CBAA4B7FDDF52C17BA2BF9F0EB7 ====
 
Содержание индексной карты (.CUE)
REM GENRE R&B
REM DATE 2013
REM DISCID 3F103718
REM COMMENT "ExactAudioCopy v1.0b3"
PERFORMER "Sam Cooke"
TITLE "Eight Classic Albums Plus Bonus Singles CD4"
FILE "01 - Hey There.wav" WAVE
TRACK 01 AUDIO
TITLE "Hey There"
PERFORMER "Sam Cooke"
FLAGS DCP
INDEX 01 00:00:00
FILE "02 - Mona Lisa.wav" WAVE
TRACK 02 AUDIO
TITLE "Mona Lisa"
PERFORMER "Sam Cooke"
FLAGS DCP
INDEX 01 00:00:00
FILE "03 - Too Young.wav" WAVE
TRACK 03 AUDIO
TITLE "Too Young"
PERFORMER "Sam Cooke"
FLAGS DCP
INDEX 01 00:00:00
FILE "04 - The Grat Pretender.wav" WAVE
TRACK 04 AUDIO
TITLE "The Grat Pretender"
PERFORMER "Sam Cooke"
FLAGS DCP
INDEX 01 00:00:00
FILE "05 - You You You.wav" WAVE
TRACK 05 AUDIO
TITLE "You You You"
PERFORMER "Sam Cooke"
FLAGS DCP
INDEX 01 00:00:00
FILE "06 - Unchained melody.wav" WAVE
TRACK 06 AUDIO
TITLE "Unchained melody"
PERFORMER "Sam Cooke"
FLAGS DCP
INDEX 01 00:00:00
FILE "07 - The Wayward Wind.wav" WAVE
TRACK 07 AUDIO
TITLE "The Wayward Wind"
PERFORMER "Sam Cooke"
FLAGS DCP
INDEX 01 00:00:00
FILE "08 - Secret Love.wav" WAVE
TRACK 08 AUDIO
TITLE "Secret Love"
PERFORMER "Sam Cooke"
FLAGS DCP
INDEX 01 00:00:00
FILE "09 - The Song From The Moulin Rouge.wav" WAVE
TRACK 09 AUDIO
TITLE "The Song From The Moulin Rouge"
PERFORMER "Sam Cooke"
FLAGS DCP
INDEX 01 00:00:00
FILE "10 - I'm Walking Behind You.wav" WAVE
TRACK 10 AUDIO
TITLE "I'm Walking Behind You"
PERFORMER "Sam Cooke"
FLAGS DCP
INDEX 01 00:00:00
FILE "11 - Cry.wav" WAVE
TRACK 11 AUDIO
TITLE "Cry"
PERFORMER "Sam Cooke"
FLAGS DCP
INDEX 01 00:00:00
FILE "12 - Venus.wav" WAVE
TRACK 12 AUDIO
TITLE "Venus"
PERFORMER "Sam Cooke"
FLAGS DCP
INDEX 01 00:00:00
FILE "13 - Swing Low, Sweet Charriot.wav" WAVE
TRACK 13 AUDIO
TITLE "Swing Low, Sweet Charriot"
PERFORMER "Sam Cooke"
FLAGS DCP
INDEX 01 00:00:00
FILE "14 - I'm Just A Country Boy.wav" WAVE
TRACK 14 AUDIO
TITLE "I'm Just A Country Boy"
PERFORMER "Sam Cooke"
FLAGS DCP
INDEX 01 00:00:00
FILE "15 - The Call The Wind Mariah.wav" WAVE
TRACK 15 AUDIO
TITLE "The Call The Wind Mariah"
PERFORMER "Sam Cooke"
FLAGS DCP
INDEX 01 00:00:00
FILE "16 - Twilight On The Trail.wav" WAVE
TRACK 16 AUDIO
TITLE "Twilight On The Trail"
PERFORMER "Sam Cooke"
FLAGS DCP
INDEX 01 00:00:00
FILE "17 - If I Had You.wav" WAVE
TRACK 17 AUDIO
TITLE "If I Had You"
PERFORMER "Sam Cooke"
FLAGS DCP
INDEX 01 00:00:00
FILE "18 - Chain Gang.wav" WAVE
TRACK 18 AUDIO
TITLE "Chain Gang"
PERFORMER "Sam Cooke"
FLAGS DCP
INDEX 01 00:00:00
FILE "19 - Grandfathers Clock.wav" WAVE
TRACK 19 AUDIO
TITLE "Grandfathers Clock"
PERFORMER "Sam Cooke"
FLAGS DCP
INDEX 01 00:00:00
FILE "20 - I Dream of Jeanie With The Light Brown Hair.wav" WAVE
TRACK 20 AUDIO
TITLE "I Dream of Jeanie With The Light Brown Hair"
PERFORMER "Sam Cooke"
FLAGS DCP
INDEX 01 00:00:00
FILE "21 - Pray.wav" WAVE
TRACK 21 AUDIO
TITLE "Pray"
PERFORMER "Sam Cooke"
FLAGS DCP
INDEX 01 00:00:00
FILE "22 - Long, Long Ago.wav" WAVE
TRACK 22 AUDIO
TITLE "Long, Long Ago"
PERFORMER "Sam Cooke"
FLAGS DCP
INDEX 01 00:00:00
FILE "23 - You Belong To Me.wav" WAVE
TRACK 23 AUDIO
TITLE "You Belong To Me"
PERFORMER "Sam Cooke"
FLAGS DCP
INDEX 01 00:00:00
FILE "24 - Goin' Home.wav" WAVE
TRACK 24 AUDIO
TITLE "Goin' Home"
PERFORMER "Sam Cooke"
FLAGS DCP
INDEX 01 00:00:00
Приватный:
Нет (DHT включён)
Размер:
1.24 Гб (1,332,570,189 байт) » файлов: 127
Участники:
0 раздают, 0 качают (0 участников всего)
Внешние участники:
5 раздают, 2 качают (7 участников всего) [ Обновить ]
Есть вопросы - пишите личное сообщение пользователю M0p94ok.
06:39
72
Нет комментариев. Ваш будет первым!