Поиск

(Soul, Funk, Disco) [CD] Mose Davis - The Coming of Moses - 1978 (2009) - 2009, FLAC (image+.cue), lossless

(Soul, Funk, Disco) [CD] Mose Davis - The Coming of Moses - 1978 (2009) - 2009, FLAC (image+.cue), lossless
Треклист:
Mose Davis - The Coming of Moses (1978)
Жанр: Soul, Funk, Disco
Носитель: CD
Страна-производитель диска (релиза): USA
Год издания: 2009
Издатель (лейбл): FunkyTownGrooves
Номер по каталогу: FTG-186
Страна исполнителя (группы): USA
Аудиокодек: FLAC (*.flac)
Тип рипа: image+.cue
Битрейт аудио: lossless
Продолжительность: 00:47:34
Источник (релизер): свой рип
Наличие сканов в содержимом раздачи: да
Треклист:
1. Love To Live (4:03)
2. Been Thinkin' Bout You (3:51)
3. The Sweetest Love (3:47)
4. Strivin' For Tomorrow (5:14)
5. The Coming Of Moses (6:03)
6. Take It Slow (3:52)
7. Sunday Afternoon / Spanish Sunset (6:35)
8. Something About You (3:58)
Bonus Tracks
9. Love To Live (12" Extended) (5:00)
10. Something About You (12" Extended) (5:10)
 
Лог создания рипа
Exact Audio Copy V1.0 beta 3 from 29. August 2011
Отчёт EAC об извлечении, выполненном 23. июня 2015, 13:18
Mose Davis / The Coming of Moses
Дисковод: TSSTcorpCDDVDW SH-S222A Adapter: 1 ID: 0
Режим чтения : Достоверность
Использование точного потока : Да
Отключение кэша аудио : Да
Использование указателей C2 : Нет
Коррекция смещения при чтении : 6
Способность читать области Lead-in и Lead-out : Нет
Заполнение пропущенных сэмплов тишиной : Да
Удаление блоков с тишиной в начале и конце : Нет
При вычислениях CRC использовались нулевые сэмплы : Да
Интерфейс : Установленный внешний ASPI-интерфейс
Выходной формат : Пользовательский кодировщик
Выбранный битрейт : 128 kBit/s
Качество : Высокий
Добавление ID3-тега : Нет
Утилита сжатия : C:\Program Files (x86)\Exact Audio Copy\Flac\flac.exe
Дополнительные параметры : -V -8 -T "Date=%year%" -T "Genre=%genre%" %source%
TOC извлечённого CD
Трек | Старт | Длительность | Начальный сектор | Конечный сектор
---------------------------------------------------------------------
1 | 0:00.00 | 4:03.58 | 0 | 18282
2 | 4:03.58 | 3:51.25 | 18283 | 35632
3 | 7:55.08 | 3:47.22 | 35633 | 52679
4 | 11:42.30 | 5:21.39 | 52680 | 76793
5 | 17:03.69 | 6:01.58 | 76794 | 103926
6 | 23:05.52 | 3:53.16 | 103927 | 121417
7 | 26:58.68 | 6:35.04 | 121418 | 151046
8 | 33:33.72 | 3:57.50 | 151047 | 168871
9 | 37:31.47 | 4:59.61 | 168872 | 191357
10 | 42:31.33 | 5:02.68 | 191358 | 214075
Характеристики диапазона извлечения и сообщения об ошибках
Выбранный диапазон
Имя файла G:\MyCD\Mose Davis - The Coming of Moses\Mose Davis - The Coming of Moses.wav
Пиковый уровень 99.9 %
Скорость извлечения 6.9 X
Качество диапазона 100.0 %
CRC теста 83E01AE2
CRC копии 83E01AE2
Копирование... OK
Ошибок не произошло
AccurateRip: сводка
Трек 1 : извлечено точно (доверие 5) [60D157BE] (AR v2)
Трек 2 : извлечено точно (доверие 5) [62640E39] (AR v2)
Трек 3 : извлечено точно (доверие 5) [C76C1F7E] (AR v2)
Трек 4 : извлечено точно (доверие 5) [0F8307E3] (AR v2)
Трек 5 : извлечено точно (доверие 5) [580C7CFB] (AR v2)
Трек 6 : извлечено точно (доверие 5) [F973D118] (AR v2)
Трек 7 : извлечено точно (доверие 5) [A0059968] (AR v2)
Трек 8 : извлечено точно (доверие 5) [75FC9AC0] (AR v2)
Трек 9 : извлечено точно (доверие 5) [DC150135] (AR v2)
Трек 10 : извлечено точно (доверие 5) [0BA246F0] (AR v2)
Все треки извлечены точно
Конец отчёта
==== Контрольная сумма отчёта 852B9762B7632D504942B260F555949567F495BF8BB8946FA79AE7A6D61BD250 ====
Приватный:
Нет (DHT включён)
Размер:
309.43 Мб (324,465,566 байт) » файлов: 9
Участники:
0 раздают, 0 качают (0 участников всего)
Внешние участники:
2 раздают, 1 качают (3 участников всего) [ Обновить ]
Есть вопросы - пишите личное сообщение пользователю M0p94ok.
06:38
58
Нет комментариев. Ваш будет первым!