Поиск

(Funk, Soul) [CD] Isis - Breaking Through - 1977 (2008 Japan Edition), FLAC (tracks+.cue), lossless

(Funk, Soul) [CD] Isis - Breaking Through - 1977 (2008 Japan Edition), FLAC (tracks+.cue), lossless
Треклист:
Isis - Breaking Through
Жанр: Funk, Soul
Носитель: CD
Страна-производитель диска (релиза): Япония
Год издания: 1977 (2008)
Издатель (лейбл): Vivid Sound Corporation/Muskrat Records
Номер по каталогу: RATCD-4271
Страна исполнителя (группы): США
Аудиокодек: FLAC (*.flac)
Тип рипа: tracks+.cue
Битрейт аудио: lossless
Продолжительность: 44:24
Источник (релизер): khalmandcollected (what)
Наличие сканов в содержимом раздачи: нет
Треклист:
01. God Give Me the Strength (3:36)
02. Love, Love, Love (3:46)
03. One Woman (4:42)
04. It's Only a Matter of Time (4:28)
05. Loving You Through Music (Dedicated to Laura Nyro) (3:28)
06. Give It Up (5:05)
07. Crazy Lady (0:22)
08. Get Crazy (5:09)
09. Looking for a Space (6:12)
10. It's Wonderful (2:05)
11. New York State of Mind (5:31)
 
Лог создания рипа
Exact Audio Copy V1.0 beta 6 from 9. April 2015
EAC extraction logfile from 19. June 2015, 23:47
Isis / Breaking Through
Used drive : LITE-ON DVD+RW SOHW-802S Adapter: 1 ID: 0
Read mode : Secure
Utilize accurate stream : Yes
Defeat audio cache : Yes
Make use of C2 pointers : No
Read offset correction : 12
Overread into Lead-In and Lead-Out : No
Fill up missing offset samples with silence : Yes
Delete leading and trailing silent blocks : No
Null samples used in CRC calculations : Yes
Used interface : Native Win32 interface for Win NT & 2000
Gap handling : Appended to previous track
Used output format : User Defined Encoder
Selected bitrate : 1024 kBit/s
Quality : High
Add ID3 tag : No
Command line compressor : C:\Program Files\FLAC\flac.exe
Additional command line options : -8 -V -T "ARTIST=%artist%" -T "TITLE=%title%" -T "ALBUM=%albumtitle%" -T "DATE=%year%" -T "TRACKNUMBER=%tracknr%" -T "GENRE=%genre%" -T "PERFORMER=%albuminterpret%" -T "COMPOSER=%composer%" %haslyrics%--tag-from-file=LYRICS="%lyricsfile%"%haslyrics% -T "ALBUMARTIST=%albumartist%" -T "DISCNUMBER=%cdnumber%" -T "TOTALDISCS=%totalcds%" -T "TOTALTRACKS=%numtracks%" -T "COMMENT=%comment%" %source% -o %dest%
TOC of the extracted CD
Track | Start | Length | Start sector | End sector
---------------------------------------------------------
1 | 0:00.00 | 3:36.16 | 0 | 16215
2 | 3:36.16 | 3:46.24 | 16216 | 33189
3 | 7:22.40 | 4:41.46 | 33190 | 54310
4 | 12:04.11 | 4:28.35 | 54311 | 74445
5 | 16:32.46 | 3:27.49 | 74446 | 90019
6 | 20:00.20 | 5:04.46 | 90020 | 112865
7 | 25:04.66 | 0:22.35 | 112866 | 114550
8 | 25:27.26 | 5:08.48 | 114551 | 137698
9 | 30:35.74 | 6:11.61 | 137699 | 165584
10 | 36:47.60 | 2:04.73 | 165585 | 174957
11 | 38:52.58 | 5:30.52 | 174958 | 199759
Track 1
Filename C:\Users\kqwiet\Desktop\Music Conversions\01 - God Give Me The Strength.wav
Pre-gap length 0:00:02.00
Peak level 95.2 %
Extraction speed 2.2 X
Track quality 100.0 %
Test CRC 73E414F9
Copy CRC 73E414F9
Track not present in AccurateRip database
Copy OK
Track 2
Filename C:\Users\kqwiet\Desktop\Music Conversions\02 - Love, Love, Love.wav
Peak level 98.2 %
Extraction speed 2.4 X
Track quality 100.0 %
Test CRC C74612AF
Copy CRC C74612AF
Track not present in AccurateRip database
Copy OK
Track 3
Filename C:\Users\kqwiet\Desktop\Music Conversions\03 - One Woman.wav
Peak level 95.1 %
Extraction speed 2.6 X
Track quality 100.0 %
Test CRC 379D983F
Copy CRC 379D983F
Track not present in AccurateRip database
Copy OK
Track 4
Filename C:\Users\kqwiet\Desktop\Music Conversions\04 - It's Only A Matter Of Time.wav
Peak level 96.4 %
Extraction speed 2.8 X
Track quality 100.0 %
Test CRC 1B43D39D
Copy CRC 1B43D39D
Track not present in AccurateRip database
Copy OK
Track 5
Filename C:\Users\kqwiet\Desktop\Music Conversions\05 - Loving You Through Music (Dedicated To Laura Nyro).wav
Peak level 94.6 %
Extraction speed 3.0 X
Track quality 100.0 %
Test CRC EEF2F294
Copy CRC EEF2F294
Track not present in AccurateRip database
Copy OK
Track 6
Filename C:\Users\kqwiet\Desktop\Music Conversions\06 - Give It Up.wav
Peak level 96.4 %
Extraction speed 3.2 X
Track quality 100.0 %
Test CRC 78C878AF
Copy CRC 78C878AF
Track not present in AccurateRip database
Copy OK
Track 7
Filename C:\Users\kqwiet\Desktop\Music Conversions\07 - Crazy Lady.wav
Peak level 93.3 %
Extraction speed 2.7 X
Track quality 100.0 %
Test CRC 8A21CEFF
Copy CRC 8A21CEFF
Track not present in AccurateRip database
Copy OK
Track 8
Filename C:\Users\kqwiet\Desktop\Music Conversions\08 - Get Crazy.wav
Peak level 95.4 %
Extraction speed 3.4 X
Track quality 100.0 %
Test CRC 5A6351D4
Copy CRC 5A6351D4
Track not present in AccurateRip database
Copy OK
Track 9
Filename C:\Users\kqwiet\Desktop\Music Conversions\09 - Looking For A Space.wav
Peak level 95.4 %
Extraction speed 3.7 X
Track quality 99.9 %
Test CRC 0DE99646
Copy CRC 0DE99646
Track not present in AccurateRip database
Copy OK
Track 10
Filename C:\Users\kqwiet\Desktop\Music Conversions\10 - It's Wonderful.wav
Peak level 94.7 %
Extraction speed 3.7 X
Track quality 100.0 %
Test CRC A06D3F37
Copy CRC A06D3F37
Track not present in AccurateRip database
Copy OK
Track 11
Filename C:\Users\kqwiet\Desktop\Music Conversions\11 - New York State Of Mind.wav
Peak level 94.7 %
Extraction speed 2.3 X
Track quality 99.9 %
Test CRC E424B93A
Copy CRC E424B93A
Track not present in AccurateRip database
Copy OK
None of the tracks are present in the AccurateRip database
No errors occurred
End of status report
---- CUETools DB Plugin V2.1.6
[CTDB TOCID: 5GUto3xDL0dIqIQZZtIfsI1GHq0-] found
Submit result: already submitted
Track | CTDB Status
1 | (1/1) Accurately ripped
2 | (1/1) Accurately ripped
3 | (1/1) Accurately ripped
4 | (1/1) Accurately ripped
5 | (1/1) Accurately ripped
6 | (1/1) Accurately ripped
7 | (1/1) Accurately ripped
8 | (1/1) Accurately ripped
9 | (1/1) Accurately ripped
10 | (1/1) Accurately ripped
11 | (1/1) Accurately ripped
==== Log checksum 44CB80A84C1CF6936359A88E6674055DC65DC305B8176CE41181746171550199 ====
 
Содержание индексной карты (.CUE)
REM GENRE Jazz
REM DATE 1977
REM DISCID 8C0A670B
REM COMMENT "ExactAudioCopy v1.0b6"
PERFORMER "Isis"
TITLE "Breaking Through"
FILE "01 - God Give Me the Strength.wav" WAVE
TRACK 01 AUDIO
TITLE "God Give Me the Strength"
PERFORMER "Isis"
INDEX 01 00:00:00
FILE "02 - Love, Love, Love.wav" WAVE
TRACK 02 AUDIO
TITLE "Love, Love, Love"
PERFORMER "Isis"
INDEX 01 00:00:00
FILE "03 - One Woman.wav" WAVE
TRACK 03 AUDIO
TITLE "One Woman"
PERFORMER "Isis"
INDEX 01 00:00:00
FILE "04 - It's Only a Matter of Time.wav" WAVE
TRACK 04 AUDIO
TITLE "It's Only a Matter of Time"
PERFORMER "Isis"
INDEX 01 00:00:00
FILE "05 - Loving You Through Music (Dedicated to Laura Nyro).wav" WAVE
TRACK 05 AUDIO
TITLE "Loving You Through Music (Dedicated to Laura Nyro)"
PERFORMER "Isis"
INDEX 01 00:00:00
FILE "06 - Give It Up.wav" WAVE
TRACK 06 AUDIO
TITLE "Give It Up"
PERFORMER "Isis"
INDEX 01 00:00:00
FILE "07 - Crazy Lady.wav" WAVE
TRACK 07 AUDIO
TITLE "Crazy Lady"
PERFORMER "Isis"
INDEX 01 00:00:00
FILE "08 - Get Crazy.wav" WAVE
TRACK 08 AUDIO
TITLE "Get Crazy"
PERFORMER "Isis"
INDEX 01 00:00:00
FILE "09 - Looking for a Space.wav" WAVE
TRACK 09 AUDIO
TITLE "Looking for a Space"
PERFORMER "Isis"
INDEX 01 00:00:00
FILE "10 - It's Wonderful.wav" WAVE
TRACK 10 AUDIO
TITLE "It's Wonderful"
PERFORMER "Isis"
INDEX 01 00:00:00
FILE "11 - New York State of Mind.wav" WAVE
TRACK 11 AUDIO
TITLE "New York State of Mind"
PERFORMER "Isis"
INDEX 01 00:00:00
 
Отчет CUETools
[CUETools log; Date: 21.06.2015 23:42:29; Version: 2.1.5]
[CTDB TOCID: 5GUto3xDL0dIqIQZZtIfsI1GHq0-] found.
Track | CTDB Status
1 | (1/1) Accurately ripped
2 | (1/1) Accurately ripped
3 | (1/1) Accurately ripped
4 | (1/1) Accurately ripped
5 | (1/1) Accurately ripped
6 | (1/1) Accurately ripped
7 | (1/1) Accurately ripped
8 | (1/1) Accurately ripped
9 | (1/1) Accurately ripped
10 | (1/1) Accurately ripped
11 | (1/1) Accurately ripped
[AccurateRip ID: 0011e862-009b68a2-8c0a670b] disk not present in database.
Track Peak [ CRC32 ] [W/O NULL] [ LOG ]
-- 98,2 [CF874E49] [B36B0A0B]
01 95,2 [73E414F9] [647BF4A9] CRC32
02 98,2 [C74612AF] [E0C78600] CRC32
03 95,1 [379D983F] [E53BD46F] CRC32
04 96,4 [1B43D39D] [CBC81724] CRC32
05 94,6 [EEF2F294] [911AFC92] CRC32
06 96,4 [78C878AF] [4684AB08] CRC32
07 93,3 [8A21CEFF] [0187668D] CRC32
08 95,4 [5A6351D4] [13405138] CRC32
09 95,4 [0DE99646] [C7975D06] CRC32
10 94,7 [A06D3F37] [F1F9562F] CRC32
11 94,7 [E424B93A] [6819ABDE] CRC32
 
Об альбоме (сборнике)
By 1977 the female rock band ISIS contained one original member , CAROL MACDONALD, the founder, lead singer & rhythm guitarist who conceived of the band in the early 70's. This third album is a good one. The first self-titled album was ground-breaking . The 2nd was heavier on the funk. This 3rd one is a gentler Isis, yet still stirs up some great tunes. The musicianship is excellent as usual, with a mix of pop, jazz, fusion and R&B. These women could play. It's wonderful to hear this music now, especially when hearing real instruments on an album is not a given thing anymore. The songs run the gamut from soothing to rocking. The differences from the other two albums are that this one is more relaxed, laid back, with moments of funky brilliance. The band sounds fresh with a gentler sound, but still with those horns, organ, congas that differeniated it from being just another rock band. Faith Fusillo was a new addition to the band, and she contributed lead vocals, guitar and songs here. Margo Lewis , the keyboard & Hammond organ player who was also in GOLDIE AND THE GINGERBREADS in the 60's with Carol , was still with the band too. Side One's GOD GIVE ME THE STRENGTH , ONE WOMAN, and LOVING YOU THROUGH MUSIC [ dedicated to Laura Nyro ] show the softer side to the band. LOVE LOVE LOVE and IT'S ONLY A MATTER OF TIME provide the uplifting rock . Side Two contains 3 longer songs that fit more into what they did on the first album. GET CRAZY is the highlight of the album , a track that is just fun to hear that the band lets loose on. LOOKING FOR A SPACE is a stunning closer. A great 70's jazz/rock fusion with room for experimentation and solos. GIVE IT UP is a dance song that doesn't get far though, and CRAZY LADY is just an interlude, not a full song. This album completed their trilogy of albums, with each album different. If only Isis had continued on. They made some great music, and certainly broke down old conventions . The 70's had a ton of great music, and Isis deserved more attention, airplay & hits. They were of the time, and ahead of their time.
-- gassy goon
Приватный:
Нет (DHT включён)
Размер:
269.15 Мб (282,227,201 байт) » файлов: 17
Участники:
0 раздают, 0 качают (0 участников всего)
Внешние участники:
2 раздают, 1 качают (3 участников всего) [ Обновить ]
Есть вопросы - пишите личное сообщение пользователю M0p94ok.
06:37
98
Нет комментариев. Ваш будет первым!