Поиск

(Funk, Soul) [CD] Isis - Ain't No Backin' Up Now - 1975 (2007 Japan Edition), FLAC (tracks+.cue), lossless

(Funk, Soul) [CD] Isis - Ain't No Backin' Up Now - 1975 (2007 Japan Edition), FLAC (tracks+.cue), lossless
Треклист:
Isis - Ain't No Backin' Up Now
Жанр: Funk, Soul
Носитель: CD
Страна-производитель диска (релиза): Япония
Год издания: 1975 (2007)
Издатель (лейбл): Vivid Sound Corporation/Muskrat Records
Номер по каталогу: RATCD-4270
Страна исполнителя (группы): США
Аудиокодек: FLAC (*.flac)
Тип рипа: tracks+.cue
Битрейт аудио: lossless
Продолжительность: 33:43
Источник (релизер): khalmandcollected (what)
Наличие сканов в содержимом раздачи: нет
Треклист:
01. Ain't No Backin' Up Now (3:38)
02. Icy Winds (3:12)
03. Old Stories (4:28)
04. Gold (3:17)
05. Eat the Root (3:52)
06. Bobbie & Maria (4:41)
07. Lost Romeo (3:52)
08. Come One, Come All (3:59)
09. Sunshine Tree (2:44)
 
Лог создания рипа
Exact Audio Copy V1.0 beta 6 from 9. April 2015
EAC extraction logfile from 19. June 2015, 14:42
Isis / Ain't No Backin' Up Now
Used drive : LITE-ON DVD+RW SOHW-802S Adapter: 1 ID: 0
Read mode : Secure
Utilize accurate stream : Yes
Defeat audio cache : Yes
Make use of C2 pointers : No
Read offset correction : 12
Overread into Lead-In and Lead-Out : No
Fill up missing offset samples with silence : Yes
Delete leading and trailing silent blocks : No
Null samples used in CRC calculations : Yes
Used interface : Native Win32 interface for Win NT & 2000
Gap handling : Appended to previous track
Used output format : User Defined Encoder
Selected bitrate : 1024 kBit/s
Quality : High
Add ID3 tag : No
Command line compressor : C:\Program Files\FLAC\flac.exe
Additional command line options : -8 -V -T "ARTIST=%artist%" -T "TITLE=%title%" -T "ALBUM=%albumtitle%" -T "DATE=%year%" -T "TRACKNUMBER=%tracknr%" -T "GENRE=%genre%" -T "PERFORMER=%albuminterpret%" -T "COMPOSER=%composer%" %haslyrics%--tag-from-file=LYRICS="%lyricsfile%"%haslyrics% -T "ALBUMARTIST=%albumartist%" -T "DISCNUMBER=%cdnumber%" -T "TOTALDISCS=%totalcds%" -T "TOTALTRACKS=%numtracks%" -T "COMMENT=%comment%" %source% -o %dest%
TOC of the extracted CD
Track | Start | Length | Start sector | End sector
---------------------------------------------------------
1 | 0:00.00 | 3:37.66 | 0 | 16340
2 | 3:37.66 | 3:11.59 | 16341 | 30724
3 | 6:49.50 | 4:27.53 | 30725 | 50802
4 | 11:17.28 | 3:17.01 | 50803 | 65578
5 | 14:34.29 | 3:51.61 | 65579 | 82964
6 | 18:26.15 | 4:41.16 | 82965 | 104055
7 | 23:07.31 | 3:52.01 | 104056 | 121456
8 | 26:59.32 | 3:59.05 | 121457 | 139386
9 | 30:58.37 | 2:44.13 | 139387 | 151699
Track 1
Filename C:\Users\kqwiet\Desktop\Music Conversions\01 - Ain't No Backin' Up Now.wav
Pre-gap length 0:00:02.00
Peak level 99.5 %
Extraction speed 2.2 X
Track quality 100.0 %
Test CRC 72EBF3CA
Copy CRC 72EBF3CA
Track not present in AccurateRip database
Copy OK
Track 2
Filename C:\Users\kqwiet\Desktop\Music Conversions\02 - Icy Winds.wav
Peak level 97.5 %
Extraction speed 2.4 X
Track quality 100.0 %
Test CRC FD522768
Copy CRC FD522768
Track not present in AccurateRip database
Copy OK
Track 3
Filename C:\Users\kqwiet\Desktop\Music Conversions\03 - Old Stories.wav
Peak level 98.7 %
Extraction speed 2.6 X
Track quality 100.0 %
Test CRC 0C9A4A52
Copy CRC 0C9A4A52
Track not present in AccurateRip database
Copy OK
Track 4
Filename C:\Users\kqwiet\Desktop\Music Conversions\04 - Gold.wav
Peak level 97.6 %
Extraction speed 2.7 X
Track quality 100.0 %
Test CRC 078496D2
Copy CRC 078496D2
Track not present in AccurateRip database
Copy OK
Track 5
Filename C:\Users\kqwiet\Desktop\Music Conversions\05 - Eat The Root.wav
Peak level 97.7 %
Extraction speed 2.9 X
Track quality 100.0 %
Test CRC B9FF67F9
Copy CRC B9FF67F9
Track not present in AccurateRip database
Copy OK
Track 6
Filename C:\Users\kqwiet\Desktop\Music Conversions\06 - Bobbie & Maria.wav
Peak level 100.0 %
Extraction speed 3.2 X
Track quality 99.9 %
Test CRC 325668BA
Copy CRC 325668BA
Track not present in AccurateRip database
Copy OK
Track 7
Filename C:\Users\kqwiet\Desktop\Music Conversions\07 - Lost Romeo.wav
Peak level 100.0 %
Extraction speed 3.3 X
Track quality 100.0 %
Test CRC DB2CDD33
Copy CRC DB2CDD33
Track not present in AccurateRip database
Copy OK
Track 8
Filename C:\Users\kqwiet\Desktop\Music Conversions\08 - Come One, Come All.wav
Peak level 100.0 %
Extraction speed 3.4 X
Track quality 100.0 %
Test CRC 0E38ADF4
Copy CRC 0E38ADF4
Track not present in AccurateRip database
Copy OK
Track 9
Filename C:\Users\kqwiet\Desktop\Music Conversions\09 - Sunshine Tree.wav
Peak level 100.0 %
Extraction speed 2.8 X
Track quality 100.0 %
Test CRC D772CD7E
Copy CRC D772CD7E
Track not present in AccurateRip database
Copy OK
None of the tracks are present in the AccurateRip database
No errors occurred
End of status report
---- CUETools DB Plugin V2.1.6
[CTDB TOCID: u.4o5IRDm1HNWhUdixPrY6ukWWI-] disk not present in database
Submit result: u.4o5IRDm1HNWhUdixPrY6ukWWI- has been uploaded
==== Log checksum D0B5D5F380EE8B663564F9C79FA0DADEE1D3E0E39EC6A081C59BFEC5758C6750 ====
 
Содержание индексной карты (.CUE)
REM GENRE Jazz
REM DATE 1975
REM DISCID 7707E609
REM COMMENT "ExactAudioCopy v1.0b6"
PERFORMER "Isis"
TITLE "Ain't No Backin' Up Now"
FILE "01 - Ain't No Backin' Up Now.wav" WAVE
TRACK 01 AUDIO
TITLE "Ain't No Backin' Up Now"
PERFORMER "Isis"
INDEX 01 00:00:00
FILE "02 - Icy Winds.wav" WAVE
TRACK 02 AUDIO
TITLE "Icy Winds"
PERFORMER "Isis"
INDEX 01 00:00:00
FILE "03 - Old Stories.wav" WAVE
TRACK 03 AUDIO
TITLE "Old Stories"
PERFORMER "Isis"
INDEX 01 00:00:00
FILE "04 - Gold.wav" WAVE
TRACK 04 AUDIO
TITLE "Gold"
PERFORMER "Isis"
INDEX 01 00:00:00
FILE "05 - Eat the Root.wav" WAVE
TRACK 05 AUDIO
TITLE "Eat the Root"
PERFORMER "Isis"
INDEX 01 00:00:00
FILE "06 - Bobbie & Maria.wav" WAVE
TRACK 06 AUDIO
TITLE "Bobbie & Maria"
PERFORMER "Isis"
INDEX 01 00:00:00
FILE "07 - Lost Romeo.wav" WAVE
TRACK 07 AUDIO
TITLE "Lost Romeo"
PERFORMER "Isis"
INDEX 01 00:00:00
FILE "08 - Come One, Come All.wav" WAVE
TRACK 08 AUDIO
TITLE "Come One, Come All"
PERFORMER "Isis"
INDEX 01 00:00:00
FILE "09 - Sunshine Tree.wav" WAVE
TRACK 09 AUDIO
TITLE "Sunshine Tree"
PERFORMER "Isis"
INDEX 01 00:00:00
 
Отчет CUETools
[CUETools log; Date: 21.06.2015 23:25:11; Version: 2.1.5]
[CTDB TOCID: u.4o5IRDm1HNWhUdixPrY6ukWWI-] found.
Track | CTDB Status
1 | (1/1) Accurately ripped
2 | (1/1) Accurately ripped
3 | (1/1) Accurately ripped
4 | (1/1) Accurately ripped
5 | (1/1) Accurately ripped
6 | (1/1) Accurately ripped
7 | (1/1) Accurately ripped
8 | (1/1) Accurately ripped
9 | (1/1) Accurately ripped
[AccurateRip ID: 000ba485-0055d5c6-7707e609] disk not present in database.
Track Peak [ CRC32 ] [W/O NULL] [ LOG ]
-- 100,0 [B26434D6] [8F68CAA4]
01 99,5 [72EBF3CA] [EBDF18D4] CRC32
02 97,5 [FD522768] [F467163D] CRC32
03 98,7 [0C9A4A52] [51411B29] CRC32
04 97,6 [078496D2] [F46F2261] CRC32
05 97,7 [B9FF67F9] [9B6A91E4] CRC32
06 100,0 [325668BA] [5937FB2E] CRC32
07 100,0 [DB2CDD33] [B71C0656] CRC32
08 100,0 [0E38ADF4] [30FFBC3B] CRC32
09 100,0 [D772CD7E] [11342216] CRC32
 
Review by Alex Henderson
The 1970s were full of large soul-funk bands that had nine or ten members (in some cases, even more), and the majority of them were male dominated if not entirely male. An obscure 1970s band that should not be confused with the 1990s rapper Isis, this Isis was a rarity in that all ten of its members were women. The interracial unit didn't get very far commercially, a fact that some attributed to sexism. But another explanation for Isis' lack of commercial success is the fact that its albums were uneven. Partly produced by New Orleans dynamo Allen Toussaint, Ain't No Backin' up Now is a decent but unremarkable album along the lines of Labelle and Tina Turner. Toussaint produced Labelle's most essential albums, although this LP (which has been out of print since the late '70s) lacks the excellence of Labelle gems like Nightbirds and Phoenix. Not surprisingly, the album's best songs (which include "Gold" and the funky title song) are the ones that were written by Toussaint instead of by lead singer Carol MacDonald, saxophonist Jeanie Fineberg, or other Isis members. With the right guidance and direction, Isis might have eventually developed into an outfit that was great instead of merely competent. But Isis broke up after this album, and it's safe to say that the vast majority of R&B fans have never even heard of the band.
Приватный:
Нет (DHT включён)
Размер:
217.35 Мб (227,905,766 байт) » файлов: 15
Участники:
0 раздают, 0 качают (0 участников всего)
Внешние участники:
2 раздают, 1 качают (3 участников всего) [ Обновить ]
Есть вопросы - пишите личное сообщение пользователю M0p94ok.
06:36
65
Нет комментариев. Ваш будет первым!