Поиск

(R&B,New Jack Swing,Neo Soul,Hip Hop,House) [CDS] Laurnea - Days Of Youth - 1997, FLAC (image+.cue), lossless

(R&B,New Jack Swing,Neo Soul,Hip Hop,House) [CDS] Laurnea - Days Of Youth - 1997, FLAC (image+.cue), lossless
Треклист:
Laurnea / Days Of Youth
Жанр: R&B,New Jack Swing,Neo Soul,Hip Hop,House
Носитель: CDS
Страна-производитель диска (релиза): Europe
Год издания: 1997
Издатель (лейбл): Yub Yum/Epic/Sony
Номер по каталогу: Epic ‎– EPC 664307 2, Yab Yum Records ‎– 664307 2
Страна исполнителя (группы): US
Аудиокодек: FLAC (*.flac)
Тип рипа: image+.cue
Битрейт аудио: lossless
Продолжительность: 00:36:15
Источник (релизер): собственный рип
Наличие сканов в содержимом раздачи: нет
Треклист:
1 Days Of Youth (Album Version)
2 Days Of Youth (Speech's Favorette Mix)
3 Days Of Youth (Best Kept Secret Alternative Mix)
4 Days Of Youth (Best Kept Secret Club Mix)
5 Days Of Youth (Cutfather & Joe 12" Version)
6 Days Of Youth (Red Soul Mix)
7 Days Of Youth (Tony Moran's 12" Mix)
 
Лог создания рипа
Exact Audio Copy V1.0 beta 6 from 9. April 2015
EAC extraction logfile from 20. June 2015, 4:00
Laurnea / Days of Youth
Used drive : HL-DT-STDVDRAM GT20N Adapter: 1 ID: 0
Read mode : Secure
Utilize accurate stream : Yes
Defeat audio cache : Yes
Make use of C2 pointers : No
Read offset correction : 667
Overread into Lead-In and Lead-Out : No
Fill up missing offset samples with silence : Yes
Delete leading and trailing silent blocks : No
Null samples used in CRC calculations : Yes
Used interface : Native Win32 interface for Win NT & 2000
Used output format : User Defined Encoder
Selected bitrate : 768 kBit/s
Quality : High
Add ID3 tag : No
Command line compressor : C:\Program Files (x86)\Exact Audio Copy\Flac\flac.exe
Additional command line options : -V -8 -T "Date=%year%" -T "Genre=%genre%" %source%
TOC of the extracted CD
Track | Start | Length | Start sector | End sector
---------------------------------------------------------
1 | 0:00.00 | 3:37.00 | 0 | 16274
2 | 3:37.00 | 3:18.25 | 16275 | 31149
3 | 6:55.25 | 4:34.70 | 31150 | 51769
4 | 11:30.20 | 4:56.25 | 51770 | 73994
5 | 16:26.45 | 6:24.00 | 73995 | 102794
6 | 22:50.45 | 5:04.00 | 102795 | 125594
7 | 27:54.45 | 8:20.64 | 125595 | 163158
Range status and errors
Selected range
Filename C:\Users\maritu\Music\RIPS\Laurnea - Days of Youth.wav
Peak level 100.0 %
Extraction speed 1.8 X
Range quality 100.0 %
Test CRC 5CD84C72
Copy CRC 5CD84C72
Copy OK
No errors occurred
AccurateRip summary
Track 1 accurately ripped (confidence 1) [1707427C] (AR v1)
Track 2 accurately ripped (confidence 1) [6A9A2A04] (AR v1)
Track 3 accurately ripped (confidence 1) [00DAADEA] (AR v1)
Track 4 accurately ripped (confidence 1) [E1D67CEC] (AR v1)
Track 5 accurately ripped (confidence 1) [5C030356] (AR v1)
Track 6 accurately ripped (confidence 1) [8B4E79D8] (AR v1)
Track 7 accurately ripped (confidence 1) [7DA60C09] (AR v1)
All tracks accurately ripped
End of status report
==== Log checksum E61C31B1F90CA3C688B320CAB775E0F2A1273D86F12E91CDA92C729F7111E138 ====
 
Об исполнителе (группе)
Laurnea made her debut in the R&B industry in 1997 with the release of her album 'Betta Listen.' The album featured production by Omar, Raphael Saadiq, and Speech. However, Laurnea was not content with working with Sony and in 2000, left to form her own label, Era Souond 1 Records.
On her own label, Laurnea released several albums. In 2000, Laurnea released Laurnea 2 in Japan, South East Asia and Australia. Despite being released only overseas, the album featured well-known producers like Jon B, Craig Love and Dwayne Wiggins. Following up this release, Laurnea released New Territory in 2002. Again, the album was released exclusively overseas.
2004 saw another release from Laurnea as she released I Remember in Japan with production by India Arie and Billy Odum. Finally, in 2005, Laurnea returned to the United States with the album The Collection which was actually a compilation of four songs from each of her past four cds. Laurnea has been working with India Arie on her last 3 CDs and writing for film and T.V. Also working on American Idol and working with Rachell Farrell. Laurnea is now is completing her 6th CD, to be called Butterfly the Flying Flower.
In addition to releasing these albums, Laurnea has scored roles in the Spike Lee films School Daze, Hoodlum, My Past is My Own (with Whoopie Goldberg) and more.
 
Об альбоме (сборнике)
2 Remix – Speech
3 Remix – Best Kept Secret
4 Remix – Best Kept Secret
5 Remix – Cutfather & Joe
6 Remix – Mike Cee
7 Remix – Tony Moran
Приватный:
Нет (DHT включён)
Размер:
247.22 Мб (259,234,002 байт) » файлов: 8
Участники:
0 раздают, 0 качают (0 участников всего)
Внешние участники:
1 раздают, 0 качают (1 участников всего) [ Обновить ]
No seeders - write a personal message to user M0p94ok. Нет сидеров - пишите личное сообщение пользователю M0p94ok.
06:40
69
Нет комментариев. Ваш будет первым!