Поиск

(Soul) [CD] O.V. Wright - The Bottom Line (1978) - 2008, FLAC (tracks+.cue), lossless

(Soul) [CD] O.V. Wright - The Bottom Line (1978) - 2008, FLAC (tracks+.cue), lossless
Треклист:
O.V. Wright - The Bottom Line (1978)
Жанр: Soul
Носитель: CD
Страна-производитель диска (релиза): Japan
Год издания: 2008
Номер по каталогу: VICP 64293
Аудиокодек: FLAC (*.flac)
Тип рипа: tracks+.cue
Битрейт аудио: lossless
Продолжительность: 37:33
Rip by JET 1
Наличие сканов в содержимом раздачи: да
Треклист:
01. The Bottom Line (3:08)
02. I Don't Do Windows (2:20)
03. That's The Way I Feel About Cha (4:27)
04. Your Good Thing Is About To End (4:58)
05. Let's Straighten It Out (3:51)
06. I Don't Know Why (3:17)
07. No Easy Way To Say Goodbye (3:58)
08. A Little More Time (5:21)
09. Since You Left These Arms Of Mine (3:40)
10. A Long Road (2:32)
 
 
Лог создания рипа
Exact Audio Copy V1.0 beta 3 from 29. August 2011
EAC extraction logfile from 5. June 2015, 20:41
O.V. Wright / The Bottom Line
Used drive : ATAPI DVD A DH16A6L-C Adapter: 2 ID: 0
Read mode : Secure
Utilize accurate stream : Yes
Defeat audio cache : Yes
Make use of C2 pointers : No
Read offset correction : 6
Overread into Lead-In and Lead-Out : No
Fill up missing offset samples with silence : Yes
Delete leading and trailing silent blocks : No
Null samples used in CRC calculations : Yes
Used interface : Native Win32 interface for Win NT & 2000
Gap handling : Appended to previous track
Used output format : User Defined Encoder
Selected bitrate : 1024 kBit/s
Quality : High
Add ID3 tag : No
Command line compressor : C:\Program Files\FLAC\flac.exe
Additional command line options : -8 -V -T "ARTIST=%artist%" -T "TITLE=%title%" -T "ALBUM=%albumtitle%" -T "DATE=%year%" -T "TRACKNUMBER=%tracknr%" -T "GENRE=%genre%" -T "PERFORMER=%albuminterpret%" -T "COMPOSER=%composer%" %haslyrics%--tag-from-file=LYRICS="%lyricsfile%"%haslyrics% -T "ALBUMARTIST=%albumartist%" -T "DISCNUMBER=%cdnumber%" -T "TOTALDISCS=%totalcds%" -T "TOTALTRACKS=%numtracks%" -T "COMMENT=%comment%" %source% -o %dest%
TOC of the extracted CD
Track | Start | Length | Start sector | End sector
---------------------------------------------------------
1 | 0:00.00 | 3:08.12 | 0 | 14111
2 | 3:08.12 | 2:20.07 | 14112 | 24618
3 | 5:28.19 | 4:27.15 | 24619 | 44658
4 | 9:55.34 | 4:58.20 | 44659 | 67028
5 | 14:53.54 | 3:51.13 | 67029 | 84366
6 | 18:44.67 | 3:17.10 | 84367 | 99151
7 | 22:02.02 | 3:58.10 | 99152 | 117011
8 | 26:00.12 | 5:21.12 | 117012 | 141098
9 | 31:21.24 | 3:39.53 | 141099 | 157576
10 | 35:01.02 | 2:31.40 | 157577 | 168941
Track 1
Filename F:\MUSIC\0\POSTS\HI RECORDS BOX\O.V. Wright - The Bottom Line (1978) [2008 Japan Mini-CD]\01 - The Bottom Line.wav
Pre-gap length 0:00:02.00
Peak level 99.9 %
Extraction speed 3.2 X
Track quality 100.0 %
Test CRC 3FCF2C4B
Copy CRC 3FCF2C4B
Track not present in AccurateRip database
Copy OK
Track 2
Filename F:\MUSIC\0\POSTS\HI RECORDS BOX\O.V. Wright - The Bottom Line (1978) [2008 Japan Mini-CD]\02 - I Don't Do Windows.wav
Pre-gap length 0:00:01.47
Peak level 100.0 %
Extraction speed 2.4 X
Track quality 99.9 %
Test CRC 6923E3EF
Copy CRC 6923E3EF
Track not present in AccurateRip database
Copy OK
Track 3
Filename F:\MUSIC\0\POSTS\HI RECORDS BOX\O.V. Wright - The Bottom Line (1978) [2008 Japan Mini-CD]\03 - That's The Way I Feel About Cha.wav
Pre-gap length 0:00:01.44
Peak level 98.7 %
Extraction speed 3.9 X
Track quality 100.0 %
Test CRC DE262749
Copy CRC DE262749
Track not present in AccurateRip database
Copy OK
Track 4
Filename F:\MUSIC\0\POSTS\HI RECORDS BOX\O.V. Wright - The Bottom Line (1978) [2008 Japan Mini-CD]\04 - Your Good Thing Is About To End.wav
Pre-gap length 0:00:01.21
Peak level 99.9 %
Extraction speed 4.3 X
Track quality 100.0 %
Test CRC A3C42502
Copy CRC A3C42502
Track not present in AccurateRip database
Copy OK
Track 5
Filename F:\MUSIC\0\POSTS\HI RECORDS BOX\O.V. Wright - The Bottom Line (1978) [2008 Japan Mini-CD]\05 - Let's Straighten It Out.wav
Pre-gap length 0:00:00.64
Peak level 92.3 %
Extraction speed 4.4 X
Track quality 100.0 %
Test CRC 2E30DCA6
Copy CRC 2E30DCA6
Track not present in AccurateRip database
Copy OK
Track 6
Filename F:\MUSIC\0\POSTS\HI RECORDS BOX\O.V. Wright - The Bottom Line (1978) [2008 Japan Mini-CD]\06 - I Don't Know Why.wav
Pre-gap length 0:00:01.24
Peak level 95.0 %
Extraction speed 4.7 X
Track quality 100.0 %
Test CRC A5D573BD
Copy CRC A5D573BD
Track not present in AccurateRip database
Copy OK
Track 7
Filename F:\MUSIC\0\POSTS\HI RECORDS BOX\O.V. Wright - The Bottom Line (1978) [2008 Japan Mini-CD]\07 - No Easy Way To Say Goodbye.wav
Pre-gap length 0:00:01.22
Peak level 92.2 %
Extraction speed 5.0 X
Track quality 100.0 %
Test CRC 43A40C78
Copy CRC 43A40C78
Track not present in AccurateRip database
Copy OK
Track 8
Filename F:\MUSIC\0\POSTS\HI RECORDS BOX\O.V. Wright - The Bottom Line (1978) [2008 Japan Mini-CD]\08 - A Little More Time.wav
Pre-gap length 0:00:03.02
Peak level 80.0 %
Extraction speed 5.4 X
Track quality 100.0 %
Test CRC 895E638F
Copy CRC 895E638F
Track not present in AccurateRip database
Copy OK
Track 9
Filename F:\MUSIC\0\POSTS\HI RECORDS BOX\O.V. Wright - The Bottom Line (1978) [2008 Japan Mini-CD]\09 - Since You Left These Arms Of Mine.wav
Pre-gap length 0:00:02.44
Peak level 64.6 %
Extraction speed 5.5 X
Track quality 100.0 %
Test CRC F0E332EF
Copy CRC F0E332EF
Track not present in AccurateRip database
Copy OK
Track 10
Filename F:\MUSIC\0\POSTS\HI RECORDS BOX\O.V. Wright - The Bottom Line (1978) [2008 Japan Mini-CD]\10 - A Long Road.wav
Pre-gap length 0:00:00.30
Peak level 84.1 %
Extraction speed 5.3 X
Track quality 100.0 %
Test CRC CB3216A3
Copy CRC CB3216A3
Track not present in AccurateRip database
Copy OK
None of the tracks are present in the AccurateRip database
No errors occurred
End of status report
==== Log checksum 4855AA7F3A739F412402C9AF10FC0ABF301D974CACEA77065D52F11BF7B57224 ====
 
Содержание индексной карты (.CUE)
REM GENRE Soul
REM DATE 1978
REM DISCID 7908CC0A
REM COMMENT "ExactAudioCopy v1.0b3"
PERFORMER "O.V. Wright"
TITLE "The Bottom Line"
FILE "01 - The Bottom Line.wav" WAVE
TRACK 01 AUDIO
TITLE "The Bottom Line"
PERFORMER "O.V. Wright"
INDEX 01 00:00:00
TRACK 02 AUDIO
TITLE "I Don't Do Windows"
PERFORMER "O.V. Wright"
INDEX 00 03:06:40
FILE "02 - I Don't Do Windows.wav" WAVE
INDEX 01 00:00:00
TRACK 03 AUDIO
TITLE "That's The Way I Feel About Cha"
PERFORMER "O.V. Wright"
INDEX 00 02:18:38
FILE "03 - That's The Way I Feel About Cha.wav" WAVE
INDEX 01 00:00:00
TRACK 04 AUDIO
TITLE "Your Good Thing Is About To End"
PERFORMER "O.V. Wright"
INDEX 00 04:25:69
FILE "04 - Your Good Thing Is About To End.wav" WAVE
INDEX 01 00:00:00
TRACK 05 AUDIO
TITLE "Let's Straighten It Out"
PERFORMER "O.V. Wright"
INDEX 00 04:57:31
FILE "05 - Let's Straighten It Out.wav" WAVE
INDEX 01 00:00:00
TRACK 06 AUDIO
TITLE "I Don't Know Why"
PERFORMER "O.V. Wright"
INDEX 00 03:49:64
FILE "06 - I Don't Know Why.wav" WAVE
INDEX 01 00:00:00
TRACK 07 AUDIO
TITLE "No Easy Way To Say Goodbye"
PERFORMER "O.V. Wright"
INDEX 00 03:15:63
FILE "07 - No Easy Way To Say Goodbye.wav" WAVE
INDEX 01 00:00:00
TRACK 08 AUDIO
TITLE "A Little More Time"
PERFORMER "O.V. Wright"
INDEX 00 03:55:08
FILE "08 - A Little More Time.wav" WAVE
INDEX 01 00:00:00
TRACK 09 AUDIO
TITLE "Since You Left These Arms Of Mine"
PERFORMER "O.V. Wright"
INDEX 00 05:18:43
FILE "09 - Since You Left These Arms Of Mine.wav" WAVE
INDEX 01 00:00:00
TRACK 10 AUDIO
TITLE "A Long Road"
PERFORMER "O.V. Wright"
INDEX 00 03:39:23
FILE "10 - A Long Road.wav" WAVE
INDEX 01 00:00:00
Приватный:
Нет (DHT включён)
Размер:
341.23 Мб (357,803,200 байт) » файлов: 28
Участники:
0 раздают, 0 качают (0 участников всего)
Внешние участники:
2 раздают, 1 качают (3 участников всего) [ Обновить ]
Есть вопросы - пишите личное сообщение пользователю M0p94ok.
06:40
63
Нет комментариев. Ваш будет первым!