Поиск

(Soul) [CD] O.V. Wright - We're Still Together (1979) - 2008, FLAC (tracks+.cue), lossless

(Soul) [CD] O.V. Wright - We're Still Together (1979) - 2008, FLAC (tracks+.cue), lossless
Треклист:
O.V. Wright - We're Still Together (1979)
Жанр: Soul
Носитель: CD
Страна-производитель диска (релиза): Japan
Год издания: 2008
Издатель (лейбл): Victor
Номер по каталогу: VICP 64294
Аудиокодек: FLAC (*.flac)
Тип рипа: tracks+.cue
Битрейт аудио: lossless
Продолжительность: 37:28
Rip by JET 1
Наличие сканов в содержимом раздачи: да
Треклист:
01. We're Still Together (3:46)
02. I Found Peace (4:13)
03. It's Cold Without Your Love (3:42)
04. Baby Baby Baby (3:29)
05. I'm Gonna Stay (3:23)
06. The Hurt Is On (5:13)
07. Today I Sing The Blues (4:45)
08. Mirror Of My Soul (4:30)
09. Sacrifice (4:29)
 
 
Лог создания рипа
Exact Audio Copy V1.0 beta 3 from 29. August 2011
EAC extraction logfile from 5. June 2015, 23:54
O.V. Wright / We're Still Together
Used drive : ATAPI DVD A DH16A6L-C Adapter: 2 ID: 0
Read mode : Secure
Utilize accurate stream : Yes
Defeat audio cache : Yes
Make use of C2 pointers : No
Read offset correction : 6
Overread into Lead-In and Lead-Out : No
Fill up missing offset samples with silence : Yes
Delete leading and trailing silent blocks : No
Null samples used in CRC calculations : Yes
Used interface : Native Win32 interface for Win NT & 2000
Gap handling : Appended to previous track
Used output format : User Defined Encoder
Selected bitrate : 1024 kBit/s
Quality : High
Add ID3 tag : No
Command line compressor : C:\Program Files\FLAC\flac.exe
Additional command line options : -8 -V -T "ARTIST=%artist%" -T "TITLE=%title%" -T "ALBUM=%albumtitle%" -T "DATE=%year%" -T "TRACKNUMBER=%tracknr%" -T "GENRE=%genre%" -T "PERFORMER=%albuminterpret%" -T "COMPOSER=%composer%" %haslyrics%--tag-from-file=LYRICS="%lyricsfile%"%haslyrics% -T "ALBUMARTIST=%albumartist%" -T "DISCNUMBER=%cdnumber%" -T "TOTALDISCS=%totalcds%" -T "TOTALTRACKS=%numtracks%" -T "COMMENT=%comment%" %source% -o %dest%
TOC of the extracted CD
Track | Start | Length | Start sector | End sector
---------------------------------------------------------
1 | 0:00.00 | 3:46.14 | 0 | 16963
2 | 3:46.14 | 4:12.45 | 16964 | 35908
3 | 7:58.59 | 3:41.50 | 35909 | 52533
4 | 11:40.34 | 3:28.38 | 52534 | 68171
5 | 15:08.72 | 3:22.62 | 68172 | 83383
6 | 18:31.59 | 5:12.40 | 83384 | 106823
7 | 23:44.24 | 4:45.33 | 106824 | 128231
8 | 28:29.57 | 4:30.10 | 128232 | 148491
9 | 32:59.67 | 4:28.43 | 148492 | 168634
Track 1
Filename F:\MUSIC\0\POSTS\HI RECORDS BOX\O.V. Wright - We're Still Together (1979) [2008 Japan Mini-CD]\01 - We're Still Together.wav
Pre-gap length 0:00:02.00
Peak level 97.4 %
Extraction speed 3.3 X
Track quality 100.0 %
Test CRC 8F7017CE
Copy CRC 8F7017CE
Accurately ripped (confidence 1) [BCC89FB1] (AR v2)
Copy OK
Track 2
Filename F:\MUSIC\0\POSTS\HI RECORDS BOX\O.V. Wright - We're Still Together (1979) [2008 Japan Mini-CD]\02 - I Found Peace.wav
Pre-gap length 0:00:01.36
Peak level 97.4 %
Extraction speed 3.7 X
Track quality 100.0 %
Test CRC 525E39DB
Copy CRC 525E39DB
Accurately ripped (confidence 1) [8227BD28] (AR v2)
Copy OK
Track 3
Filename F:\MUSIC\0\POSTS\HI RECORDS BOX\O.V. Wright - We're Still Together (1979) [2008 Japan Mini-CD]\03 - It's Cold Without Your Love.wav
Pre-gap length 0:00:01.29
Peak level 97.3 %
Extraction speed 4.0 X
Track quality 100.0 %
Test CRC ED3C57C9
Copy CRC ED3C57C9
Accurately ripped (confidence 1) [33721F39] (AR v2)
Copy OK
Track 4
Filename F:\MUSIC\0\POSTS\HI RECORDS BOX\O.V. Wright - We're Still Together (1979) [2008 Japan Mini-CD]\04 - Baby Baby Baby.wav
Pre-gap length 0:00:01.69
Peak level 97.4 %
Extraction speed 3.4 X
Track quality 99.9 %
Test CRC 30D77B05
Copy CRC 30D77B05
Accurately ripped (confidence 1) [A83FEAD4] (AR v2)
Copy OK
Track 5
Filename F:\MUSIC\0\POSTS\HI RECORDS BOX\O.V. Wright - We're Still Together (1979) [2008 Japan Mini-CD]\05 - I'm Gonna Stay.wav
Pre-gap length 0:00:01.34
Peak level 96.3 %
Extraction speed 3.5 X
Track quality 99.9 %
Test CRC FFFC22E9
Copy CRC FFFC22E9
Accurately ripped (confidence 1) [0B2ABED8] (AR v2)
Copy OK
Track 6
Filename F:\MUSIC\0\POSTS\HI RECORDS BOX\O.V. Wright - We're Still Together (1979) [2008 Japan Mini-CD]\06 - The Hurt Is On.wav
Pre-gap length 0:00:01.36
Peak level 97.4 %
Extraction speed 5.0 X
Track quality 100.0 %
Test CRC E88A80B6
Copy CRC E88A80B6
Accurately ripped (confidence 1) [34C78C58] (AR v2)
Copy OK
Track 7
Filename F:\MUSIC\0\POSTS\HI RECORDS BOX\O.V. Wright - We're Still Together (1979) [2008 Japan Mini-CD]\07 - Today I Sing The Blues.wav
Pre-gap length 0:00:01.46
Peak level 97.3 %
Extraction speed 5.2 X
Track quality 100.0 %
Test CRC 73340D71
Copy CRC 73340D71
Accurately ripped (confidence 1) [0B42E212] (AR v2)
Copy OK
Track 8
Filename F:\MUSIC\0\POSTS\HI RECORDS BOX\O.V. Wright - We're Still Together (1979) [2008 Japan Mini-CD]\08 - Mirror Of My Soul.wav
Pre-gap length 0:00:02.22
Peak level 94.7 %
Extraction speed 5.5 X
Track quality 100.0 %
Test CRC 990255AD
Copy CRC 990255AD
Accurately ripped (confidence 1) [DF836F41] (AR v2)
Copy OK
Track 9
Filename F:\MUSIC\0\POSTS\HI RECORDS BOX\O.V. Wright - We're Still Together (1979) [2008 Japan Mini-CD]\09 - Sacrifice.wav
Pre-gap length 0:00:01.39
Peak level 97.3 %
Extraction speed 4.7 X
Track quality 99.9 %
Test CRC 7BDC0E24
Copy CRC 7BDC0E24
Accurately ripped (confidence 1) [E79D731E] (AR v2)
Copy OK
All tracks accurately ripped
No errors occurred
End of status report
==== Log checksum CA1F56161F1F66A4ACAE90CF635D706CBD2C34B8532462269F7177027506469A ====
 
Содержание индексной карты (.CUE)
REM GENRE Soul
REM DATE 1979
REM DISCID 5D08C809
REM COMMENT "ExactAudioCopy v1.0b3"
PERFORMER "O.V. Wright"
TITLE " We're Still Together"
FILE "01 - We're Still Together.wav" WAVE
TRACK 01 AUDIO
TITLE "We're Still Together"
PERFORMER "O.V. Wright"
INDEX 01 00:00:00
TRACK 02 AUDIO
TITLE "I Found Peace"
PERFORMER "O.V. Wright"
INDEX 00 03:44:53
FILE "02 - I Found Peace.wav" WAVE
INDEX 01 00:00:00
TRACK 03 AUDIO
TITLE "It's Cold Without Your Love"
PERFORMER "O.V. Wright"
INDEX 00 04:11:16
FILE "03 - It's Cold Without Your Love.wav" WAVE
INDEX 01 00:00:00
TRACK 04 AUDIO
TITLE "Baby Baby Baby"
PERFORMER "O.V. Wright"
INDEX 00 03:39:56
FILE "04 - Baby Baby Baby.wav" WAVE
INDEX 01 00:00:00
TRACK 05 AUDIO
TITLE "I'm Gonna Stay"
PERFORMER "O.V. Wright"
INDEX 00 03:27:04
FILE "05 - I'm Gonna Stay.wav" WAVE
INDEX 01 00:00:00
TRACK 06 AUDIO
TITLE "The Hurt Is On"
PERFORMER "O.V. Wright"
INDEX 00 03:21:26
FILE "06 - The Hurt Is On.wav" WAVE
INDEX 01 00:00:00
TRACK 07 AUDIO
TITLE "Today I Sing The Blues"
PERFORMER "O.V. Wright"
INDEX 00 05:10:69
FILE "07 - Today I Sing The Blues.wav" WAVE
INDEX 01 00:00:00
TRACK 08 AUDIO
TITLE "Mirror Of My Soul"
PERFORMER "O.V. Wright"
INDEX 00 04:43:11
FILE "08 - Mirror Of My Soul.wav" WAVE
INDEX 01 00:00:00
TRACK 09 AUDIO
TITLE "Sacrifice"
PERFORMER "O.V. Wright"
INDEX 00 04:28:46
FILE "09 - Sacrifice.wav" WAVE
INDEX 01 00:00:00
Приватный:
Нет (DHT включён)
Размер:
363.92 Мб (381,593,670 байт) » файлов: 27
Участники:
0 раздают, 0 качают (0 участников всего)
Внешние участники:
1 раздают, 0 качают (1 участников всего) [ Обновить ]
Есть вопросы - пишите личное сообщение пользователю M0p94ok.
06:41
139
Нет комментариев. Ваш будет первым!